#TITLE:Red Room;
#ARTIST:Jesper Kyd;
#BANNER:Red Room.png;
#BACKGROUND:Red Room-bg.png;
#MUSIC:Red Room.ogg;
#SAMPLESTART:17.94;
#SAMPLELENGTH:15;
#BPMS:0=120;
#STOPS:164=0.746;
#BGCHANGES:8=Red Room.avi=1=1=0=0,217.25=Red Room-bg.png=1=0=0=1;

//---------------dance-single - ----------------
#NOTES:
     dance-single:
     :
     Beginner:
     1:
     :
0000
0000
0000
0000
,
0000
0000
0000
0000
,
0000
0000
0000
0000
,
0000
0000
0000
0000
,
0000
0000
0000
0000
,
0000
0100
0000
0000
,
0000
0100
0000
0000
,
0000
0100
0000
0000
,
0010
0000
0000
0000
,
1001
0000
0000
0000
,
1000
0000
0010
0000
,
1001
0000
0000
0000
,
0001
0000
0010
0000
,
1001
0000
0000
0000
,
0010
0000
0100
0000
,
1001
0000
0000
0000
,
0100
0000
0100
0000
,
1001
0000
1000
0000
,
0100
0000
0100
0000
,
1001
0000
0000
0000
,
0001
0001
0001
0000
,
1001
0000
0001
0000
,
0100
0000
0100
0000
,
1001
0000
0000
0000
,
1000
1000
1000
0000
,
1001
0000
0010
0000
,
1000
0000
0100
0000
,
1001
0000
0000
0000
,
0010
0010
0010
0000
,
0100
0000
0010
0000
,
1000
0000
0000
0000
,
0100
0000
0010
0000
,
0001
0001
0001
0000
,
0010
0000
0100
0000
,
1000
0000
0000
0000
,
0010
0000
0100
0000
,
0001
0000
0000
0000
,
1000
0000
0001
0000
,
0100
0100
0100
0000
,
0110
0000
0000
0000
,
0000
0000
0000
0000
,
0000
0000
0000
0000
,
0010
0000
1000
0000
,
1001
0000
0000
0000
,
0010
0000
0000
1001
,
1001
0000
0000
0000
,
0100
0000
0001
0000
,
1001
0000
1000
0000
,
0100
0100
0100
0000
,
1001
0000
1000
0000
,
0010
0000
0001
0000
,
1001
0000
0000
0000
,
0010
0010
0010
0000
,
0110
0000
0000
0000
,
1001
0000
0000
0000
;

//---------------dance-single - ----------------
#NOTES:
     dance-single:
     :
     Easy:
     4:
     :
0000
0000
0000
0000
,
0000
0000
0000
0000
,
0000
0000
0000
0000
,
0000
0000
0000
0000
,
0000
0000
0000
0000
,
0001
0100
0001
0001
,
1000
0100
0010
1000
,
0010
1000
1000
0010
,
0001
0100
0001
0100
,
0002
0100
1000
0103
,
2000
0001
0010
3010
,
0020
0100
1000
1030
,
0010
0100
0001
1000
,
0001
1000
1000
0100
,
2000
0001
3100
0001
,
2000
0001
3001
1000
,
0100
1000
0100
0000
,
0010
0000
0010
1000
,
0100
0000
0001
0100
,
1000
0000
0010
1000
,
0001
0000
0000
0000
0010
0000
0001
1000
,
0010
1000
0000
1000
,
0100
0000
0001
0100
,
0010
0001
0000
0100
,
1000
0000
0010
0010
,
0001
0000
0001
0010
,
1000
0000
0100
1000
,
1000
0000
0001
0100
,
1000
0000
0010
1000
,
0001
0100
0010
0001
,
0010
1000
1000
0010
,
0001
0001
0100
0001
,
0100
1000
0100
1000
,
0001
0001
0000
1000
,
1000
0010
0000
0100
,
0010
1000
0000
0100
,
0100
0001
0000
0010
,
1001
0010
0000
0100
,
1000
0010
0000
0001
,
0010
1000
0001
1000
,
0100
1000
0010
0100
,
0001
1000
0000
0100
,
0010
0010
1000
0100
,
1010
0001
0000
0010
,
1000
0100
1000
0100
,
0002
0000
0103
0000
,
0000
0001
0100
0001
,
2000
0000
3100
0000
,
1000
0100
0010
0110
,
0010
0000
2000
0000
,
3000
0010
1000
0100
,
0002
0000
1003
0000
,
1001
0010
1001
0100
,
0001
0100
0001
0000
1000
0100
1000
0000
,
1100
0000
0000
0000
;

//---------------dance-single - ----------------
#NOTES:
     dance-single:
     :
     Medium:
     5:
     :
0000
0000
0000
0000
,
0000
0000
0000
0000
,
0000
0000
0000
0000
,
0000
0000
0000
0000
,
0000
0000
0000
0000
,
0100
0011
0100
1010
,
0010
0101
0010
1100
,
1001
0110
1010
0101
,
2002
0000
0000
3003
,
1010
0001
0110
0001
,
1010
0000
0110
0000
,
1001
0001
0010
0010
,
0100
0100
1000
1000
,
0101
1000
0110
1000
,
0101
0000
0110
0000
,
1001
1000
0100
0100
,
0010
0010
0001
0001
,
0110
0000
1000
0010
0001
0000
0010
0000
,
0001
0010
1000
0000
0010
0000
0100
0000
,
1001
0000
0001
0010
0100
0000
0100
0000
,
0010
0100
1000
0000
0001
0000
0100
0000
,
0110
0000
0001
0100
1000
0000
0100
0000
,
1000
0100
0001
0000
0100
0000
0010
0000
,
1001
0000
1000
0100
0010
0000
0010
0000
,
0100
0010
0001
0000
1000
0000
0010
0000
,
1100
0000
0001
0000
1000
0100
0010
0000
,
0001
0000
0100
0000
0001
0100
0010
0000
,
0101
0000
1000
0000
0001
0100
0010
0000
,
1000
0000
0100
0000
1000
0100
0020
0000
,
0031
0000
0100
0000
0010
1000
0100
0000
,
1000
0000
0100
0000
0010
0001
0100
0000
,
0010
0000
0100
0000
0001
0100
1000
0000
,
0100
0000
0010
0000
1000
0100
0001
0000
,
1000
0000
0011
0000
0010
0100
0010
0000
,
0001
0000
1010
0000
0010
0100
0010
0000
,
1000
0000
0101
0000
1000
0010
1000
0000
,
0001
0000
1100
0000
0010
0001
0010
0000
,
0110
1001
1100
0011
,
1001
0101
1010
1001
,
0200
0000
0000
0000
,
0320
0000
0000
0031
,
1001
0010
0001
0100
,
0010
1000
0001
0100
,
1001
0100
1000
0010
,
0100
0001
1000
0020
,
0030
1000
0001
0100
,
0010
1000
0100
1000
,
0011
0001
0101
0100
,
0110
0010
1010
1000
,
1100
0110
0011
0101
,
0110
1010
1100
1001
,
0011
0110
1100
1010
,
0110
0101
0011
1001
,
0220
0000
0000
0330
,
1001
0000
0000
0000
;

//---------------dance-single - ----------------
#NOTES:
     dance-single:
     :
     Hard:
     8:
     :
0000
0000
0000
0000
,
0000
0000
0000
0000
,
0000
0000
0000
0000
,
0000
0000
0000
0000
,
0000
0000
0000
0000
,
1000
0001
0100
0010
1000
0001
1000
0000
,
0001
0010
0100
1000
0010
0100
0001
0000
,
0010
0100
0001
0100
0001
0100
0010
0000
,
1000
0010
0100
0001
1000
0010
0100
0000
,
0110
0000
0000
0001
0000
1000
0100
0000
,
1100
0000
0000
0010
0000
0100
0001
0000
,
0101
0000
0000
1000
0000
0001
1000
0000
,
0010
0000
0000
0000
0100
0000
0000
0010
1000
0000
0001
0000
0001
0000
0000
0000
,
1001
0000
0001
0100
0000
0010
0100
0000
,
0001
0000
0000
0000
1000
0000
0000
0010
0100
0000
0001
0000
1000
0100
1000
0000
,
0101
0000
1000
0010
0000
1000
0001
0000
,
0100
0000
0000
0000
0001
0000
0000
1000
0100
0000
1100
0000
0000
0000
0000
0000
,
0010
1000
0010
1000
0000
0000
0010
0100
0010
0000
1000
0000
0001
0000
0000
0000
,
0100
0001
0100
0001
0000
0000
1000
0001
1000
0000
0010
0000
0100
0000
0000
0000
,
0001
1000
0001
1000
0000
0000
0010
1000
0010
0000
0100
0000
0001
0000
0000
0000
,
1000
0100
1000
0100
0000
0000
0010
0001
0010
0000
0001
0000
1000
0000
0000
0000
,
0101
0000
0001
1000
0000
1000
0001
0000
,
0100
0010
0100
0010
0000
0000
1000
0010
1000
0000
0010
0000
0100
0000
0000
0000
,
0110
0000
1000
0100
0000
0001
0100
0000
,
0001
0100
0001
0100
0000
0000
0010
0100
0010
0000
0100
0000
0010
0000
0000
0000
,
1000
0010
1000
0000
0000
0000
0000
0000
1000
0000
0100
0000
0010
0000
0000
0000
,
0001
0010
0001
0010
0000
0000
0100
1000
0100
0000
1000
0000
0001
0000
0000
0000
,
0001
0100
0001
0000
0000
0000
0000
0000
1000
0000
0010
0000
0100
0000
0000
0000
,
0001
1000
0001
1000
0000
0000
0010
0100
0010
0000
1000
0000
0001
0000
0000
0000
,
1000
0010
0100
0001
0010
0100
1000
0000
,
0010
0100
0001
1000
0001
0100
0010
0000
,
1000
0010
1000
0001
0100
0010
1000
0000
,
0100
0010
0001
1000
0100
0010
0001
0000
,
1000
0001
0000
0001
1000
0000
1000
0100
0000
0000
1000
0000
0001
0000
0000
0000
,
0001
0100
0000
0100
0010
0000
0010
1000
0000
0000
0001
0000
0100
0000
0000
0000
,
0010
1000
0000
1000
0001
0000
0001
0100
0000
0000
0010
0000
0100
0000
0000
0000
,
0100
0001
0000
0001
1000
0000
1000
0001
0000
0000
0100
0000
0010
0000
0000
0000
,
1001
0000
0010
1000
0000
0001
0100
0000
,
0001
0100
0000
0100
0010
0000
0010
1000
0000
0000
0001
0000
1000
0000
0000
0000
,
0010
1000
0010
0000
0001
0100
0001
0000
1000
0100
1000
0000
0001
0100
0001
0000
,
0100
0010
0100
0000
0001
1000
0001
0000
0010
0100
0010
0000
0100
1000
0100
0000
,
1100
0000
0001
0100
0000
0001
0100
0000
,
0010
1000
0010
1000
0001
1000
0100
0000
,
0011
0000
1000
0100
0000
0100
0010
0000
,
0001
0010
0100
1000
0001
0010
0100
0000
,
1000
0100
1000
0000
0000
0000
0000
0010
0100
0010
0100
0000
0000
0000
0000
0000
,
0000
0001
1000
0001
0100
0001
1000
0000
,
0001
0100
0001
0000
0000
0000
0000
1000
0100
1000
0100
0000
0000
0000
0000
0000
,
0101
0110
1010
1001
,
0010
0100
0010
0000
0000
0000
0000
1000
0001
1000
0001
0000
0000
0000
0000
0000
,
0000
0100
0010
1000
0001
1000
0100
0000
,
1000
0100
1000
0000
0000
0000
0000
1000
0001
1000
0001
0000
0000
0000
0000
0000
,
1001
0101
1001
1100
,
1000
0100
1000
0000
0001
0010
0001
0000
1000
0100
1000
0000
0001
0010
0001
0000
,
1001
0000
0000
0000
;

//---------------dance-double - ----------------
#NOTES:
     dance-double:
     :
     Beginner:
     1:
     :
00000000
00000000
00000000
00000000
,
00000000
00000000
00000000
00000000
,
00000000
00000000
00000000
00000000
,
00000000
00000000
00000000
00000000
,
00000000
00000000
00000000
00000000
,
00010000
00000000
00000000
00011000
,
00000000
00000000
00000000
00001001
,
00000000
00000000
00000000
00011000
,
00000000
00000000
00000000
00000000
,
01000000
00000000
00000000
00010000
,
00000000
00000000
10010000
00000000
,
01000000
00000000
00000000
00010000
,
00000000
00000000
00011000
00000000
,
00000100
00000000
00000000
00001000
,
00000000
00000000
00001001
00000000
,
00000100
00000000
00000000
00001000
,
00000000
00000000
00011000
00000000
,
00010000
00000000
10000000
00000000
,
00100000
00000000
00100000
00000000
,
00010000
00000000
00010000
00000000
,
00000100
00000000
00000100
00000000
,
00001000
00000000
00000001
00000000
,
00000010
00000000
00000010
00000000
,
00001000
00000000
00001000
00000000
,
01000000
00000000
01000000
00000000
,
01000000
00000000
00010000
00000000
,
00010000
00000000
00001000
00000000
,
00010000
00000000
00010000
00000000
,
00001000
00000000
00011000
00000000
,
00001000
00000000
00000100
00000000
,
00000001
00000000
00001000
00000000
,
00010000
00000000
01000000
00000000
,
10000000
00000000
00010000
00000000
,
01000000
00000000
00000000
00100000
,
00000000
00000000
00000000
00000000
,
00010000
00000000
00000000
00100000
,
00000000
00000000
00000000
00000000
,
00001000
00000000
00000000
00001000
,
00000000
00000000
00000000
00000000
,
00000100
00000000
00000000
00000010
,
00000000
00000000
00000000
00000000
,
00001001
00001001
00000000
00001000
,
00000000
00011000
00000000
01000000
,
00000000
10010000
00000000
00010000
,
00000000
00011000
00000000
00011000
,
00000000
00000000
01000000
00000000
,
10010000
00000000
00010000
00000000
,
00011000
00000000
00000100
00000000
,
00001001
00000000
00001000
00000000
,
00011000
00000000
00000000
10010000
,
00000000
00000000
00000000
01100000
,
00000000
00000000
00000000
00001001
,
00000000
00000000
00000000
00000110
,
00000000
00000000
00000000
00000000
,
00011000
00000000
00000000
00000000
;

//---------------dance-double - ----------------
#NOTES:
     dance-double:
     :
     Easy:
     4:
     :
00000000
00000000
00000000
00000000
,
00000000
00000000
00000000
00000000
,
00000000
00000000
00000000
00000000
,
00000000
00000000
00000000
00000000
,
00000000
00000000
00000000
00000000
,
00010000
00000000
00000000
00001000
00000000
00000000
00011000
00000000
,
00000010
00000000
00000000
00000100
00000000
00000000
00001001
00000000
,
00001000
00000000
00000000
00010000
00000000
00000000
00011000
00000000
,
00022000
00000000
00000000
00033000
,
01000000
00000000
00000000
00100000
00000000
00000000
00010000
00000000
,
01000000
00000000
10010000
10010000
,
01000000
00000000
00000000
00100000
00000000
00000000
00010000
00000000
,
00001000
00000000
00011000
00011000
,
00000100
00000000
00000000
00000010
00000000
00000000
00001000
00000000
,
00000100
00000000
00001001
00001001
,
00000100
00000000
00000000
00000010
00000000
00000000
00001000
00000000
,
00010000
00000000
00011000
00011000
,
00010000
01000000
10000000
01000000
,
00100000
01000000
00100000
00000000
,
00010000
00001000
00010000
00001000
,
00000100
00000010
00000100
00000000
,
00001000
00000100
00000001
00000100
,
00000010
00000100
00000010
00000000
,
00001000
00010000
00001000
00010000
,
01000000
00100000
01000000
00000000
,
01000000
00001000
00010000
00000000
,
00010000
00000010
00001000
00000000
,
00010000
00001000
00010000
00000000
,
00001000
00010000
00022000
00033000
,
00001000
00000010
00000100
00000000
,
00000001
00000010
00001000
00000000
,
00010000
00100000
01000000
00000000
,
10000000
00100000
00010000
00000000
,
01000000
00000000
00000000
10000000
00000000
00000000
00100000
00000000
,
01000000
00000000
00000000
00010000
00000000
00000000
00000000
00000000
,
00010000
00000000
00000000
01000000
00000000
00000000
00100000
00000000
,
00010000
00000000
00000000
00001000
00000000
00000000
00000000
00000000
,
00001000
00000000
00000000
00010000
00000000
00000000
00001000
00000000
,
00000010
00000000
00000000
00000100
00000000
00000000
00000000
00000000
,
00000100
00000000
00000000
00000001
00000000
00000000
00000010
00000000
,
00002002
00000000
00000000
00003003
,
00002002
00003003
00001001
00000000
00000000
00000000
00001000
00000000
,
00022000
00033000
00011000
00000000
00000000
00000000
01000000
00000000
,
20020000
30030000
10010000
00000000
00000000
00000000
00010000
00000000
,
00022000
00033000
00011000
00000000
00010000
00000000
00022000
00033000
,
00011000
00000000
00000000
00000000
01000000
00000000
20020000
30030000
,
10010000
00000000
00000000
00000000
00010000
00000000
00022000
00033000
,
00011000
00000000
00000000
00000000
00000100
00000000
00002002
00003003
,
00001001
00000000
00000000
00000000
00001000
00000000
00022000
00033000
,
00011000
00000000
00000000
00110000
00000000
00000000
10100000
00000000
,
10010000
00000000
00000000
11000000
00000000
00000000
01010000
00000000
,
00011000
00000000
00000000
00001010
00000000
00000000
00000011
00000000
,
00001001
00000000
00000000
00000101
00000000
00000000
00001100
00000000
,
00022000
00000000
00000000
00000000
00000000
00000000
00000000
00033000
,
00011000
00000000
00000000
00000000
;

//---------------dance-double - ----------------
#NOTES:
     dance-double:
     :
     Medium:
     5:
     :
00000000
00000000
00000000
00000000
,
00000000
00000000
00000000
00000000
,
00000000
00000000
00000000
00000000
,
00000000
00000000
00000000
00000000
,
00000000
00000000
00000000
00000000
,
00100000
00000000
00000000
00011000
00000000
00000000
00000000
00000000
,
00000100
00000000
00000000
00001001
00000000
00000000
00000000
00000000
,
00000010
00000000
00000000
00001010
00000000
00000000
00000000
00000000
,
00000020
00000000
00000000
00000030
,
00000010
00000000
00000011
00000000
00000001
00000100
00000010
00000000
,
00000010
00000000
00010010
00000000
00010000
00001000
00001000
00000000
,
00100000
00000000
00110000
00000000
00010000
10000000
01000000
00000000
,
01000000
00000000
11000000
00000000
00010000
00100000
00100000
00000000
,
01000000
00000000
11000000
00000000
00010000
00001000
00000100
00000000
,
00000001
00000000
00000101
00000000
00000100
00000010
00000010
00000000
,
00010000
00000000
00002000
00000000
00000000
00100000
00103000
00000000
,
00001000
00000000
00020000
00000000
00000000
00000100
00030100
00000000
,
00011000
00000000
02010000
00000000
00000000
00100000
03100000
00000000
,
01100000
00000000
20010000
00000000
00000000
00010000
30010000
00000000
,
11000000
00000000
02010000
00000000
00000000
00001000
03001000
00000000
,
01001000
00000000
00011000
00000000
00000100
00000001
00000001
00000000
,
00000101
00000000
00001100
00000000
00000010
00000010
00000010
00000000
,
00000110
00000000
00001001
00000000
00000100
00001000
00000010
00000000
,
00001010
00000000
00000101
00000000
00000000
00001000
00001000
00000000
,
00000011
00000000
00001100
00000000
00000000
00000001
00000001
00000000
,
00000001
00000100
00001000
00000000
00001000
00000100
00000001
00000000
,
00000010
00000001
00001000
00000000
00001000
00000001
00000010
00000000
,
00000100
00001000
00010000
00000000
00001000
00010000
01000000
00000000
,
10000000
00010000
01000000
00000000
00010000
10000000
01000000
00000000
,
10000000
00000000
00000000
01010000
00000000
00000000
00000000
00000000
,
00001000
00000000
00000000
00011000
00000000
00000000
00000000
00000000
,
00000001
00000000
00000000
00000011
00000000
00000000
00000000
00000000
,
00001000
00000000
00000000
00011000
00000000
00000000
00000000
00000000
,
00000010
00001000
00100000
00010000
,
00000100
00001000
01000000
00010000
,
00100000
00000000
00010000
00000000
10000000
00100000
01000000
00000000
,
10000000
00000000
00010000
00000000
00100000
00010000
01000000
00000000
,
00100000
00000000
10000000
00000000
10000000
01000000
00010000
00000000
,
00001000
00000000
00001000
00000000
00000010
00000001
00000100
00000000
,
00000100
00000000
00000100
00000000
00000010
00000100
00001000
00000000
,
00000010
00000010
00000100
00000100
,
00000000
00000000
00010000
00000000
10000000
01000000
01000000
00000000
,
10000000
00000000
00100000
00000000
01000000
00010000
00010000
00000000
,
00100000
00000000
00001000
00000000
00010000
00000100
00000100
00000000
,
00001000
00000000
00000001
00000000
00000100
00000010
00000010
00000000
,
00000100
00000110
00000010
00001010
,
00000100
00010100
00010000
00011000
,
01000000
01001000
00010000
00110000
,
01000000
00000000
10010000
00000000
10000000
00010000
00010000
00000000
,
10000000
11000000
00010000
01010000
,
00001000
00000000
00011000
00000000
00010000
00000100
00000100
00000000
,
00010000
00011000
00001000
00011000
,
00000010
00000000
00001000
00000000
00100000
00001000
00010000
00000000
,
00020000
00000000
00000000
00030000
,
00001000
00000000
00000000
00000000
;

//---------------dance-double - ----------------
#NOTES:
     dance-double:
     :
     Hard:
     8:
     :
00000000
00000000
00000000
00000000
,
00000000
00000000
00000000
00000000
,
00000000
00000000
00000000
00000000
,
00000000
00000000
00000000
00000000
,
00000000
00000000
00000000
00000000
,
00010000
01000000
00010000
01000000
00010000
10000000
00010000
00000000
,
10000000
01000000
00100000
00010000
01000000
00100000
01000000
00000000
,
10000000
00100000
10000000
00100000
10000000
00100000
01000000
00000000
,
00010000
01000000
00010000
01000000
00010000
01000000
00010000
00000000
,
10100000
00000000
00000000
10000000
00000000
01000000
00100000
00000000
,
10010000
00000000
00000000
00010000
00000000
01000000
00100000
00000000
,
10010000
00000000
00000000
01000000
00000000
00001000
00010000
00000000
,
00000100
00000000
00000000
00000000
00000010
00000000
00000000
00000001
00001000
00000000
00000100
00000000
00000100
00000000
00000000
00000000
,
00001001
00000000
00000001
00000100
00000000
00001000
00010000
00000000
,
01000000
00000000
00000000
00000000
10000000
00000000
00000000
00100000
01000000
00000000
00010000
00000000
00010000
00000000
00000000
00000000
,
10010000
00000000
10000000
00100000
00000000
10000000
00010000
00000000
,
01000000
00000000
00000000
00000000
00010000
00000000
00000000
10000000
00010000
00000000
00100000
01000000
00100000
00000000
00000000
00000000
,
00100000
10000000
00100000
01000000
00001000
00010000
01000000
10000000
,
00100000
01000000
10000000
01000000
00001000
00010000
00100000
01000000
,
00010000
10000000
01000000
00010000
00001000
00010000
00100000
00010000
,
00001000
00000010
00000001
00000100
00000010
00001000
00000001
00000010
,
00000100
00010000
00000010
00010000
00001000
01000000
00010000
10000000
,
01000000
00010000
00001000
00000100
00001000
00010000
00100000
10000000
,
01000000
00100000
01000000
10000000
00010000
01000000
00010000
00100000
,
00001000
00010000
01000000
00100000
00010000
01000000
00100000
00000000
,
10000000
01000000
10000000
00000000
00100000
00000000
01000000
00000000
00001000
00000000
00010000
00000000
01000000
00000000
00010000
00000000
,
00001000
00000010
00000001
00000100
00000010
00000100
00000001
00000000
,
00001000
00000100
00001000
00000000
00000010
00000000
00000100
00000000
00000001
00000000
00000010
00000000
00000100
00000000
00010000
00000000
,
00001000
00000100
00001000
00010000
00100000
10000000
00010000
00000000
,
10000000
00100000
01000000
00010000
00100000
01000000
10000000
00000000
,
00010000
00100000
01000000
10000000
00100000
01000000
00010000
00000000
,
00001000
00000010
00000100
00000001
00000010
00000100
00001000
00000000
,
00000001
00000010
00000100
00001000
00000010
00000100
00000001
00000000
,
00001000
00000100
00000000
00000100
00000010
00000000
00000010
00000001
00000000
00000000
00000100
00000000
00001000
00000000
00000000
00000000
,
00010000
00001000
00000000
00001000
00010000
00000000
00010000
00001000
00000000
00000000
00010000
00000000
01000000
00000000
00000000
00000000
,
10000000
01000000
00000000
01000000
00100000
00000000
00100000
00010000
00000000
00000000
10000000
00000000
01000000
00000000
00000000
00000000
,
00010000
00001000
00000000
00001000
00010000
00000000
00010000
00001000
00000000
00000000
00000010
00000000
00000001
00000000
00000000
00000000
,
00001100
00000000
00000010
00000001
00000000
00000100
00001000
00000000
,
01010000
00000000
00100000
10000000
00000000
01000000
00010000
00000000
,
00001000
00010000
00001000
00010000
01000000
10000000
01000000
10000000
,
00100000
00010000
00100000
00010000
00001000
00010000
00001000
00010000
,
00022000
00033000
00000000
00000000
00010000
00000000
01000000
00000000
10000000
00000000
00100000
00000000
00010000
00000000
00000000
00000000
,
00100000
10000000
01000000
00010000
01000000
10000000
00100000
00000000
,
00011000
00000000
00001000
00000100
00000001
00000010
00001000
00000000
,
00000010
00000001
00000100
00001000
00000100
00000001
00000010
00000000
,
00000001
00000100
00000001
00000000
00000000
00000000
00000000
00000010
00001000
00000010
00001000
00000000
00000000
00000000
00000000
00000000
,
00000000
00000001
00000100
00001000
00010000
00100000
10000000
00000000
,
01000000
00100000
01000000
00000000
00000000
00000000
00000000
10000000
00010000
10000000
00010000
00000000
00000000
00000000
00000000
00000000
,
01000000
00100000
10010000
10010000
,
10000000
01000000
10000000
00000000
00000000
00000000
00000000
00100000
00010000
00100000
00010000
00000000
00000000
00000000
00000000
00000000
,
00000000
10000000
01000000
00010000
00001000
00000010
00000001
00000000
,
00000100
00000010
00000100
00000000
00000000
00000000
00000000
00000001
00001000
00000001
00001000
00000000
00000000
00000000
00000000
00000000
,
00000100
00000010
00001001
00001001
,
00001000
00000001
00001000
00000001
00001000
00000001
00000100
00000000
,
00001001
00000000
00000000
00000000
;
