#TITLE:Real;
#ARTIST:Aya;
#BANNER:Real.PNG;
#BACKGROUND:Real-bg.png;
#CDTITLE:./CDTITLES/Song Pack 10.PNG;
#MUSIC:Real.ogg;
#SAMPLESTART:72.78;
#SAMPLELENGTH:15;
#BPMS:0=199.93;

//---------------dance-single - ----------------
#NOTES:
     dance-single:
     :
     Beginner:
     1:
     :
0000
0000
0000
0000
,
0000
0000
0000
0000
,
0000
0000
0000
0000
,
0000
0000
0000
0000
,
0000
0000
0000
0000
,
0000
0000
0000
0000
,
0000
0000
0000
0000
,
0000
0000
0000
0000
,
0000
0000
0000
0000
,
0000
0000
0000
0000
,
0010
0000
0000
0100
,
0000
0000
0100
0000
,
0000
0001
0000
0000
,
1000
0000
0000
0001
,
0000
0000
0010
0000
,
0000
0100
0000
0000
,
0100
0000
0000
0010
,
0000
0000
0001
0000
,
0000
0001
0000
0000
,
1000
0000
0000
0000
,
0010
0000
0000
0001
,
0000
0000
1001
0000
,
0000
1000
0000
0000
,
0100
0000
0000
0000
,
0010
0000
0000
0100
,
0000
0000
0110
0000
,
0000
0010
0000
0000
,
0001
0000
0000
1000
,
0000
0000
0010
0000
,
0000
0000
0000
0000
,
0010
0000
0000
0100
,
0000
0000
0010
0000
,
0000
1000
0000
0000
,
1001
0000
0000
0000
,
0010
0000
0000
0100
,
0000
0000
0000
0000
,
0001
0000
0000
0100
,
0000
0000
0000
0000
,
1000
0000
0000
0100
,
0000
0000
0000
0000
,
0001
0000
0000
1000
,
0000
0000
0000
0000
,
1000
0000
0000
0001
,
0000
0000
0010
0000
,
0000
0010
0000
0000
,
0010
0000
0000
0001
,
0000
0000
1000
0000
,
0000
0010
0000
0000
,
0001
0000
0000
0001
,
0000
0000
0010
0000
,
0000
0000
0000
0000
,
0000
0000
0000
0000
,
0000
0000
0000
0000
,
0000
0000
0000
0000
,
0000
0000
0000
0000
,
0010
0000
0000
0000
,
0100
0000
0000
0000
,
0001
0000
0000
0000
,
1000
0000
0000
0000
,
0010
0000
0000
0000
,
0001
0000
0000
0000
,
0110
0000
0000
0000
,
0001
0000
0000
0100
,
0000
0000
0010
0000
,
0000
1000
0000
0000
,
0010
0000
0000
1000
,
0000
0000
0001
0000
,
0000
0010
0000
0000
,
0100
0000
0000
0001
,
0000
0000
0100
0000
,
0000
0001
0000
0000
,
1000
0000
0000
0001
,
0000
0000
0010
0000
,
0000
0001
0000
0000
,
0010
0000
0000
0100
,
0000
0000
0000
1001
,
0000
0000
0110
0000
,
0000
0110
0000
0000
,
0000
1001
0000
0000
,
0010
0000
0000
0010
,
0000
0000
1000
0000
,
0000
0100
0000
0000
,
1000
0000
0000
0000
,
0001
0000
0000
0000
,
0010
0000
0000
0000
,
0010
0000
0000
0000
,
0000
0000
0000
0000
,
1000
0000
0000
0001
,
0000
0000
1000
0000
,
0000
0000
0001
0000
,
0000
0010
0000
0000
,
1001
0000
0000
0000
,
0000
0000
0000
0000
,
0000
0000
0000
0000
,
0000
0000
0000
0000
,
0100
0000
0000
0100
,
0000
0000
0010
0000
,
0000
0001
0000
0000
,
0100
0000
0000
1001
;

//---------------dance-single - ----------------
#NOTES:
     dance-single:
     :
     Easy:
     4:
     :
0000
0000
0000
0000
,
0000
0000
0000
0000
,
0000
0000
0000
0000
,
0000
0000
0000
0000
,
0000
0000
0000
0000
,
0000
0000
0000
0000
,
0000
0000
0000
0000
,
0000
0000
0000
0000
,
0000
0000
0000
0000
,
0000
0000
0000
0000
,
0010
0001
1000
0100
,
0010
0010
0100
0100
,
1000
0001
0100
0010
,
1000
1000
0001
0001
,
1000
0100
0010
0001
,
0100
0100
0010
0010
,
0100
0001
1000
0010
,
1000
1000
0001
0001
,
1000
0001
1000
0001
,
1000
1000
1001
0000
,
0010
0001
0010
0001
,
0010
0010
0011
0000
,
0100
1000
0100
1000
,
0100
0100
1100
0000
,
0010
0100
0010
0100
,
0010
0010
0110
0000
,
0001
0010
0001
0100
,
0001
0010
0100
1000
,
0100
1000
0010
1000
,
0000
0000
0000
0000
,
0010
1000
0010
0100
,
0010
0001
0010
0100
,
0010
1000
0010
0100
,
2002
0000
0000
3003
,
0010
0100
0010
0100
,
1000
0000
0000
0001
0000
0000
0000
0000
,
0001
0100
0001
0100
,
0010
0000
0000
0100
0000
0000
0000
0000
,
1000
0100
1000
0100
,
0010
0000
0000
0001
0000
0000
0000
0000
,
0001
1000
0001
1000
,
0010
0000
0000
0100
0000
0000
0000
0000
,
1000
0001
0010
0001
,
1000
0100
0010
0001
,
0100
0010
1000
0100
,
0010
0100
0010
0001
,
0100
0010
1000
0100
,
0001
0010
1000
0100
,
0001
0100
0010
0001
,
1000
0100
0010
0100
,
2002
0000
0000
0000
,
0000
0000
0000
0000
,
0000
0000
0000
0000
,
0000
0000
0000
0000
,
0000
0000
0000
3003
,
0020
0000
0000
0000
0000
0130
0000
0000
,
0200
0000
0000
0000
0000
0301
0000
0000
,
0002
0000
0000
0000
0000
1003
0000
0000
,
2000
0000
0000
0000
0000
3010
0000
0000
,
0020
0000
0000
0000
0000
0031
0000
0000
,
0002
0000
0000
0000
0000
0013
0000
0000
,
0110
0000
0000
0000
,
0001
0010
0001
0100
,
1000
0100
0010
0001
,
0010
1000
0100
1000
,
0010
0001
0100
1000
,
1000
0100
0001
0010
,
0001
0010
0001
1000
,
0100
1000
0010
0001
,
0010
1000
0100
1000
,
0010
0001
0100
1000
,
1000
0100
0010
0001
,
1000
0001
0010
0100
,
1000
0001
0010
0100
,
0010
0001
1000
0100
,
1001
0110
0000
0022
,
0000
0033
2200
0000
,
3300
0220
0000
0330
,
0000
2002
0000
3003
,
0010
1000
0010
0010
,
1000
0100
1000
1000
,
0001
0100
0001
0001
,
1000
0001
0200
0300
,
0002
0003
2000
3000
,
0020
0030
0200
0300
,
0020
0000
0000
0000
,
0000
0000
0000
0030
,
1000
0100
0010
0001
,
0001
0010
1000
0020
,
0000
0030
0001
0001
,
0100
0010
1000
0100
,
2002
0000
0000
0000
,
0000
0000
0000
3003
,
0000
0000
0000
0000
,
0000
0000
0000
0000
,
0100
0000
0000
0100
,
0001
0000
0010
0010
,
0100
0001
0100
1000
,
0100
0001
0100
2002
,
0000
0000
0000
3003
;

//---------------dance-single - ----------------
#NOTES:
     dance-single:
     :
     Medium:
     6:
     :
0000
0000
0000
0000
,
0000
0000
0000
0000
,
0000
0000
0000
0000
,
0000
0000
0000
0000
,
0000
0000
0000
0000
,
0000
0000
0000
0000
,
0000
0000
0000
0000
,
0000
0000
0000
0000
,
0000
0000
0000
0000
,
0000
0000
0000
0000
,
0002
0000
0000
1000
0000
0000
1003
0000
,
0200
0000
0000
0010
0000
0000
0310
0000
,
0002
0000
0000
0100
0000
0000
0103
0000
,
2000
0000
0000
0100
0000
0000
3100
0000
,
0020
0000
0000
1000
0000
0000
1030
0000
,
0002
0000
0000
0010
0000
0000
0013
0000
,
0200
0000
0000
1000
0000
0000
1300
0000
,
0002
0000
0000
1000
0000
0000
1003
0000
,
1001
0000
0000
1000
0000
0000
1100
0000
,
0100
0000
0100
0010
0000
0000
0100
0000
,
0011
0000
0000
0100
0000
0000
0101
0000
,
0010
0000
0010
0100
0000
0000
0010
0000
,
1010
0000
0000
1000
0000
0000
1100
0000
,
1000
0000
1000
0001
0000
0000
1000
0000
,
0110
0000
0000
0100
0000
0000
1010
0000
,
0010
0000
0010
0100
0000
0000
0010
0000
,
1000
0100
0001
0010
,
0001
0100
1000
0010
,
1000
0100
0010
0001
,
0000
0000
0000
0000
,
1000
0100
0010
0001
,
0010
0001
0100
1000
,
0010
1000
0100
0001
,
0220
0000
0000
0330
,
0100
0000
0010
0000
0000
0010
0100
0000
,
1000
0000
0001
0000
0000
0001
1000
0000
,
0010
0000
1000
0000
0000
1000
0010
0000
,
0100
0000
0010
0000
0000
0010
0100
0000
,
0010
0000
0001
0000
0000
0001
0010
0000
,
1000
0000
0001
0000
0000
0001
1000
0000
,
0010
0000
1000
0000
0000
1000
0010
0000
,
0100
0000
0001
0000
0000
0001
0100
0000
,
0010
1000
0100
0000
1000
0001
0010
0000
,
0001
0010
0100
0000
1000
0100
0001
0000
,
0100
1000
0010
0000
1000
0100
1000
0000
,
0010
1000
0100
0000
1000
0001
0010
0000
,
0001
0010
0100
0000
1000
0100
0001
0000
,
0100
1000
0010
0000
1000
0001
0010
0000
,
0100
1000
0001
0010
0100
0010
0001
0000
,
1000
0010
0100
0001
1000
0010
0100
0000
,
2002
0000
0000
0000
,
0000
0000
0000
0000
,
0000
0000
0000
0000
,
0000
0000
0000
0000
,
0000
0000
0000
3003
,
0110
0000
0000
0000
0000
1001
0000
0000
,
0010
0000
0100
0000
0000
0100
0010
0000
,
1000
0000
0001
0000
0000
0001
1000
0000
,
0010
0000
1000
0000
0000
1000
0010
0000
,
0001
0000
0010
0000
0000
0010
0001
0000
,
0010
0000
0100
0000
0000
0100
0010
0000
,
1000
0001
0000
0000
,
0020
0000
0000
0100
0000
0000
0030
0000
,
2000
0000
0000
0000
0000
0000
3001
0002
,
0000
0000
0000
0003
,
0000
1000
0100
1000
0100
0000
0010
0000
,
0001
0000
1000
0000
0001
0001
0000
0100
,
0000
0000
0010
1000
0000
1000
0010
0000
,
1000
0000
0000
0200
0000
0000
0000
1300
,
2000
0000
0000
0000
,
0000
0000
0000
3000
,
1001
0000
0000
0000
0000
0000
0010
0100
,
0000
0000
0000
0000
0000
0010
0001
0010
,
0000
0000
0001
0000
1000
0000
0000
1000
,
0100
1000
0000
0010
0000
0001
0000
1000
,
0000
1001
0000
0120
,
0100
0130
1002
0003
,
0001
0120
0030
0010
,
0000
1002
1000
1003
,
0110
0000
0000
1000
0000
0000
0010
0000
,
0000
0001
0000
0000
0010
0000
0000
1000
,
0000
0000
0000
0200
0000
0000
0000
0000
,
0000
0000
0320
0000
,
0032
0000
0023
0000
,
0230
0000
2300
0000
,
0002
0000
0000
0000
,
0000
0000
0000
3003
,
1000
0000
0010
0000
0010
1000
0000
0001
,
0000
0010
0000
1000
0000
0020
0000
0000
,
0000
0000
0031
0100
0001
0000
0000
0100
,
0010
0000
1000
0000
1000
0100
0000
0220
,
0000
0000
0000
0000
,
0000
0000
0000
0330
,
0000
0000
0000
0000
,
0000
0000
0000
0000
,
0001
0000
0000
0000
0000
0000
0001
1000
,
0000
0000
0000
0000
0000
1000
0100
1000
,
0000
0000
0100
0000
0100
0000
0000
0010
,
0001
0100
0000
1000
0000
0200
0000
0000
,
0000
0000
0000
0300
;

//---------------dance-single - ----------------
#NOTES:
     dance-single:
     :
     Hard:
     8:
     :
0000
0000
0000
0000
,
0000
0000
0000
0000
,
0000
0000
0000
0000
,
0000
0000
0000
0000
,
0000
0000
0000
0000
,
0000
0000
0000
0000
,
0000
0000
0000
0000
,
0000
0000
0000
0000
,
0000
0000
0000
0000
,
0000
0000
0000
0000
,
1000
0000
0001
1000
0000
1000
0001
0000
,
0100
0000
0100
0001
0000
0001
0100
0000
,
0010
0000
0010
1000
0000
1000
0010
0000
,
0010
0000
0010
0001
0000
0001
0010
0000
,
0100
0000
0100
1000
0000
1000
0100
0000
,
0010
0000
0010
0100
0000
0100
0010
0000
,
1000
0000
1000
0010
0000
0010
1000
0000
,
0001
0000
0001
0010
0000
0010
0001
0000
,
0100
1000
0100
0000
0100
0001
0100
0000
,
0010
0100
0010
0200
0000
0000
0300
0000
,
0010
1000
0010
0000
0100
0001
0100
0000
,
0001
0010
0001
0020
0000
0000
0030
0000
,
0001
1000
0001
0000
1000
0001
1000
0000
,
0100
1000
0100
2000
0000
0000
3000
0000
,
0010
0001
0010
0000
0010
1000
0010
0000
,
0100
0010
0100
0020
0000
0000
0030
0000
,
0002
0000
0000
0100
0000
0000
0103
0000
,
0200
0000
0000
0010
0000
0000
0310
0000
,
0020
0000
0000
1000
0000
0000
1030
0000
,
2000
0000
0000
0100
0000
0000
3100
0000
,
0200
0000
0000
0001
0000
0000
0301
0000
,
0002
0000
0000
1000
0000
0000
1003
0000
,
2000
0000
0000
0010
0000
0000
3010
0000
,
0220
0000
0000
0330
,
0001
0000
1000
0001
0000
0001
1000
0000
,
0100
0000
0100
0001
0000
0001
0100
0000
,
0010
0000
0010
1000
0000
1000
0010
0000
,
0010
0000
0010
0001
0000
0001
0010
0000
,
0100
0000
0100
1000
0000
1000
0100
0000
,
0010
0000
0010
0100
0000
0100
0010
0000
,
1000
0000
1000
0010
0000
0010
1000
0000
,
0010
0000
0010
0001
0000
0001
0010
0000
,
0010
0001
0100
1000
0100
0001
0010
0000
,
1000
0010
0001
0100
1000
0100
1000
0000
,
0100
0001
0010
0001
1000
0100
1000
0000
,
0010
1000
0100
0001
0100
1000
0010
0000
,
0001
0010
1000
0100
0001
0100
0001
0000
,
0100
1000
0010
1000
0001
0100
0001
0000
,
1000
0010
0001
0010
1000
0100
0001
0100
,
1000
0010
1000
0100
1000
0100
0001
0000
,
2002
0000
0000
0000
,
0000
0000
0000
0000
,
0000
0000
0000
0000
,
0000
0000
0000
0000
,
0000
0000
0000
3003
,
0110
0000
0000
0000
0000
1100
0000
0000
,
0100
0000
1100
0000
0000
0100
0101
0000
,
1001
0000
0101
0000
0000
0010
1010
0000
,
1001
0000
1010
0000
0000
0010
0011
0000
,
1001
0000
0011
0000
0000
1000
1001
0000
,
1100
0000
1001
0000
0000
0001
1001
0000
,
0101
1001
0000
0000
,
2000
0000
0000
0020
0000
0000
3030
0000
,
0200
0000
0000
0000
0000
0000
0310
2000
,
0000
0000
0000
3000
,
0000
0010
1000
0100
0001
0000
0101
0000
,
1100
0000
1001
0000
0100
0010
0000
1000
,
0000
0000
0010
0000
0000
1000
0000
0000
1000
0000
0001
0000
0000
0000
0001
0000
,
1000
0000
0000
0000
1000
0000
0002
0000
0000
0000
0000
0000
0003
0000
0100
0010
,
0200
0000
0000
0000
,
0000
0000
0000
0300
,
0002
0000
0000
0000
0000
0000
0103
0020
,
0000
0000
0000
0000
0000
1030
0001
2000
,
0000
0000
3001
0000
0002
0000
0000
0103
,
0010
0100
0000
0001
0000
0100
0000
1000
,
0000
0000
0000
0000
0000
0000
0000
0000
0000
0000
0000
0000
0000
0000
0000
0000
1001
0000
0000
0000
0000
0000
0000
0000
0000
0000
0000
0000
0000
0000
0000
0000
0000
0000
0000
0000
0000
0000
0000
0000
0000
0000
0000
0000
0000
0000
0000
0000
1000
0000
0000
0000
0000
0001
0000
0000
0000
0000
1000
0000
0000
0000
0000
0000
,
0001
0000
0000
0000
0000
1000
0000
0000
0000
0000
0001
0000
0000
0000
0000
0000
1000
0000
0000
0000
0000
0000
0000
0000
0000
0000
0000
0000
0000
0000
0000
0000
0010
0000
0000
0000
0000
0100
0000
0000
0000
0000
0010
0000
0000
0000
0000
0000
0100
0000
0000
0000
0000
0010
0000
0000
0000
0000
0100
0000
0000
0000
0000
0000
,
0010
0000
0000
0000
0000
0000
0000
0000
0000
0000
0000
0000
0000
0000
0000
0000
0100
0000
0000
0000
0000
0001
0000
0000
0000
0000
0100
0000
0000
0000
0000
0000
0001
0000
0000
0000
0000
0100
0000
0000
0000
0000
0001
0000
0000
0000
0000
0000
0100
0000
0000
0000
0000
0000
0000
0000
0000
0000
0000
0000
0000
0000
0000
0000
,
0001
0000
0000
0000
0000
1000
0000
0000
0000
0000
0001
0000
0000
0000
0000
0000
1000
0000
0000
0000
0000
0001
0000
0000
0000
0000
1000
0000
0000
0000
0000
0000
0001
0000
0000
0000
0000
0000
0000
0000
0000
0000
0000
0000
0000
0000
0000
0000
1000
0000
0000
0000
0000
0000
0000
0000
0000
0000
0000
0000
0000
0000
0000
0000
,
0010
0000
0000
1000
0000
0000
0001
0000
0000
0010
0000
0000
0100
0000
0000
1000
,
0000
0000
0010
0000
0000
1000
0000
0000
0001
0000
0000
0100
0000
0000
0010
0000
,
0000
0000
0000
0000
0000
0000
1000
0001
2000
0000
0000
0000
0000
0000
0000
0000
,
0000
0000
3002
0000
,
2003
0000
3020
0000
,
0230
0000
0320
0000
,
0230
0000
0000
0000
,
0000
0000
0000
0300
,
0001
0000
0101
0000
0100
1000
0000
1100
,
0000
0100
0000
0110
0000
0020
0000
0000
,
0000
0000
1030
0100
0002
0000
0000
0103
,
1000
0000
0100
0000
0010
0100
0000
0220
,
0000
0000
0000
0000
,
0000
0000
0000
0330
,
0000
0000
0000
0000
,
0000
0000
0000
0000
,
0002
0000
0000
0000
0000
0000
1003
0200
,
0000
0000
0000
0000
0000
0310
0001
0010
,
0000
0000
0011
0000
0011
0000
0000
0001
,
0100
1000
0000
0100
0000
2002
0000
0000
,
0000
0000
0000
3003
;

//---------------dance-double - ----------------
#NOTES:
     dance-double:
     :
     Beginner:
     1:
     :
00000000
00000000
00000000
00000000
,
00000000
00000000
00000000
00000000
,
00000000
00000000
00000000
00000000
,
00000000
00000000
00000000
00000000
,
00000000
00000000
00000000
00000000
,
00000000
00000000
00000000
00000000
,
00000000
00000000
00000000
00000000
,
00000000
00000000
00000000
00000000
,
00000000
00000000
00000000
00000000
,
00000000
00000000
00000000
00000000
,
00000010
00000000
00000000
00000100
,
00000000
00000000
00010000
00000000
,
00000000
10000000
00000000
00000000
,
01000000
00000000
00000000
00010000
,
00000000
00000000
00010000
00000000
,
00000000
00010000
00000000
00000000
,
00000100
00000000
00000000
00001000
,
00000000
00000000
00000001
00000000
,
00000000
00000100
00000000
00000000
,
00000010
00000000
00000000
00000000
,
00000100
00000000
00000000
00010000
,
00000000
00000000
00010100
00000000
,
00000000
00010000
00000000
00000000
,
00001000
00000000
00000000
00000000
,
00010000
00000000
00000000
01000000
,
00000000
00000000
01100000
00000000
,
00000000
10000000
00000000
00000000
,
01000000
00000000
00000000
00000100
,
00000000
00000000
00000001
00000000
,
00000000
00000000
00000000
00000000
,
00000010
00000000
00000000
00000001
,
00000000
00000000
00010000
00000000
,
00000000
01000000
00000000
00000000
,
01100000
00000000
00000000
00000000
,
00100000
00000000
00000000
00010000
,
00000000
00000000
00000001
00000000
,
00000000
00000001
00000000
00000000
,
00000100
00000000
00000000
00000000
,
00010000
00000000
00000000
00100000
,
00000000
00000000
00010000
00000000
,
00000000
00010000
00000000
00000000
,
00001000
00000000
00000000
00000000
,
00000010
00000000
00000000
00000001
,
00000000
00000000
00010000
00000000
,
00000000
10000000
00000000
00000000
,
10000000
00000000
00000000
00010000
,
00000000
00000000
00100000
00000000
,
00000000
00001000
00000000
00000000
,
00000100
00000000
00000000
00001000
,
00000000
00000000
00010000
00000000
,
00000000
00000000
00000000
00000000
,
00000000
00000000
00000000
00000000
,
00000000
00000000
00000000
00000000
,
00000000
00000000
00000000
00000000
,
00000000
00000000
00000000
00000000
,
00001000
00000000
00000000
00000000
,
00000001
00000000
00000000
00000000
,
00001000
00000000
00000000
00000000
,
00000001
00000000
00000000
00000000
,
00001000
00000000
00000000
00000000
,
01000000
00000000
00000000
00000000
,
00100000
00000000
00000000
00000000
,
10000000
00000000
00000000
00010000
,
00000000
00000000
00001000
00000000
,
00000000
00010000
00000000
00000000
,
00001000
00000000
00000000
00000001
,
00000000
00000000
00000010
00000000
,
00000000
00010000
00000000
00000000
,
00010000
00000000
00000000
00001000
,
00000000
00000000
00000000
00000000
,
00000000
00000000
00000000
00000000
,
00010000
00000000
00000000
01000000
,
00000000
00000000
00100000
00000000
,
00000000
00001000
00000000
00000000
,
00010000
00000000
00000000
01000000
,
00000000
00000000
00000000
00010000
,
00000000
00000000
00000100
00000000
,
00000000
00010000
00000000
00000000
,
00000000
00001000
00000000
00000000
,
00010000
00000000
00000000
00001000
,
00000000
00000000
00000010
00000000
,
00000000
00000000
00000000
00000000
,
00000000
00000000
00011000
00000000
,
00000000
00000000
01100000
00000000
,
00000000
00000000
10010000
00000000
,
00000000
00000000
00000000
00000000
,
00000000
00000000
00000000
00000000
,
00010000
00000000
00000000
10000000
,
00000000
00000000
10000000
00000000
,
00000000
00010000
00000000
00000000
,
00001000
00000000
00000000
00000100
,
00000000
00000000
00000000
00000000
,
00000000
00000000
00000000
00000000
,
00000000
00000000
00000000
00000000
,
00000000
00000000
00000000
00000000
,
01000000
00000000
00000000
00000000
,
00001000
00000000
00000000
00000000
,
00000000
00011000
00000000
00000000
,
00010000
00000000
00000000
00011000
;

//---------------dance-double - ----------------
#NOTES:
     dance-double:
     :
     Easy:
     4:
     :
00000000
00000000
00000000
00000000
,
00000000
00000000
00000000
00000000
,
00000000
00000000
00000000
00000000
,
00000000
00000000
00000000
00000000
,
00000000
00000000
00000000
00000000
,
00000000
00000000
00000000
00000000
,
00000000
00000000
00000000
00000000
,
00000000
00000000
00000000
00000000
,
00000000
00000000
00000000
00000000
,
00000000
00000000
00000000
00000000
,
00000010
00001000
00000010
00000100
,
00001000
00001000
00010000
00010000
,
01000000
10000000
00100000
10000000
,
01000000
01000000
00010000
00010000
,
01000000
00010000
00010000
00001000
,
00010000
00010000
00001000
00001000
,
00000100
00000001
00000010
00001000
,
00000010
00000010
00000001
00000001
,
00000010
00000100
00000010
00000100
,
00000010
00000010
00000110
00000000
,
00000100
00010000
00000100
00010000
,
00000100
00000100
00010100
00000000
,
00001000
00010000
00001000
00010000
,
00001000
00001000
00011000
00000000
,
00010000
01000000
00010000
01000000
,
00010000
00010000
01010000
00000000
,
01000000
10000000
00100000
10000000
,
01000000
00010000
00001000
00000100
,
00001000
00000100
00000001
00000010
,
00000000
00000000
00000000
00000000
,
00000010
00000001
00000010
00000001
,
00000100
00001000
00010000
01000000
,
00010000
01000000
10000000
00100000
,
02200000
00000000
00000000
03300000
,
00100000
10000000
01000000
00010000
,
00001000
00000100
00000001
00000000
,
00000010
00000001
00000100
00001000
,
00000100
00001000
00010000
00000000
,
00010000
01000000
10000000
00100000
,
10000000
01000000
00010000
00000000
,
01000000
00010000
01000000
00010000
,
00001000
00000100
00000001
00000000
,
00000010
00000010
00000001
00000001
,
00000100
00001000
00010000
01000000
,
10000000
10000000
00100000
00100000
,
10000000
01000000
00100000
00010000
,
01000000
01000000
00100000
00100000
,
00010000
00001000
00000010
00000001
,
00000100
00000100
00001000
00001000
,
00010000
00001000
00010000
00001000
,
00022000
00000000
00000000
00000000
,
00000000
00000000
00000000
00000000
,
00000000
00000000
00000000
00000000
,
00000000
00000000
00000000
00000000
,
00000000
00000000
00000000
00033000
,
00002000
00000000
00000000
00000000
00000000
00003100
00000000
00000000
,
00000002
00000000
00000000
00000000
00000000
00000013
00000000
00000000
,
00002000
00000000
00000000
00000000
00000000
00003010
00000000
00000000
,
00000002
00000000
00000000
00000000
00000000
00000103
00000000
00000000
,
00002000
00000000
00000000
00000000
00000000
00013000
00000000
00000000
,
02000000
00000000
00000000
00000000
00000000
13000000
00000000
00000000
,
00200000
00000000
00000000
00300000
,
10000000
10000000
00010000
00010000
,
00100000
00100000
00001000
00001000
,
00010000
00010000
00000100
00000100
,
00001000
00001000
00000001
00000001
,
00000100
00000100
00000010
00000010
,
00010000
00010000
00001000
00001000
,
00010000
00001000
00010000
00001000
,
00022000
00000000
00000000
00000000
,
00000000
00000000
00000000
00033000
,
00010000
01000000
00010000
01000000
,
10000000
01000000
00100000
01000000
,
00010000
00001000
00000100
00001000
,
00010000
01000000
10000000
01000000
,
00010000
00001000
00000000
00010000
,
00020000
00030000
00000100
00000200
,
00000300
00010000
00020000
00030000
,
00000000
00001000
00002000
00003000
,
00010000
00001000
00010000
00001000
,
00000100
00000001
00000010
00000001
,
00000000
00000000
00000000
00000000
,
00000000
00000000
00022000
00033000
,
02020000
03030000
22000000
33000000
,
20200000
30300000
00220000
00330000
,
00022000
00000000
00000000
00000000
,
00000000
00000000
00000000
00033000
,
00010000
00010000
01000000
10000000
,
00100000
00100000
10000000
01000000
,
00010000
00010000
00001000
00010000
,
00001000
00000100
00000001
00000100
,
00002200
00000000
00000000
00000000
,
00000000
00000000
00000000
00003300
,
00000000
00000000
00000000
00000000
,
00000000
00000000
00000000
00000000
,
02000000
00000000
00000000
03000000
,
00002000
00000000
00000000
00003000
,
00000000
00011000
00011000
00001000
,
00010000
00010000
00001000
00022000
,
00000000
00000000
00000000
00033000
;

//---------------dance-double - ----------------
#NOTES:
     dance-double:
     :
     Medium:
     6:
     :
00000000
00000000
00000000
00000000
,
00000000
00000000
00000000
00000000
,
00000000
00000000
00000000
00000000
,
00000000
00000000
00000000
00000000
,
00000000
00000000
00000000
00000000
,
00000000
00000000
00000000
00000000
,
00000000
00000000
00000000
00000000
,
00000000
00000000
00000000
00000000
,
00000000
00000000
00000000
00000000
,
00000000
00000000
00000000
00000000
,
00020000
00000000
00000000
20000000
00000000
00000000
30030000
00000000
,
00200000
00000000
00000000
02000000
00000000
00000000
03300000
00000000
,
00002000
00000000
00000000
00020000
00000000
00000000
00033000
00000000
,
00000200
00000000
00000000
00002000
00000000
00000000
00003300
00000000
,
00000020
00000000
00000000
00000200
00000000
00000000
00000330
00000000
,
00000002
00000000
00000000
00000020
00000000
00000000
00000033
00000000
,
00000200
00000000
00000000
00002000
00000000
00000000
00003300
00000000
,
00020000
00000000
00000000
00002000
00000000
00000000
00033000
00000000
,
00010000
01000000
10000000
00100000
,
01100000
00000000
01000000
00100000
00000000
00000000
00100000
00000000
,
10000000
01000000
00010000
00001000
,
00011000
00000000
00010000
00001000
00000000
00000000
00000100
00000000
,
00000010
00001000
00000100
00000010
,
00001001
00000000
00000001
00000100
00000000
00000000
00001000
00000000
,
00010000
01000000
10000000
01000000
,
01100000
00000000
00100000
01000000
00000000
00000000
10000000
00000000
,
20000000
00100000
01000000
31000000
,
00200000
00010000
00001000
00310000
,
02000000
00100000
00010000
03100000
,
00000000
00000000
00000000
00000000
,
00020000
00000100
00001000
00031000
,
00000200
00001000
00010000
00001300
,
00000002
00000100
00001000
00000103
,
00002002
00000000
00000000
00003003
,
00000010
00000001
00000100
00000000
00000000
00000001
00000100
00000000
,
00000100
00001000
00010000
00000000
00000000
00001000
00010000
00000000
,
00010000
01000000
10000000
00000000
00000000
01000000
10000000
00000000
,
00100000
10000000
00100000
00000000
00000000
10000000
00100000
00000000
,
10000000
00010000
01000000
00000000
00000000
00010000
01000000
00000000
,
00100000
10000000
01000000
00000000
00000000
10000000
01000000
00000000
,
10000000
01000000
00010000
00000000
00000000
01000000
00010000
00000000
,
00010000
00001000
00000100
00000000
00000000
00001000
00000100
00000000
,
00000010
00001000
00000100
00000000
00000100
00000000
00001100
00000000
,
00000001
00000100
00001000
00000000
00001000
00000000
00001100
00000000
,
00000100
00001000
00010000
00000000
00010000
00000000
00011000
00000000
,
00010000
01000000
10000000
00000000
01000000
00000000
11000000
00000000
,
10000000
01000000
00010000
00000000
00010000
00000000
01010000
00000000
,
01000000
00100000
00010000
00000000
00010000
00000000
00110000
00000000
,
00100000
01000000
00010000
00001000
00010000
00001000
00010000
00000000
,
00001000
00000100
00000001
00000100
00000001
00000100
00000001
00000000
,
00000220
00000000
00000000
00000000
,
00000000
00000000
00000000
00000000
,
00000000
00000000
00000000
00000000
,
00000000
00000000
00000000
00000000
,
00000000
00000000
00000000
00000330
,
00000002
00000000
00000000
00000000
00000000
00002003
00000000
00000000
,
00003010
00000000
00000020
00000000
00000000
00001030
00000100
00000000
,
00000010
00000000
00000002
00000000
00000000
00000103
00001000
00000000
,
00010000
00000000
02000000
00000000
00000000
13000000
00100000
00000000
,
10000000
00000000
00200000
00000000
00000000
10300000
01000000
00000000
,
00010000
00000000
00002000
00000000
00000000
00013000
00001000
00000000
,
00010000
00011000
00000000
00000000
,
00020000
00000000
00000000
00001000
00000000
00000000
00030000
00000000
,
00000200
00000000
00000000
00000000
00000000
00000000
00010300
00020000
,
00000000
00000000
00000000
00030000
,
00000000
00001000
00010000
00001000
00010000
00000000
00001000
00000000
,
00000100
00000000
00000001
00000000
00000100
00000100
00000000
00001000
,
00000000
00000000
00001000
00000100
00000000
00000100
00001000
00000000
,
00010000
00000000
00000000
02000000
00000000
00000000
00000000
03100000
,
00200000
00000000
00000000
00000000
,
00000000
00000000
00000000
00300000
,
10010000
00000000
00000000
00000000
00000000
00000000
00010000
00001000
,
00000000
00000000
00000000
00000000
00000000
00000100
00000001
00000100
,
00000000
00000000
00000100
00000000
00001000
00000000
00000000
00010000
,
00001000
00010000
00000000
01000000
00000000
10000000
00000000
00100000
,
00000000
10010000
00000000
00100000
,
20000000
31000000
00010000
00002000
,
00003100
00001000
00000200
00000301
,
00000000
00000010
00000002
00000013
,
00000020
00000000
00000000
00000032
00000000
00000000
00000203
00000000
,
00000000
00002300
00000000
00000000
00203000
00000000
00000000
00320000
,
00000000
00000000
00000000
20030000
00000000
00000000
00000000
00000000
,
00000000
00000000
32000000
00000000
,
03020000
00000000
00032000
00000000
,
00023000
00000000
00032000
00000000
,
00020000
00000000
00000000
00000000
,
00000000
00000000
00000000
00033000
,
00001000
00000000
00000100
00000000
00000100
00000001
00000000
00000100
,
00000000
00000010
00000000
00000100
00000000
00002000
00000000
00000000
,
00000000
00000000
00013000
00100000
00010000
00000000
00000000
01000000
,
00100000
00000000
10000000
00000000
10000000
00010000
00000000
20020000
,
00000000
00000000
00000000
00000000
,
00000000
00000000
00000000
30030000
,
00000000
00000000
00000000
00000000
,
00000000
00000000
00000000
00000000
,
00000002
00000000
00000000
00000000
00000000
00000000
00000003
00001000
,
00000200
00000000
00000000
00000000
00000000
00001300
00000100
00000001
,
00000000
00000000
00000110
00000000
00001001
00000000
00000000
00000100
,
00001000
00010000
00000000
00001000
00000000
00022000
00000000
00000000
,
00000000
00000000
00000000
00033000
;

//---------------dance-double - ----------------
#NOTES:
     dance-double:
     :
     Hard:
     9:
     :
00000000
00000000
00000000
00000000
,
00000000
00000000
00000000
00000000
,
00000000
00000000
00000000
00000000
,
00000000
00000000
00000000
00000000
,
00000000
00000000
00000000
00000000
,
00000000
00000000
00000000
00000000
,
00000000
00000000
00000000
00000000
,
00000000
00000000
00000000
00000000
,
00000000
00000000
00000000
00000000
,
00022000
00000000
00000000
00000000
00033000
00000000
00000000
00000000
00010000
00001000
00010000
00000000
00000000
00000000
00000000
00000000
,
00002000
00000000
00000000
00003100
00000000
00000100
00000010
00000000
,
00000002
00000000
00000000
00000013
00000000
00000010
00001000
00000000
,
00000200
00000000
00000000
00000310
00000000
00000010
00000100
00000000
,
00020000
00000000
00000000
00031000
00000000
00001000
00010000
00000000
,
02000000
00000000
00000000
13000000
00000000
10000000
00100000
00000000
,
00020000
00000000
00000000
00130000
00000000
00100000
10000000
00000000
,
02000000
00000000
00000000
13000000
00000000
10000000
01000000
00000000
,
00020000
00000000
00000000
00031000
00000000
00010000
00001000
00000000
,
00002000
00000000
00003100
00000200
00000000
00000000
00000320
00000000
,
00002030
00000000
00103000
00200000
00000000
00000000
20300000
00000000
,
32000000
00000000
03010000
00020000
00000000
00000000
02030000
00000000
,
23000000
00000000
31000000
02000000
00000000
00000000
03002000
00000000
,
00003200
00000000
00010300
00020000
00000000
00000000
00032000
00000000
,
00203000
00000000
00310000
00020000
00000000
00000000
20030000
00000000
,
32000000
00000000
03010000
00020000
00000000
00000000
00032000
00000000
,
00003200
00000000
00000301
00000002
00000000
00000000
00000103
00000000
,
00000001
00000100
00001000
00010000
00000000
00010000
00000000
00001000
,
00000100
00000000
00001000
00000000
00010000
00000000
00001000
00000000
00000000
00000000
00010000
00000000
00001000
00010000
00001000
00000000
,
00010000
01000000
00010000
01000000
00000000
01000000
00000000
01000000
,
00010000
00001000
00010000
01000000
00000000
10000000
00000000
10000000
,
01000000
00010000
01000000
10000000
00000000
01000000
00000000
00010000
,
00001000
00000100
00001000
00010000
00000000
00001000
00000000
00010000
,
00001000
00000010
00001000
00010000
00000000
00001000
00000000
00010000
,
00022000
00000000
00000000
00033000
,
00002000
00000100
00000100
00003100
00000000
00000001
00000100
00000001
,
00000200
00000000
00000010
00000310
00000000
00000010
00001000
00000000
,
00000200
00001000
00001000
00001300
00000000
00000001
00000100
00001000
,
00020000
00000000
00001000
00031000
00000000
00001000
00010000
00000000
,
02000000
00100000
00100000
03100000
00000000
00010000
10000000
00010000
,
20000000
00000000
01000000
31000000
00000000
01000000
10000000
00000000
,
00020000
01000000
01000000
01030000
00000000
00100000
00010000
00001000
,
00002000
00000000
00010000
00013000
00000000
00000100
00000100
00000000
,
00000010
00000001
00000100
00001000
00000100
00001000
00010000
00000000
,
01000000
10000000
01000000
10000000
00100000
10000000
00100000
00000000
,
00100000
10000000
01000000
00010000
01000000
00010000
00001000
00000000
,
00000100
00000001
00000100
00000001
00000010
00000001
00000010
00000000
,
00000010
00001000
00000010
00001000
00010000
00001000
00010000
00100000
,
10000000
00100000
10000000
01000000
00010000
01000000
00010000
00001000
,
00000100
00001000
00000100
00000001
00000100
00000001
00000010
00000001
,
00000100
00001000
00000100
00001000
00010000
00001000
00010000
00000000
,
00022000
00000000
00000000
00000000
,
00000000
00000000
00000000
00000000
,
00000000
00000000
00000000
00000000
,
00000000
00000000
00000000
00000000
,
00000000
00000000
00000000
00033000
,
00020000
00000000
00000000
00000000
00000000
01000000
00000000
00000000
,
01030000
00000000
20000000
00000000
00000000
30100000
00200000
00000000
,
10000000
00000000
20300000
00000000
00000000
01000000
32000000
00000000
,
00100000
00000000
03200000
00000000
00000000
00010000
00320000
00000000
,
10000000
00000000
20030000
00000000
00000000
01000000
32000000
00000000
,
00010000
00000000
03020000
00000000
00000000
00001000
00032000
00000000
,
00000100
00003100
00000000
00000000
,
00000020
00000000
00000000
00000001
00000000
00000000
00000000
00000000
,
00000032
00000000
00000000
00000000
00000000
00000000
00001000
00002003
,
00000000
00000000
00000000
00000000
,
00000000
00003001
00000001
00000100
00001000
00000000
00001000
00000000
,
00000100
00000000
00000001
00000000
00000100
00000100
00000000
00001000
,
00000000
00000000
00010000
00000000
00000000
01000000
00000000
00000000
10000000
00000000
01000000
00000000
00000000
00000000
01000000
00000000
,
10000000
00000000
00000000
00000000
10000000
00000000
01000000
00000000
00000000
00000000
00000000
00000000
00000000
00000000
00010000
01000000
,
00020000
00000000
00000000
00030000
,
00000000
00000000
00000000
00000000
,
00001000
00000000
00000000
00000000
00000000
00000000
00010000
00001000
,
00000000
00000000
00000000
00000000
00000000
00010000
00001000
00000100
,
00000000
00000000
00000001
00000000
00000100
00000000
00000000
00000100
,
00001000
00010000
00000000
00001000
00000000
00010000
00000000
00001000
,
00000000
00000000
00000000
00000000
00000000
00000000
00000000
00000000
00000000
00000000
00000000
00000000
00000000
00000000
00000000
00000000
00010000
00000000
00000000
00000000
00000000
00000000
00000000
00000000
00000000
00000000
00000000
00000000
00000000
00000000
00000000
00000000
00000000
00000000
00000000
00000000
00000000
00000000
00000000
00000000
00000000
00000000
00000000
00000000
00000000
00000000
00000000
00000000
00001000
00000000
00000000
00000000
00000000
00010000
00000000
00000000
00000000
00000000
00001000
00000000
00000000
00000000
00000000
00000000
,
00010000
00000000
00000000
00000000
00000000
00001000
00000000
00000000
00000000
00000000
00010000
00000000
00000000
00000000
00000000
00000000
00001000
00000000
00000000
00000000
00000000
00000000
00000000
00000000
00000000
00000000
00000000
00000000
00000000
00000000
00000000
00000000
00010000
00000000
00000000
00000000
00000000
01000000
00000000
00000000
00000000
00000000
00010000
00000000
00000000
00000000
00000000
00000000
01000000
00000000
00000000
00000000
00000000
00010000
00000000
00000000
00000000
00000000
01000000
00000000
00000000
00000000
00000000
00000000
,
00010000
00000000
00000000
00000000
00000000
00000000
00000000
00000000
00000000
00000000
00000000
00000000
00000000
00000000
00000000
00000000
01000000
00000000
00000000
00000000
00000000
10000000
00000000
00000000
00000000
00000000
01000000
00000000
00000000
00000000
00000000
00000000
10000000
00000000
00000000
00000000
00000000
01000000
00000000
00000000
00000000
00000000
10000000
00000000
00000000
00000000
00000000
00000000
01000000
00000000
00000000
00000000
00000000
00000000
00000000
00000000
00000000
00000000
00000000
00000000
00000000
00000000
00000000
00000000
,
10000000
00000000
00000000
00000000
00000000
00010000
00000000
00000000
00000000
00000000
10000000
00000000
00000000
00000000
00000000
00000000
00010000
00000000
00000000
00000000
00000000
10000000
00000000
00000000
00000000
00000000
00010000
00000000
00000000
00000000
00000000
00000000
10000000
00000000
00000000
00000000
00000000
00000000
00000000
00000000
00000000
00000000
00000000
00000000
00000000
00000000
00000000
00000000
01000000
00000000
00000000
00000000
00000000
00000000
00000000
00000000
00000000
00000000
00000000
00000000
00000000
00000000
00000000
00000000
,
10000000
00000000
00000000
01000000
00000000
00000000
00010000
00000000
00000000
00001000
00000000
00000000
00010000
00000000
00000000
00001000
,
00000000
00000000
00000100
00000000
00000000
00001000
00000000
00000000
00000100
00000000
00000000
00000001
00000000
00000000
00000010
00000000
,
00000000
00000000
00000000
00000000
00000000
00000000
00000010
00001000
00000010
00000000
00000000
00000000
00000000
00000000
00000000
00000000
,
00000000
00000000
00000000
00000000
00000000
00000000
00000000
00000000
00000020
00000000
00000000
00000000
00000030
00000000
00000001
00000100
,
00000002
00000000
00000000
00000000
00000003
00000000
00000100
00000010
00000200
00000000
00000000
00000000
00000300
00000000
00001000
00000100
,
00002000
00000000
00000000
00000000
00003000
00000000
00010000
00001000
00020000
00000000
00000000
00000000
00030000
00000000
00001000
00010000
,
00002000
00000000
00000000
00000000
,
00000000
00000000
00000000
00003000
,
00010000
00000000
01000000
00000000
00010000
01000000
00000000
10000000
,
00000000
01000000
00000000
00100000
00000000
00010000
00000000
00000000
,
00000000
00000000
00100000
10000000
01000000
00000000
00000000
01000000
,
00010000
00000000
00001000
00000000
00010000
00001000
00000000
00022000
,
00000000
00000000
00000000
00000000
,
00000000
00000000
00000000
00033000
,
00000000
00000000
00000000
00000000
,
00000000
00000000
00000000
00000000
,
00000010
00000000
00000000
00000000
00000000
00000000
00000010
00000001
,
00000000
00000000
00000000
00000000
00000000
00000010
00000001
00000100
,
00000000
00000000
00000100
00000000
00001000
00000000
00000000
00010000
,
00001000
00010000
00000000
00001000
00000000
00022000
00000000
00000000
,
00000000
00000000
00000000
00033000
;
