#TITLE:REGRET;
#ARTIST:Ryo & Q-Mex S;
#BANNER:REGRET.png;
#BACKGROUND:REGRET-bg.png;
#CDTITLE:./CDTITLES/Song Pack 9.PNG;
#MUSIC:REGRET.ogg;
#SAMPLESTART:1.8;
#SAMPLELENGTH:15;
#DISPLAYBPM:132;
#BPMS:0=132;
#STOPS:100=1.393;

//---------------dance-single - ----------------
#NOTES:
     dance-single:
     :
     Beginner:
     1:
     :
0000
0000
0000
0000
,
0000
0000
0000
0000
,
0000
0000
0000
0000
,
0010
0000
1000
0000
,
1000
0000
0010
0000
,
1000
0000
0001
0000
,
1000
0000
0001
0000
,
1000
0000
1001
0000
,
1000
0000
1000
0000
,
1000
0000
0010
0000
,
0001
0000
0001
0000
,
0001
0000
1000
0000
,
0100
0000
0100
0000
,
0100
0000
0001
0000
,
1000
0000
1000
0000
,
1000
0000
0010
0000
,
0001
0000
1000
0000
,
0001
0000
0000
0000
,
1000
0000
0001
0000
,
1000
0000
0001
0000
,
0010
0000
0010
0000
,
1000
0000
0000
0000
,
0010
0000
0010
0000
,
0001
0000
0001
0000
,
0100
0000
0010
0000
,
0001
0000
0001
0000
,
1000
0000
0100
0000
,
1000
0000
1000
0000
,
0100
0000
1000
0000
,
0100
0000
0010
0000
,
1000
0000
0100
0000
,
1000
0000
0100
0000
,
0100
0000
0010
0000
,
0010
0000
0001
0000
,
0001
0000
1001
0000
,
0001
0000
0010
0000
,
0010
0000
0100
0000
,
0100
0000
1000
0000
,
1000
0000
1001
0000
,
1000
0000
1000
0000
,
1000
0000
0001
0000
,
0001
0000
0001
0000
,
0001
0000
0010
0000
,
0001
0000
0001
0000
,
0100
0000
0010
0000
,
0001
0000
1000
0000
,
0010
0000
0100
0000
,
0100
0000
0010
0000
,
0100
0000
0100
0000
,
0100
0000
1001
0000
,
0110
0000
0000
0000
;

//---------------dance-single - ----------------
#NOTES:
     dance-single:
     :
     Easy:
     3:
     :
0000
0000
0000
0000
,
0000
0000
0000
0000
,
0000
0000
0000
0000
,
0010
0001
1000
0100
,
1000
0000
0010
0000
,
1000
0100
0001
0100
,
1000
0100
0001
0100
,
1000
0010
1001
0000
,
1000
0100
1000
0100
,
1000
0000
0010
0000
,
0001
1000
0001
1000
,
0001
0000
1000
0000
,
0100
0010
0100
0010
,
0100
0000
0001
0000
,
1000
0100
1000
0100
,
1000
0100
0010
0000
,
0001
0100
1000
0100
,
0002
0000
0000
0003
,
1000
0100
0001
0100
,
1000
0100
0001
0000
,
0010
0001
0010
0001
,
2000
0000
0000
3000
,
0010
0100
0010
0100
,
0000
0001
1000
0001
,
1000
0100
0000
0010
,
0000
0001
0100
0001
,
0100
1000
0000
0100
,
0000
1000
0001
1000
,
0001
0100
0000
1000
,
0000
0100
0001
0010
,
0001
1000
0000
0100
,
0000
2000
0000
0100
,
3100
0200
0000
0010
,
0310
0020
0000
0001
,
0031
0001
0000
1001
,
0000
0002
0000
0010
,
0013
0020
0000
0100
,
0130
0200
0000
1000
,
1300
1000
0000
1001
,
0000
1000
0100
1000
,
0100
1000
0000
0001
,
0000
0001
0100
0001
,
0100
0001
0000
0010
,
0000
0001
1000
0001
,
1000
0100
0000
0010
,
0000
0001
0000
1000
,
0000
0010
0001
0100
,
1000
0100
0001
0010
,
0001
0100
1000
0100
,
0001
0100
0001
1001
,
0000
0110
0000
0000
;

//---------------dance-single - ----------------
#NOTES:
     dance-single:
     :
     Medium:
     5:
     :
0000
0000
0000
0000
,
0000
0000
0000
0000
,
0000
0000
0000
0000
,
2000
0000
3010
0100
0000
0001
0100
1000
,
0000
1000
0100
0001
0000
1000
0001
0100
,
0000
0001
1000
0100
0000
1000
0010
1000
,
0000
0010
1000
0100
0001
0100
1000
0010
,
0000
1000
0001
0100
0002
0000
0003
0000
,
0020
0000
0031
0100
0000
0001
1000
0100
,
2000
0001
0100
3001
,
0002
0000
1003
0100
0000
0010
0001
1000
,
0020
0100
1000
0130
,
2000
0000
3001
0100
0000
0010
1000
0100
,
2000
0010
0100
3010
,
0020
0000
0130
0001
0000
0100
0010
1000
,
0000
0000
0001
2000
0000
0000
3000
0000
,
0001
0000
1000
0000
0001
0000
1000
0002
,
0000
0000
0000
0003
,
0000
0010
0100
0010
,
0010
0001
0100
2000
0000
0000
3000
0000
,
0000
0000
0010
0001
1000
0100
1000
0001
,
0200
0000
0000
0300
,
1010
0000
0000
1001
0000
0000
0101
0000
0000
1001
0000
0000
2002
0000
3003
0000
,
0000
0000
0100
0000
0100
0001
0000
0010
,
0001
1000
0020
0000
0100
0000
1000
0000
,
0130
0000
0002
0000
1003
0001
0000
1000
,
0100
0010
0001
0100
1000
0000
1000
0100
,
0001
0000
0000
0000
0000
0110
0000
0010
,
0100
0200
0001
0010
,
0301
0000
0010
0000
1000
0100
0000
1000
,
0001
0100
0000
0001
1000
0200
0000
0000
,
0300
0000
0010
0001
0020
0000
0100
0000
,
0130
0000
1000
0100
2000
0000
0001
0000
,
3001
0000
0100
0010
0200
0000
0010
0000
,
0310
0000
0110
0000
0000
1001
1001
0000
,
0000
0000
0001
0100
0002
0000
1000
0000
,
1003
0000
0010
0100
0020
0000
0100
0000
,
0130
0000
1000
0001
2000
0000
0010
0000
,
3010
0000
1010
0000
0000
1100
1100
0000
,
0000
0000
2000
0000
3100
0010
0000
0001
,
1000
0001
0200
0000
0000
0302
0000
0000
,
0103
0000
0020
0000
1030
0100
0000
1000
,
0100
0010
0002
0000
0000
2003
0000
0000
,
3100
0000
0020
0000
0031
0100
0000
0010
,
1000
0100
2000
0000
0000
3002
0000
0000
,
0203
0000
0000
0320
0000
0000
1000
0000
,
1030
0000
0010
1000
0100
0000
0010
0001
,
0100
0000
0001
1000
0100
0000
1000
0001
,
0100
0000
0001
0100
1000
0100
0001
0000
,
1001
0000
1000
0100
0001
0100
1000
0000
,
0000
0110
0000
0000
;

//---------------dance-single - ----------------
#NOTES:
     dance-single:
     :
     Hard:
     7:
     :
0000
0000
0000
0000
,
0000
0000
0000
0000
,
0000
0000
0000
0000
,
0000
0000
0000
0000
,
0000
0000
0000
0000
,
0010
0001
0100
1000
0000
1000
0100
0001
,
0000
0010
0001
0010
0100
1000
0100
1000
,
0001
1000
0010
0100
0010
1000
0010
1000
,
0000
0010
0010
1000
1000
0001
0001
0100
,
0100
0010
0010
1000
2002
0000
3003
0000
,
0010
1000
0100
0001
0000
0001
0100
1000
,
0010
1001
1100
1001
,
0010
0001
0100
1000
0000
1000
0100
0001
,
0010
0000
0001
1000
0001
1000
0100
0000
,
1000
0010
0100
0001
0000
0001
0100
0010
,
1000
1001
0101
1001
,
0001
0010
0100
1000
0000
1000
0100
0010
,
0000
0000
0010
0200
0000
0000
0300
0000
,
0010
0001
1000
0100
0001
0100
1000
0020
,
0000
0000
0000
0030
,
0010
1000
0001
0100
1000
0100
0010
0100
,
1000
0100
0010
2000
0000
0000
3000
0000
,
0001
0100
0010
1000
0100
0001
0100
1000
,
0020
0000
0000
0030
,
1000
0100
0000
1000
0100
0000
1000
0001
0000
1000
0001
0000
0100
0001
0100
0000
,
0000
0000
0010
1000
0100
0001
0000
0001
,
0100
1000
0010
0000
1010
0000
1001
0000
,
0011
0000
0010
0001
1000
0100
0000
0100
,
1000
0001
0010
0100
0010
0001
1000
0100
,
0001
0000
0000
0000
0000
1001
0000
0100
,
0001
1000
0100
0000
1100
0000
1001
0000
,
0101
0000
0010
1000
0001
0100
0000
0010
,
1000
0010
0000
0100
0001
0100
0000
0001
,
0010
0000
0000
0000
0000
0000
0000
0000
0000
0000
0000
0000
0000
0000
0000
0000
0000
0000
0000
0000
0000
0000
0000
0000
0010
0000
0000
0000
0000
0000
0000
0000
0000
0000
0000
0000
0000
0000
0000
0001
0000
0000
0000
0000
0000
0000
0000
0000
0000
0000
0000
0000
0000
0000
0000
0000
1000
0000
0000
0000
0000
0000
0000
0000
0000
0000
0000
0000
0000
0000
0000
0000
0100
0000
0000
0000
0000
0000
0000
0000
0000
0000
0000
0000
0000
0000
0000
0000
0000
0000
0000
0000
0000
0000
0000
0000
,
1000
0000
0000
0000
0000
0000
0000
0000
0000
0000
0000
0000
0001
0000
0000
0000
0000
0000
0000
0000
0000
0000
0000
0000
1000
0000
0000
0000
0000
0000
0000
0000
0000
0000
0000
0000
0000
0000
0000
0100
0000
0000
0000
0000
0000
0000
0000
0000
0000
0000
0000
0000
0000
0000
0000
0000
0010
0000
0000
0000
0000
0000
0000
0000
0000
0000
0000
0000
0000
0000
0000
0000
0001
0000
0000
0000
0000
0000
0000
0000
0000
0000
0000
0000
0000
0000
0000
0000
0000
0000
0000
0000
0000
0000
0000
0000
,
0010
0000
0000
0000
0000
0000
0000
0000
0000
0000
0000
0000
0100
0000
0000
0000
0000
0000
0000
0000
0000
0000
0000
0000
1000
0000
0000
0000
0000
0000
0000
0000
0000
0000
0000
0000
0000
0000
0000
0100
0000
0000
0000
0000
0000
0000
0000
0000
0000
0000
0000
0000
0000
0000
0000
0000
1000
0000
0000
0000
0000
0000
0000
0000
0000
0000
0000
0000
0000
0000
0000
0000
0100
0000
0000
0000
0000
0000
0000
0000
0000
0000
0000
0000
0000
0000
0000
0000
0000
0000
0000
0000
0000
0000
0000
0000
,
0010
0000
0000
0000
0000
0000
0000
0000
0000
0000
0000
0000
0001
0000
0000
0000
0000
0000
0000
0000
0000
0000
0000
0000
0010
0000
0000
0000
0000
0000
0000
0000
0000
0000
0000
0000
0000
0000
0000
0100
0000
0000
0000
0000
0000
0000
0000
0000
0000
0000
0000
0000
0000
0000
0000
0000
1000
0000
0000
0000
0000
0000
0000
0000
0000
0000
0000
0000
0000
0000
0000
0000
0000
0000
0000
0000
0000
0000
0000
0000
0000
0000
0000
0000
1000
0000
0000
0000
0000
0000
0000
0000
0000
0000
0000
0000
,
0100
0000
0000
0000
0000
0000
0000
0000
0000
0000
0000
0000
1000
0000
0000
0000
0000
0000
0000
0000
0000
0000
0000
0000
0100
0000
0000
0000
0000
0000
0000
0000
0000
0000
0000
0000
0000
0000
0000
0010
0000
0000
0000
0000
0000
0000
0000
0000
0000
0000
0000
0000
0000
0000
0000
0000
1000
0000
0000
0000
0000
0000
0000
0000
0000
0000
0000
0000
0000
0000
0000
0000
0010
0000
0000
0000
0000
0000
0000
0000
0000
0000
0000
0000
0000
0000
0000
0000
0000
0000
0000
0000
0000
0000
0000
0000
,
0001
0000
0000
0000
0000
0000
0000
0000
0000
0000
0000
0000
1000
0000
0000
0000
0000
0000
0000
0000
0000
0000
0000
0000
0001
0000
0000
0000
0000
0000
0000
0000
0000
0000
0000
0000
0000
0000
0000
0010
0000
0000
0000
0000
0000
0000
0000
0000
0000
0000
0000
0000
0000
0000
0000
0000
0001
0000
0000
0000
0000
0000
0000
0000
0000
0000
0000
0000
0000
0000
0000
0000
1000
0000
0000
0000
0000
0000
0000
0000
0000
0000
0000
0000
0000
0000
0000
0000
0000
0000
0000
0000
0000
0000
0000
0000
,
0100
0000
0000
0000
0000
0000
0000
0000
0000
0000
0000
0000
0010
0000
0000
0000
0000
0000
0000
0000
0000
0000
0000
0000
0100
0000
0000
0000
0000
0000
0000
0000
0000
0000
0000
0000
0000
0000
0000
1000
0000
0000
0000
0000
0000
0000
0000
0000
0000
0000
0000
0000
0000
0000
0000
0000
0100
0000
0000
0000
0000
0000
0000
0000
0000
0000
0000
0000
0000
0000
0000
0000
0010
0000
0000
0000
0000
0000
0000
0000
0000
0000
0000
0000
0000
0000
0000
0000
0000
0000
0000
0000
0000
0000
0000
0000
,
0010
0000
0000
0000
0001
0000
0000
0000
1000
0000
0000
0000
0000
0100
0000
0000
0000
0000
0000
0000
1001
0000
0000
0000
0101
0000
0000
0000
0000
0000
0000
0000
,
0000
0000
0010
0001
0100
1000
0000
1000
,
0100
0001
0010
0000
0000
0101
0000
0000
,
1100
0000
1000
0010
0100
0001
0000
0001
,
0100
0010
1000
0000
0000
0110
0000
0000
,
1001
0000
0001
0010
0100
1000
0000
1000
,
0100
0010
0001
0000
0000
0110
0000
0000
,
1001
0000
0000
1010
0000
0000
0101
0000
,
1100
0000
0010
0100
1000
0100
0010
0100
,
1000
0001
0010
0100
0010
0001
0010
0100
,
1000
0000
0010
0001
0010
0100
1000
0100
,
1000
0001
1000
0100
0010
0100
0010
0000
,
0000
1001
0000
0000
;

//---------------dance-double - ----------------
#NOTES:
     dance-double:
     :
     Beginner:
     1:
     :
00000000
00000000
00000000
00000000
,
00000000
00000000
00000000
00000000
,
00000000
00000000
00000000
00000000
,
00000001
00000000
00001000
00000000
,
00000100
00000000
00000010
00000000
,
00000001
00000000
00001000
00000000
,
00000100
00000000
00010000
00000000
,
00001000
00000000
00011000
00000000
,
00010000
00000000
00010000
00000000
,
10000000
00000000
00100000
00000000
,
00010000
00000000
00010000
00000000
,
01000000
00000000
00010000
00000000
,
00001000
00000000
00001000
00000000
,
00001000
00000000
00000100
00000000
,
00000001
00000000
00000001
00000000
,
00000001
00000000
00000010
00000000
,
00000100
00000000
00010000
00000000
,
00011000
00000000
00000000
00000000
,
00010000
00000000
00010000
00000000
,
10000000
00000000
10000000
00000000
,
01000000
00000000
01000000
00000000
,
00001000
00000000
00000000
00000000
,
00011000
00000000
00011000
00000000
,
00010000
00000000
00010000
00000000
,
00000100
00000000
00000001
00000000
,
00000001
00000000
00000001
00000000
,
00000000
00000100
00000000
00001000
,
00000000
00001000
00000000
00001000
,
00000000
00000000
01000000
00000000
,
10000000
00000000
00010000
00000000
,
10000000
00000000
01000000
00000000
,
00010000
00000000
00001000
00000000
,
00001000
00000000
00000100
00000000
,
00000100
00000000
00000001
00000000
,
00000001
00000000
00001001
00000000
,
00000100
00000000
00001000
00000000
,
00001000
00000000
00010000
00000000
,
00010000
00000000
01000000
00000000
,
01000000
00000000
10010000
00000000
,
00010000
00000000
00010000
00000000
,
01000000
00000000
00010000
00000000
,
00010000
00000000
00010000
00000000
,
00000100
00000000
00000001
00000000
,
00000010
00000000
00000010
00000000
,
00000100
00000000
00001000
00000000
,
00010000
00000000
01000000
00000000
,
10000000
00000000
00010000
00000000
,
10000000
00000000
00010000
00000000
,
00000100
00000000
00000100
00000000
,
00010000
00000000
00011000
00000000
,
00011000
00000000
00000000
00000000
;

//---------------dance-double - ----------------
#NOTES:
     dance-double:
     :
     Easy:
     3:
     :
00000000
00000000
00000000
00000000
,
00000000
00000000
00000000
00000000
,
00000000
00000000
00000000
00000000
,
00000001
00000001
00001000
00001000
,
00000100
00000000
00000010
00000000
,
00000001
00000001
00001000
00001000
,
00000100
00000100
00010000
00010000
,
00001000
00001000
00022000
00033000
,
00010000
01000000
00010000
01000000
,
10000000
00000000
00100000
00000000
,
00010000
10000000
00010000
10000000
,
01000000
00000000
00010000
00000000
,
00001000
00010000
00001000
00010000
,
00001000
00000000
00000100
00000000
,
00000001
00001000
00000001
00001000
,
00000001
00000100
00000010
00000000
,
00000100
00001000
00010000
00001000
,
00022000
00000000
00000000
00033000
,
00010000
00001000
00010000
01000000
,
10000000
01000000
10000000
00000000
,
01000000
00010000
01000000
00010000
,
00002000
00000000
00000000
00003000
,
00011000
00000000
00011000
00000000
,
00000000
00010000
00001000
00010000
,
00001000
00000100
00000000
00000001
,
00000000
00000001
00000100
00000001
,
00000100
00000000
00000100
00000000
,
00001000
00010000
00001000
00010000
,
00001000
00010000
00000000
01000000
,
00000000
10000000
10000000
00010000
,
00010000
10000000
00000000
01000000
,
00000000
00020000
00000000
00001000
,
00031000
00002000
00000000
00000100
,
00003100
00000200
00000000
00000001
,
00000301
00000001
00000000
00001001
,
00000000
00000200
00000000
00001000
,
00001300
00002000
00000000
00010000
,
00013000
00020000
00000000
01000000
,
01030000
01000000
00000000
10010000
,
00000000
00010000
10000000
00010000
,
10000000
01000000
00000000
00010000
,
00000000
00010000
00001000
00010000
,
00001000
00000100
00000000
00000001
,
00000000
00000010
00000001
00000010
,
00000001
00000100
00000000
00001000
,
00000000
00010000
00000000
01000000
,
00000000
10000000
01000000
00010000
,
01000000
10000000
01000000
00010000
,
00001000
00000100
00000001
00000100
,
00001000
00010000
00001000
00011000
,
00000000
00011000
00000000
00000000
;

//---------------dance-double - ----------------
#NOTES:
     dance-double:
     :
     Medium:
     5:
     :
00000000
00000000
00000000
00000000
,
00000000
00000000
00000000
00000000
,
00000000
00000000
00000000
00000000
,
00020000
00000000
00000000
20030000
00000000
00000000
30100000
00000000
,
10000000
01000000
00010000
00000000
00010000
00001000
00000100
00000000
,
00000100
00000001
00000010
00000000
00000010
00000001
00000100
00000000
,
00001000
00000100
00000001
00000100
00001000
00000100
00000001
00000000
,
00000001
00000100
00001000
00010000
00022000
00000000
00033000
00000000
,
00002000
00000000
00000000
00023000
00000000
00000000
00031000
00000000
,
00001000
00010000
01000000
00000000
01000000
10000000
00100000
00000000
,
20000000
00000000
00000000
30020000
00000000
00000000
00130000
00000000
,
00010000
10000000
01000000
00000000
01000000
00010000
00001000
00000000
,
00020000
00000000
00000000
00032000
00000000
00000000
00013000
00000000
,
00010000
00001000
00000100
00000000
00000100
00000001
00000010
00000000
,
00000002
00000000
00000000
00002003
00000000
00000000
00003010
00000000
,
00000200
00000000
00000000
00000302
00000000
00000000
00000003
00000000
,
00000001
00000000
00000100
00000000
00001000
00000000
00010000
00022000
,
00000000
00000000
00000000
00033000
,
00000000
00010000
01000000
10000000
,
01000000
00000000
00100000
00020000
00000000
00000000
00030000
00000000
,
00000000
00000000
00010000
00000000
10000000
00000000
01000000
02200000
,
00000000
00000000
00000000
03300000
,
01000000
00000000
00000000
00010000
00000000
00000000
00001000
00000000
00000000
00000100
00000000
00000000
00001000
00000000
00000000
00000000
,
00000000
00000000
00020000
00000000
00000000
00032000
00000000
00000000
,
00013000
00000000
00010000
00001000
00000100
00000000
00000001
00000100
,
00001000
00000000
00000200
00000000
00000000
00002300
00000000
00000000
,
00013000
00000000
00001000
00010000
01000000
00000000
01000000
00010000
,
00001000
00000000
00020000
00000000
00000000
00032000
00000000
00000000
,
00013000
00000000
00010000
01000000
10000000
00000000
00100000
10000000
,
01000000
00000000
10000000
00000000
00000000
00100000
00000000
01000000
,
00100000
10000000
00000000
00000000
01000000
00020000
00000000
00000000
,
00030000
00000000
00001000
00000000
00010000
00000000
00001000
00010000
,
00001000
00010000
00001000
00000000
00000100
00000000
00000001
00000100
,
00000001
00000100
00000001
00000000
00000010
00000000
00000001
00001000
,
00000001
00001000
00000001
00000000
00000000
00001001
00001001
00000000
,
00000000
00000000
00000100
00000000
00001000
00000000
00010000
00001000
,
00010000
00001000
00010000
00000000
01000000
00000000
10000000
01000000
,
10000000
01000000
10000000
00000000
00100000
00000000
10000000
00010000
,
10000000
00010000
10000000
00000000
00000000
10010000
10010000
00000000
,
00000000
00000000
00200000
00000000
00000000
20300000
00000000
00000000
,
31000000
00000000
00100000
00010000
01000000
00000000
00100000
10000000
,
01000000
00000000
00020000
00000000
00000000
00032000
00000000
00000000
,
00013000
00000000
00010000
00001000
00000100
00000000
00000100
00000001
,
00000010
00000000
00000002
00000000
00000000
00002003
00000000
00000000
,
00003100
00000000
00020000
00000000
00000000
00032000
00000000
00000000
,
02003000
00000000
00000000
03020000
00000000
00000000
10000000
00000000
,
10030000
00000000
01000000
00100000
01000000
00000000
00100000
00000000
,
10000000
00000000
01000000
00010000
00001000
00000000
00010000
00000000
,
00001000
00000000
00001000
00000100
00000001
00000000
00000001
00000100
,
00001000
00000000
00010000
00001000
00010000
00000000
00011000
00000000
,
00000000
00011000
00000000
00000000
;

//---------------dance-double - ----------------
#NOTES:
     dance-double:
     :
     Hard:
     8:
     :
00000000
00000000
00000000
00000000
,
00000000
00000000
00000000
00000000
,
00000000
00000000
00000000
00000000
,
00010000
00001000
00010000
00001000
00000000
00010000
00001000
00000100
,
00000000
00000001
00000010
00001000
00000010
00000001
00000100
00001000
,
00010000
01000000
10000000
00100000
00010000
00100000
10000000
01000000
,
00000000
00100000
00001000
00010000
00000100
00001000
00000010
00001000
,
00000100
00010000
00001000
01000000
02020000
00000000
03030000
00000000
,
00001000
00100000
00010000
10000000
00000000
10000000
00100000
01000000
,
00020000
20030000
32000000
03020000
,
01030000
00010000
00001000
00000100
00000000
00001000
00000100
00000010
,
00001000
00000000
00000100
00000010
00000001
00000100
00001000
00000000
,
00000100
00001000
00010000
01000000
00000000
00010000
01000000
10000000
,
00200000
00320000
00032000
00003020
,
00000031
00000100
00000010
00001000
00000000
00000100
00010000
00001000
,
00000000
00000000
00010000
00002000
00000000
00000000
00003000
00000000
,
00010000
00001000
00010000
01000000
00100000
00010000
10000000
02000000
,
00000000
00000000
00000000
03000000
,
00010000
00001000
00000100
00000010
00000100
00001000
00010000
01000000
,
10000000
01000000
00100000
00020000
00000000
00000000
00030000
00000000
,
10000000
00100000
10000000
01000000
00010000
00001000
00000100
00000001
,
00000020
00000000
00000000
00000030
,
00000001
00000100
00000000
00000100
00001000
00000000
00001000
00010000
00000000
00010000
00001000
00000000
00010000
00001000
00010000
00000000
,
00000000
00000000
00010000
00001000
00010000
01000000
00000000
01000000
,
00010000
00001000
00020000
00000000
00032000
00000000
00023000
00000000
,
02030000
00000000
13000000
01000000
00100000
00010000
00000000
00010000
,
01000000
10000000
01000000
00100000
00010000
00001000
00000010
00000001
,
00000100
00000000
00000000
00000000
00000000
00000110
00000000
00000010
,
00000001
00000100
00002000
00000000
00003200
00000000
00000320
00000000
,
00002030
00000000
00003100
00010000
00001000
01000000
00000000
00100000
,
10000000
01000000
00000000
01000000
00010000
00001000
00000000
00010000
,
00001000
00000000
00000000
00000000
00000000
00000000
00000000
00000000
00000000
00000000
00000000
00000000
00000000
00000000
00000000
00000000
00000000
00000000
00000000
00000000
00000000
00000000
00000000
00000000
00001100
00000000
00000000
00000000
00000000
00000000
00000000
00000000
00000000
00000000
00000000
00000000
00000000
00000000
00000000
00000010
00000000
00000000
00000000
00000000
00000000
00000000
00000000
00000000
00000000
00000000
00000000
00000000
00000000
00000000
00000000
00000000
00000001
00000000
00000000
00000000
00000000
00000000
00000000
00000000
00000000
00000000
00000000
00000000
00000000
00000000
00000000
00000000
00000101
00000000
00000000
00000000
00000000
00000000
00000000
00000000
00000000
00000000
00000000
00000000
00000000
00000000
00000000
00000000
00000000
00000000
00000000
00000000
00000000
00000000
00000000
00000000
,
00000100
00000000
00000000
00000000
00000000
00000000
00000000
00000000
00000000
00000000
00000000
00000000
00001000
00000000
00000000
00000000
00000000
00000000
00000000
00000000
00000000
00000000
00000000
00000000
00011000
00000000
00000000
00000000
00000000
00000000
00000000
00000000
00000000
00000000
00000000
00000000
00000000
00000000
00000000
00010000
00000000
00000000
00000000
00000000
00000000
00000000
00000000
00000000
00000000
00000000
00000000
00000000
00000000
00000000
00000000
00000000
01000000
00000000
00000000
00000000
00000000
00000000
00000000
00000000
00000000
00000000
00000000
00000000
00000000
00000000
00000000
00000000
11000000
00000000
00000000
00000000
00000000
00000000
00000000
00000000
00000000
00000000
00000000
00000000
00000000
00000000
00000000
00000000
00000000
00000000
00000000
00000000
00000000
00000000
00000000
00000000
,
10000000
00000000
00000000
00000000
00000000
00000000
00000000
00000000
00000000
00000000
00000000
00000000
00100000
00000000
00000000
00000000
00000000
00000000
00000000
00000000
00000000
00000000
00000000
00000000
10100000
00000000
00000000
00000000
00000000
00000000
00000000
00000000
00000000
00000000
00000000
00000000
00000000
00000000
00000000
00100000
00000000
00000000
00000000
00000000
00000000
00000000
00000000
00000000
00000000
00000000
00000000
00000000
00000000
00000000
00000000
00000000
00010000
00000000
00000000
00000000
00000000
00000000
00000000
00000000
00000000
00000000
00000000
00000000
00000000
00000000
00000000
00000000
00011000
00000000
00000000
00000000
00000000
00000000
00000000
00000000
00000000
00000000
00000000
00000000
00000000
00000000
00000000
00000000
00000000
00000000
00000000
00000000
00000000
00000000
00000000
00000000
,
00001000
00000000
00000000
00000000
00000000
00000000
00000000
00000000
00000000
00000000
00000000
00000000
00010000
00000000
00000000
00000000
00000000
00000000
00000000
00000000
00000000
00000000
00000000
00000000
00011000
00000000
00000000
00000000
00000000
00000000
00000000
00000000
00000000
00000000
00000000
00000000
00000000
00000000
00000000
00010000
00000000
00000000
00000000
00000000
00000000
00000000
00000000
00000000
00000000
00000000
00000000
00000000
00000000
00000000
00000000
00000000
00001000
00000000
00000000
00000000
00000000
00000000
00000000
00000000
00000000
00000000
00000000
00000000
00000000
00000000
00000000
00000000
00000000
00000000
00000000
00000000
00000000
00000000
00000000
00000000
00000000
00000000
00000000
00000000
00010000
00000000
00000000
00000000
00000000
00000000
00000000
00000000
00000000
00000000
00000000
00000000
,
01000000
00000000
00000000
00000000
00000000
00000000
00000000
00000000
00000000
00000000
00000000
00000000
10000000
00000000
00000000
00000000
00000000
00000000
00000000
00000000
00000000
00000000
00000000
00000000
11000000
00000000
00000000
00000000
00000000
00000000
00000000
00000000
00000000
00000000
00000000
00000000
00000000
00000000
00000000
01000000
00000000
00000000
00000000
00000000
00000000
00000000
00000000
00000000
00000000
00000000
00000000
00000000
00000000
00000000
00000000
00000000
00010000
00000000
00000000
00000000
00000000
00000000
00000000
00000000
00000000
00000000
00000000
00000000
00000000
00000000
00000000
00000000
01010000
00000000
00000000
00000000
00000000
00000000
00000000
00000000
00000000
00000000
00000000
00000000
00000000
00000000
00000000
00000000
00000000
00000000
00000000
00000000
00000000
00000000
00000000
00000000
,
00010000
00000000
00000000
00000000
00000000
00000000
00000000
00000000
00000000
00000000
00000000
00000000
00001000
00000000
00000000
00000000
00000000
00000000
00000000
00000000
00000000
00000000
00000000
00000000
00011000
00000000
00000000
00000000
00000000
00000000
00000000
00000000
00000000
00000000
00000000
00000000
00000000
00000000
00000000
00001000
00000000
00000000
00000000
00000000
00000000
00000000
00000000
00000000
00000000
00000000
00000000
00000000
00000000
00000000
00000000
00000000
00000100
00000000
00000000
00000000
00000000
00000000
00000000
00000000
00000000
00000000
00000000
00000000
00000000
00000000
00000000
00000000
00001100
00000000
00000000
00000000
00000000
00000000
00000000
00000000
00000000
00000000
00000000
00000000
00000000
00000000
00000000
00000000
00000000
00000000
00000000
00000000
00000000
00000000
00000000
00000000
,
00000100
00000000
00000000
00000000
00000000
00000000
00000000
00000000
00000000
00000000
00000000
00000000
00000001
00000000
00000000
00000000
00000000
00000000
00000000
00000000
00000000
00000000
00000000
00000000
00000101
00000000
00000000
00000000
00000000
00000000
00000000
00000000
00000000
00000000
00000000
00000000
00000000
00000000
00000000
00000001
00000000
00000000
00000000
00000000
00000000
00000000
00000000
00000000
00000000
00000000
00000000
00000000
00000000
00000000
00000000
00000000
00000010
00000000
00000000
00000000
00000000
00000000
00000000
00000000
00000000
00000000
00000000
00000000
00000000
00000000
00000000
00000000
00000011
00000000
00000000
00000000
00000000
00000000
00000000
00000000
00000000
00000000
00000000
00000000
00000000
00000000
00000000
00000000
00000000
00000000
00000000
00000000
00000000
00000000
00000000
00000000
,
00000010
00000000
00000000
00000000
00001000
00000000
00000000
00000000
00001010
00000000
00000000
00000000
00000000
00001000
00000000
00000000
00000000
00000000
00000000
00000000
00010000
00000000
00000000
00000000
00011000
00000000
00000000
00000000
00000000
00000000
00000000
00000000
,
00000000
00000000
00001000
00010000
00100000
10000000
00000000
00100000
,
10000000
01000000
00200000
00000000
00000000
00302000
00000000
00000000
,
00013000
00000000
00010000
00001000
00000010
00000001
00000000
00000010
,
00000001
00000100
00000020
00000000
00000000
00020030
00000000
00000000
,
00031000
00000000
00010000
00001000
00010000
00001000
00000000
00001000
,
01000000
00010000
20000000
00000000
00000000
30020000
00000000
00000000
,
00230000
00000000
00000000
02300000
00000000
00000000
03010000
00000000
,
00001000
00000000
00010000
00001000
00000010
00001000
00010000
00100000
,
00010000
00001000
00000010
00001000
00010000
00100000
00010000
00001000
,
00010000
00000000
00001000
00000010
00000001
00000100
00001000
00010000
,
01000000
10000000
00100000
00010000
00001000
00000010
00000001
00000000
,
00000000
00000110
00000000
00000000
;
