#TITLE:R5;
#ARTIST:tiger YAMATO with ultrabeatbox;
#BANNER:R5.png;
#BACKGROUND:R5-bg.png;
#CDTITLE:./CDTITLES/Song Pack 10.PNG;
#MUSIC:R5.ogg;
#SAMPLESTART:25.625;
#SAMPLELENGTH:15;
#BPMS:0=180;

//---------------dance-single - ----------------
#NOTES:
     dance-single:
     :
     Beginner:
     2:
     :
0000
0000
0000
0000
,
0000
0000
0000
0000
,
0000
0000
0000
0000
,
0000
0000
0000
0001
,
0000
0000
0000
1000
,
0000
0100
0000
0000
,
0000
0010
0000
0001
,
0000
0100
0000
0000
,
0010
0000
0000
1000
,
0000
0000
0100
0000
,
0000
1000
0000
0000
,
0010
0000
1000
0000
,
1000
0000
1000
0000
,
0100
0000
1001
0000
,
0000
0000
0000
0000
,
0000
0000
0000
0000
,
0000
0000
0000
0000
,
0000
0000
0000
0000
,
0010
0000
0001
0000
,
0010
0000
1001
0000
,
0000
0000
0000
0100
,
0000
0000
0001
0000
,
0000
0001
0000
0010
,
0000
0000
0000
0010
,
0000
0000
1000
0000
,
0000
0100
0000
0010
,
0000
0000
0000
0010
,
0000
0000
0001
0000
,
0000
0001
0000
1000
,
0000
0000
0000
0100
,
0000
0000
1000
0000
,
0000
0010
0000
0010
,
0000
0000
0100
0000
,
0000
0100
0000
0000
,
1000
0000
0000
0010
,
0000
0000
0100
0000
,
0000
0100
0000
0000
,
1000
0000
0100
0000
,
0100
0000
0010
0000
,
1000
0000
0100
0000
,
1000
0000
0010
0000
,
1000
0000
0100
0000
,
0100
0000
0100
0000
,
0010
0000
0000
0000
,
0000
0000
0000
0110
,
0000
0000
0000
0000
,
0000
0110
0000
0000
,
0000
0000
0000
0110
,
0000
0000
0000
0000
,
0000
0110
0000
0100
,
0000
0001
0000
0010
,
0000
0010
0000
1000
,
0000
0001
0000
0100
,
0000
0001
0000
0010
,
0000
0001
0000
1000
,
0000
0001
0000
0100
,
0000
0001
0000
0001
,
0000
0010
0000
0000
,
0000
0000
0000
0000
,
0000
0000
0000
0000
,
0000
0000
0000
0000
,
0000
0000
0010
0000
,
0000
0000
0001
0000
,
1001
0000
0000
0000
;

//---------------dance-single - ----------------
#NOTES:
     dance-single:
     :
     Easy:
     4:
     :
0000
0000
0000
0000
,
0000
0000
0000
0000
,
0000
0000
0000
0000
,
0000
0000
0000
0001
,
1001
0000
0000
0020
0000
0000
1030
0000
,
0000
0001
0100
0000
0101
0000
0000
0200
,
0000
0000
0310
0000
0000
1000
0001
0000
,
1001
0000
0200
0000
0000
0301
0000
0000
,
0020
0000
0000
0130
0000
0000
2000
0000
,
0000
3001
0000
0000
0200
0000
0000
0310
,
0000
0000
2000
0000
0000
3001
0000
0000
,
0020
0031
1000
0001
,
1000
0001
1000
0000
,
0200
0300
2002
0000
,
0000
0000
0000
0000
,
0000
0000
0000
0000
,
0000
0000
0000
0000
,
0000
0000
0000
3003
,
0010
1000
0001
0100
,
0010
1000
1001
0200
,
0300
0001
0000
2000
0000
3000
0100
0000
,
0000
0020
0000
0030
0002
0000
0003
0200
,
0000
0300
0001
0000
1001
0000
0020
0000
,
0030
1000
0000
0002
0000
0003
0010
0000
,
0000
0200
0000
0300
2000
0000
3000
0020
,
0000
0130
1001
0020
,
0030
0001
0000
2000
0000
3000
0010
0000
,
0000
0200
0000
0300
0002
0000
0003
0020
,
0000
0030
0000
0000
0001
0000
0000
0000
1001
0000
0000
0000
2000
0000
0000
0000
,
3000
0100
0000
0020
0000
0030
0100
0000
,
0000
0002
0000
0003
2000
0000
3000
0200
,
0000
0300
0010
0000
1001
0000
0020
0000
,
0000
0032
0000
0000
0203
0000
2300
0000
,
0000
0000
3200
0000
0000
0320
0000
0000
,
2030
3200
0000
0320
,
0000
0032
0000
0000
0203
0000
2300
0000
,
0000
0000
0000
3000
0200
0000
0000
0000
0000
0000
0302
0000
0000
0000
0000
0000
,
2003
3001
0100
1000
,
0100
0001
0010
0100
,
1000
0001
0100
0010
,
1000
0100
0010
0001
,
1000
0010
0100
0001
,
0100
1000
0100
0001
,
0010
0000
0100
0000
0000
1000
0000
0001
,
0000
0100
0000
0010
0000
0000
0110
0000
,
0000
0001
0000
1000
0000
0100
0000
0010
,
0000
0000
0110
0000
0000
0001
0000
0010
,
0000
0001
0000
1000
0000
0000
0101
0000
,
0000
1000
0000
0010
0000
1000
0000
0001
,
0000
1100
0010
0100
,
1000
0001
0100
0010
,
0001
0010
0100
1000
,
0100
0001
0010
0100
,
1000
0001
0100
0010
,
1000
0001
0100
1000
,
0100
0001
0010
0100
,
1000
0001
1000
0001
,
0100
0000
0010
0000
1000
0100
0000
0100
,
0000
1100
0000
0010
0000
0010
0000
0011
,
0000
0100
0000
0100
0000
0101
0000
0010
,
0000
0010
0000
1010
0000
1000
0000
1100
,
0000
0100
0000
0100
0020
0000
0000
0000
,
0000
0000
0030
0000
0001
1000
0000
0000
,
2002
0000
0000
3003
;

//---------------dance-single - ----------------
#NOTES:
     dance-single:
     :
     Medium:
     7:
     :
0000
0000
0000
0000
,
0000
0000
0000
0000
,
0000
0000
0000
0000
,
0000
0000
0000
0100
,
1001
0000
0001
0020
0000
0000
0031
0000
,
0000
1000
0100
0000
1001
0000
1000
0020
,
0000
0000
1030
0000
0000
0001
0100
0000
,
1001
0000
0010
0000
1000
0100
0000
0000
,
0100
0000
0010
0001
0000
0000
0001
0000
,
0001
1000
0000
0000
0010
0000
0010
0100
,
0000
0000
0001
0000
0001
0010
0000
0000
,
0010
0000
0100
1000
0010
0000
1001
0000
,
0100
1001
0010
0000
,
0220
0330
2002
0000
,
0000
0000
0000
3003
,
1000
0001
1000
0001
1000
0001
1000
0001
,
1000
0001
1000
0001
1000
0001
1000
0001
,
1000
0001
1000
0001
1000
0001
1000
0000
,
0010
0000
0010
0000
1000
0001
0100
0010
,
1000
0010
1001
0001
,
0100
0001
1000
0020
0000
0000
0130
0000
,
0001
0020
0000
0000
0230
0000
0000
2300
,
0000
3001
1001
0001
,
0010
0001
1000
0200
0000
0000
0310
0000
,
0001
0200
0000
0000
0320
0000
0000
2030
,
0000
3001
1001
1000
,
0010
1000
0001
0200
0000
0000
0310
0000
,
1000
0200
0000
0000
0320
0000
0000
0032
,
0000
1003
1001
1000
,
0100
1000
0001
0020
0000
0000
0130
0000
,
1000
0020
0000
0000
0230
0000
0000
0302
,
0000
1003
1001
2000
,
3000
0002
0000
0003
0010
0000
0001
0100
,
0000
0000
0020
0000
0030
0200
0000
0300
,
0001
0000
1000
0010
0000
0000
2000
0100
,
3000
0002
0100
0003
1000
0010
0100
0001
,
0000
0000
0002
0100
0003
2000
0100
3000
,
0001
0010
0100
0000
1000
0000
0001
0100
,
0010
0100
0001
0000
1000
0000
0100
0000
,
0010
0000
0001
1000
0100
1000
0001
0000
,
0100
0000
0010
0000
1000
0000
0100
0010
,
0001
0010
0100
0000
1000
0000
0001
0000
,
0100
0000
0010
1000
0001
1000
0010
0000
,
0100
0000
0010
0000
0000
0100
0000
0001
,
0000
0100
0001
0010
0000
0000
0011
0000
,
0000
0100
0000
1000
0000
0100
1000
0010
,
0000
0000
1010
0000
0000
0001
0000
1000
,
0000
0010
0100
0010
0000
0000
0110
0000
,
0000
1000
0000
0001
0000
0010
0100
0010
,
0000
0000
1001
0000
0010
0000
1000
0010
,
1000
0010
0000
0100
0010
0000
0100
0010
,
0100
0010
0000
0100
0001
0000
0100
0001
,
0100
0001
0000
1000
0001
0000
1000
0001
,
1000
0001
0000
1000
0100
0000
0020
0100
,
0030
0200
0010
0300
1000
0100
0010
0001
,
0000
0000
0002
1000
0003
2000
0001
3000
,
0010
0100
0001
2000
0000
3002
0000
2003
,
0000
3002
0000
1003
0000
0110
0000
0001
,
0000
1001
0000
0100
0000
1100
0000
0010
,
0000
0011
0000
0001
0000
0110
0000
0100
,
0000
1010
0000
1000
0000
0100
0010
0001
,
1000
0100
0010
0001
2000
0000
0000
0000
,
0000
0000
3000
0000
0010
0100
0000
0000
,
2002
0000
0000
3003
;

//---------------dance-single - ----------------
#NOTES:
     dance-single:
     :
     Hard:
     9:
     :
0000
0000
0000
0000
,
0000
0000
0000
0000
,
0000
0000
0000
0000
,
0000
0000
0000
0110
,
1001
0000
0001
0100
0010
1000
0001
1000
,
0100
0000
1100
0000
1001
0000
1000
0010
,
0100
0001
1000
0001
0010
0000
0011
0000
,
1001
0000
0010
0000
1000
0110
0001
0000
,
0100
0000
0010
1001
0100
0000
0010
0000
,
0010
1010
0100
0000
0001
0000
0010
0011
,
0100
0000
1000
0000
0001
0110
1000
0000
,
0010
0000
0100
0001
0101
0000
1100
0000
,
1010
0011
0202
0303
,
0220
0330
2002
0000
,
0000
0000
0000
3003
,
1000
0001
1000
0001
1000
0001
1000
0001
1000
0001
1000
0001
1000
0001
1000
0001
,
1000
0001
1000
0001
1000
0001
1000
0001
1000
0001
1000
0001
1000
0001
1000
0001
,
1000
0001
1000
0001
1000
0001
1000
0001
1000
0001
1000
0001
1000
0000
0000
0000
,
0010
0000
0010
0000
1000
0001
0100
0010
,
1000
1010
1001
0100
,
1000
0100
1000
0010
0100
1000
0100
0000
,
1001
1000
0001
0001
0010
0010
0010
0100
,
0100
0100
1000
1000
1001
0000
0100
0000
,
0001
0010
0001
0100
0010
0001
0010
0000
,
1001
0100
1000
0000
0001
0000
0010
0100
,
0010
0001
1000
0000
1001
0000
0100
0000
,
0001
0100
0001
0010
0100
0001
0100
0000
,
1001
0001
1000
1000
0010
0010
0010
0100
,
0100
0100
0001
0001
1001
0000
0100
0000
,
1000
0010
1000
0100
0010
1000
0010
0000
,
1001
0100
0001
0000
1000
0000
0010
0100
,
0010
1000
0002
0000
0013
0000
0100
0100
,
0000
1000
1000
0000
0001
0001
0100
0100
,
0000
0000
0010
0010
0000
1000
1000
0000
,
0001
0001
0100
0100
0000
0000
1000
0200
,
0000
0310
0002
0000
0103
0010
1000
0002
,
0000
0003
0100
0020
0000
1030
0200
0000
,
0310
0001
1000
0000
1000
0100
0010
0001
,
0100
0010
1000
0100
0010
0001
0100
1000
,
0001
0010
1000
0100
0001
1000
0010
0001
,
0100
0010
1000
0001
0100
1000
0100
0010
,
1000
0010
0100
0001
0010
1000
0010
0100
,
1000
0010
0100
0001
0010
0100
1000
0010
,
0100
0001
0010
0100
0000
1000
0000
0001
,
0000
0010
0100
0001
0000
0000
1100
0000
,
0000
0001
0000
1000
0000
0010
0100
1000
,
0000
0000
0101
0000
0000
1001
0000
0110
,
0000
1000
0100
0001
0000
0000
0110
0000
,
0000
1001
0000
0110
0000
0001
0100
1000
,
0000
0000
1001
0000
0010
0100
0001
0010
,
1000
0010
0000
0100
0010
0001
1000
0010
,
0100
0010
0000
0100
0001
1000
0100
0001
,
0100
0010
0000
0100
1000
0001
0100
0010
,
1000
0001
0000
1000
0100
0010
1000
0001
,
0100
0010
0001
1000
0001
0010
1000
0001
,
1000
0010
0001
0010
0100
1000
0001
0100
,
0010
1000
0001
0010
0100
1000
0010
0100
,
0001
0010
0000
0100
1000
0001
0100
0010
,
0100
0001
1000
0100
0010
0100
1000
0010
,
0100
0001
0010
0100
0001
1000
0001
0100
,
1000
0010
0001
1000
0001
0010
0110
0010
,
1000
0001
0100
0010
2002
0000
0000
0000
,
0000
0000
3003
0000
0101
1001
0000
0000
,
2002
0000
3003
0000
;

//---------------dance-double - ----------------
#NOTES:
     dance-double:
     :
     Beginner:
     2:
     :
00000000
00000000
00000000
00000000
,
00000000
00000000
00000000
00000000
,
00000000
00000000
00000000
00000000
,
00000000
00000000
00000000
10000000
,
00000000
00000000
00000000
01000000
,
00000000
00010000
00000000
00000000
,
00000000
00001000
00000000
00000100
,
00000000
00000010
00000000
00000000
,
00001000
00000000
00000000
01000000
,
00000000
00000000
00010000
00000000
,
00000000
00001000
00000000
00000000
,
00000100
00000000
00000100
00000000
,
00010000
00000000
10000000
00000000
,
00100000
00000000
10010000
00000000
,
00000000
00000000
00000000
00000000
,
00000000
00000000
00000000
00000000
,
00000000
00000000
00000000
00000000
,
00000000
00000000
00000000
00000000
,
00100000
00000000
00010000
00000000
,
00010000
00000000
00011000
00000000
,
00000000
00000000
00000000
00000100
,
00000000
00000000
00001000
00000000
,
00000000
00010000
00000000
00010000
,
00000000
00000000
00000000
00100000
,
00000000
00000000
00010000
00000000
,
00000000
00001000
00000000
00010000
,
00000000
00000000
00000000
00100000
,
00000000
00000000
00010000
00000000
,
00000000
00001000
00000000
00001000
,
00000000
00000000
00000000
00000100
,
00000000
00000000
00001000
00000000
,
00000000
00010000
00000000
00100000
,
00000000
00000000
01000000
00000000
,
00000000
00001000
00000000
00000000
,
00000001
00000000
00000000
00001000
,
00000000
00000000
00100000
00000000
,
00000000
01000000
00000000
00000000
,
00001000
00000000
01000000
00000000
,
01000000
00000000
01000000
00000000
,
00010000
00000000
00000001
00000000
,
00000010
00000000
00001000
00000000
,
01000000
00000000
01000000
00000000
,
00010000
00000000
00000100
00000000
,
00000001
00000000
00000000
00000000
,
00000000
00100000
00000000
01100000
,
00000000
00000000
00000000
00000010
,
00000000
00000110
00000000
00000000
,
00000000
00001000
00000000
01100000
,
00000000
00000000
00000000
00001000
,
00000000
00011000
00000000
00000100
,
00000000
00000010
00000000
00000010
,
00000000
00001000
00000000
00010000
,
00000000
01000000
00000000
01000000
,
00000000
00010000
00000000
00001000
,
00000000
00000001
00000000
00001000
,
00000000
00100000
00000000
00010000
,
00000000
10000000
00000000
00010000
,
00000000
00001000
00000000
00000000
,
00000000
00000000
00000000
00000000
,
00000000
00000000
00000000
00000000
,
00000000
00000000
00000000
00000000
,
00000000
00000000
00001000
00000000
,
00000000
00000000
00001000
00000000
,
00011000
00000000
00000000
00000000
;

//---------------dance-double - ----------------
#NOTES:
     dance-double:
     :
     Easy:
     5:
     :
00000000
00000000
00000000
00000000
,
00000000
00000000
00000000
00000000
,
00000000
00000000
00000000
00000000
,
00000000
00000000
00000000
10000000
,
10010000
00000000
00000000
00200000
00000000
00000000
01300000
00000000
,
00000000
10000000
00010000
00000000
01010000
00000000
00000000
02000000
,
00000000
00000000
03001000
00000000
00000000
00010000
00000100
00000000
,
00001001
00000000
00000020
00000000
00000000
00000130
00000000
00000000
,
00002000
00000000
00000000
00013000
00000000
00000000
02000000
00000000
,
00000000
13000000
00000000
00000000
00020000
00000000
00000000
01030000
,
00000000
00000000
00002000
00000000
00000000
00013000
00000000
00000000
,
00000200
00000000
00001300
00000001
00000100
00000000
00001000
00000000
,
00010000
01000000
10000000
00000000
,
00200000
00300000
20020000
00000000
,
00000000
00000000
00000000
00000000
,
00000000
00000000
00000000
00000000
,
00000000
00000000
00000000
00000000
,
00000000
00000000
00000000
30030000
,
00100000
00000000
10000000
00000000
00010000
01000000
00001000
00000000
,
00010000
00001000
00011000
00002000
,
00003000
00000100
00000000
00000020
00000000
00000030
00000100
00000000
,
00000000
00000002
00000000
00000003
00002000
00000000
00003000
00000200
,
00000000
00000300
00010000
00000000
00011000
00000000
00020000
00000000
,
00030000
00100000
00000000
02000000
00000000
03000000
00100000
00000000
,
00000000
20000000
00000000
30000000
00020000
00000000
00030000
00200000
,
00000000
00300000
00001000
00000000
00011000
00000000
00020000
00000000
,
00030000
00100000
00000000
02000000
00000000
03000000
00100000
00000000
,
00000000
20000000
00000000
30000000
00020000
00000000
00030000
00200000
,
00000000
00300000
00001000
00000000
00011000
00000000
00002000
00000000
,
00003000
00000100
00000000
00000020
00000000
00000030
00000100
00000000
,
00000000
00000002
00000000
00000003
00002000
00000000
00003000
00000200
,
00000000
00000300
00010000
00000000
00011000
00000000
00200000
00000000
,
00000000
20300000
00000000
00000000
32000000
00000000
03020000
00000000
,
00000000
00000000
00032000
00000000
00000000
00003200
00000000
00000000
,
00000302
00000023
00000000
00002030
,
00000000
00023000
00000000
00000000
00230000
00000000
20300000
00000000
,
00000000
00000000
00000000
30000000
02000000
00000000
00000000
00000000
00000000
00000000
03020000
00000000
00000000
00000000
00000000
00000000
,
00032000
00000000
00013000
00000000
01000000
00000000
10000000
00100000
,
01000000
00010000
01000000
00001000
,
00010000
00000000
00000100
00001000
00000001
00000000
00000100
00000000
,
00000010
00000000
00000100
00000000
00001000
00000000
00010000
00100000
,
01000000
00010000
01000000
00001000
,
00010000
00000000
00000010
00001000
00000100
00000000
00000010
00000000
,
00000001
00000000
00000100
00000000
00000000
00001000
00000000
00010000
,
00000000
01000000
00100000
00010000
00000000
00000000
01100000
00000000
,
00000000
00010000
00000000
00001000
00000000
00000100
00000010
00001000
,
00000000
00000000
00000110
00000000
00000000
00000100
00000000
00000010
,
00000000
00010000
00001000
00010000
00000000
00000000
01100000
00000000
,
00000000
01000000
00000000
00100000
00000000
00010000
00001000
00010000
,
00000000
00011000
00001000
00000100
,
00000001
00000100
00000010
00000000
00001000
00000000
00000010
00000000
,
00010000
00001000
01000000
00010000
,
10000000
00100000
01000000
00000000
00010000
00000000
01000000
00000000
,
00001000
00010000
00000100
00001000
,
00000010
00000100
00000001
00000000
00000100
00000000
00001000
00000000
,
00010000
00100000
10000000
00010000
,
00100000
01000000
10000000
00000000
10000000
00000000
00010000
00000000
,
01000000
00000000
00001000
00000000
00010000
00001000
00000000
00000100
,
00000000
00000001
00000000
00000010
00000000
00000100
00000000
00001000
,
00000000
00000001
00000000
00000100
00000000
00001000
00000000
00010000
,
00000000
01000000
00000000
10000000
00000000
00100000
00000000
00010000
,
00000000
00001000
00000000
00010000
00002000
00000000
00000000
00000000
,
00000000
00000000
00003000
00000000
00001000
00010000
00000000
00000000
,
00022000
00000000
00000000
00033000
;

//---------------dance-double - ----------------
#NOTES:
     dance-double:
     :
     Medium:
     7:
     :
00000000
00000000
00000000
00000000
,
00000000
00000000
00000000
00000000
,
00000000
00000000
00000000
00000000
,
00000000
00000000
00000000
00100000
,
10010000
00000000
00010000
00200000
00000000
00000000
00301000
00000000
,
00000000
00010000
00001000
00000000
00011000
00000000
00000100
00002000
,
00000000
00000000
00003001
00000000
00000000
00000100
00000001
00000000
,
00001001
00000000
00000010
00000000
00000001
00000100
00000000
00000000
,
00001000
00000000
00010000
01000000
00000000
00000000
10000000
00000000
,
00100000
01000000
00000000
00000000
00010000
00000000
00100000
01000000
,
00000000
00000000
10000000
00000000
00010000
00100000
00000000
00000000
,
00010000
00000000
10000000
00100000
01000000
00000000
01010000
00000000
,
00010000
00011000
00001000
00000000
,
00002200
00003300
00002002
00000000
,
00000000
00000000
00000000
00003003
,
00001000
00000001
00001000
00000001
00001000
00000001
00001000
00000001
,
00001000
00000001
00001000
00000001
00001000
00000001
00001000
00000001
,
00001000
00000001
00001000
00000001
00001000
00000001
00001000
00000000
,
00000010
00000000
00000010
00000000
00000100
00001000
00010000
00100000
,
10000000
01000000
10010000
00010000
,
10000000
00010000
10000000
00200000
00000000
00000000
01300000
00000000
,
00010000
00200000
00000000
00000000
02300000
00000000
00000000
03020000
,
00000000
00031000
00011000
00000100
,
00000001
00000010
00000001
00000200
00000000
00000000
00001300
00000000
,
00000100
00000020
00000000
00000000
00002030
00000000
00000000
00003200
,
00000000
00000310
00001001
00001000
,
00000001
00001000
00000001
00000200
00000000
00000000
00000310
00000000
,
00001000
00000200
00000000
00000000
00000320
00000000
00000000
00002030
,
00000000
00013000
00011000
00100000
,
10000000
01000000
10000000
00200000
00000000
00000000
00310000
00000000
,
00100000
02000000
00000000
00000000
03020000
00000000
00000000
00230000
,
00000000
01300000
10010000
00200000
,
00000000
00320000
00000000
00000000
10030000
00000000
00010000
01000000
,
00000000
00000000
00002000
00000000
00000000
00023000
00000000
00000000
,
00030100
00000000
00001000
00000001
00000000
00000000
00002000
00000100
,
00003000
00000002
00000100
00000003
00000010
00000100
00000001
00001000
,
00000000
00000000
00000200
00010000
00000300
00002000
01000000
00003000
,
00010000
10000000
00100000
00000000
10000000
00000000
01000000
00100000
,
00010000
01000000
00010000
00000000
01000000
00000000
00001000
00000000
,
00010000
00000000
00000100
00001000
00000010
00000100
00000001
00000000
,
00000010
00000000
00001000
00000000
00010000
00000000
01000000
10000000
,
00100000
01000000
00010000
00000000
01000000
00000000
00001000
00000000
,
00010000
00000000
00000010
00001000
00000001
00000100
00000010
00000000
,
00000100
00000000
00001000
00000000
00000000
00010000
00000000
00100000
,
00000000
01000000
00010000
00100000
00000000
00000000
00110000
00000000
,
00000000
00001000
00000000
00000010
00000000
00000100
00001000
00000010
,
00000000
00000000
00001010
00000000
00000000
00010000
00000000
01000000
,
00000000
00100000
00010000
01000000
00000000
00000000
01010000
00000000
,
00000000
00001000
00000000
00000100
00000000
00000010
00001000
00000100
,
00000000
00000000
00001100
00000000
00000100
00000000
00000100
00010000
,
00000100
00010000
00000000
00010000
00001000
00000000
00010000
00001000
,
00010000
00001000
00000000
00001000
01000000
00000000
00001000
01000000
,
00001000
01000000
00000000
00010000
10000000
00000000
00010000
10000000
,
00010000
10000000
00000000
10000000
01000000
00000000
00200000
00010000
,
00300000
00002000
00010000
00003000
00000010
00001000
00000001
00000100
,
00000000
00000000
00000200
00001000
00000300
00020000
00001000
00030000
,
00100000
01000000
10000000
00020000
00000000
20030000
00000000
30020000
,
00000000
20030000
00000000
30010000
00000000
00110000
00000000
00001000
,
00000000
00011000
00000000
00000100
00000000
00001100
00000000
00000010
,
00000000
00000011
00000000
00000100
00000000
00001100
00000000
00010000
,
00000000
00011000
00000000
01000000
00000000
01000000
00100000
10000000
,
01000000
00100000
00010000
01000000
20000000
00000000
00000000
00000000
,
00000000
00000000
30000000
00000000
01000000
00010000
00000000
00000000
,
20020000
00000000
00000000
30030000
;

//---------------dance-double - ----------------
#NOTES:
     dance-double:
     :
     Hard:
     9:
     :
00000000
00000000
00000000
00000000
,
00000000
00000000
00000000
00000000
,
00000000
00000000
00000000
00000000
,
00000000
00000000
00000000
00001001
,
00000110
00000000
00001000
00010000
00100000
10000000
01000000
00100000
,
00010000
00000000
00101000
00000000
00011000
00000000
00001000
00000100
,
00000001
00000010
00000100
00001000
00000010
00000000
00010010
00000000
,
00101000
00000000
10000000
00000000
10000000
01000000
00010000
00000000
,
01000000
00000000
00010000
00001000
00000100
00000000
00001000
00000000
,
00000100
00000001
00000010
00000000
00001000
00000000
00000010
00001000
,
00010000
00000000
00001000
00000000
00010000
00100000
10000000
00000000
,
00100000
00000000
01000000
00010000
01010000
00000000
01001000
00000000
,
00010010
00001001
00000202
00000303
,
00002020
00003030
00022000
00000000
,
00000000
00000000
00000000
00033000
,
00010000
00001000
00010000
00001000
00010000
00001000
00010000
00001000
00010000
00001000
00010000
00001000
00010000
00001000
00010000
00001000
,
00010000
00001000
00010000
00001000
00010000
00001000
00010000
00001000
00010000
00001000
00010000
00001000
00010000
00001000
00010000
00001000
,
00010000
00001000
00010000
00001000
00010000
00001000
00010000
00001000
00010000
00001000
00010000
00001000
00010000
00000000
00000000
00000000
,
00010000
00000000
00001000
00000000
00010000
01000000
00100000
00010000
,
10000000
10100000
10010000
01000000
,
00001000
01000000
00001000
00100000
00010000
00100000
01000000
00000000
,
01100000
01000000
00100000
00100000
00001000
00001000
00001000
00010000
,
00010000
00010000
00000010
00000010
00001010
00000000
00010000
00000000
,
00001000
00100000
00010000
01000000
00100000
00001000
00100000
00000000
,
00110000
00100000
01000000
00000000
00010000
00000000
00100000
00010000
,
00001000
00000100
00000010
00000000
00001001
00000000
00000100
00000000
,
00010000
00000100
00010000
00000010
00001000
00000010
00000100
00000000
,
00000110
00000100
00000010
00000010
00010000
00010000
00010000
00001000
,
00001000
00001000
00100000
00100000
00110000
00000000
00001000
00000000
,
00010000
00000010
00001000
00000100
00000010
00010000
00000010
00000000
,
00001010
00000010
00000100
00000000
00001000
00000000
00000010
00001000
,
00010000
01000000
00100000
00000000
00100000
00000000
00010000
00010000
,
00000000
10000000
10000000
00000000
00010000
00010000
01000000
01000000
,
00000000
00000000
00001000
00001000
00000000
00010000
00010000
00000000
,
00000100
00000100
00001000
00001000
00000000
00000000
00000001
00000200
,
00000000
00000310
00002000
00000000
00003010
00000100
00001000
00020000
,
00000000
00030000
01000000
00200000
00000000
01300000
20000000
00000000
,
31000000
00100000
00010000
00000000
10000000
01000000
00100000
00010000
,
01000000
00001000
00010000
00000010
00000100
00001000
00010000
01000000
,
00100000
00001000
01000000
00001000
00010000
00000100
00001000
00000100
,
00010000
00001000
00100000
00010000
01000000
00001000
01000000
00100000
,
10000000
00010000
01000000
00001000
00100000
00001000
00010000
00000100
,
00010000
00000010
00001000
00000010
00010000
00000100
00001000
00000100
,
00010000
00001000
00100000
00010000
00000000
10000000
00000000
00010000
,
00000000
00100000
01000000
00010000
00000000
00000000
00010100
00000000
,
00000000
00000001
00000000
00001000
00000000
00000010
00000100
00001000
,
00000000
00000000
01001000
00000000
00000000
10100000
00000000
01100000
,
00000000
00100000
01000000
00010000
00000000
00000000
00011000
00000000
,
00000000
00001010
00000000
00000110
00000000
00000010
00000100
00001000
,
00000000
00000000
00011000
00000000
00001000
01000000
00010000
00100000
,
01000000
00100000
00000000
00001000
00010000
00000010
00001000
00000001
,
00000100
00001000
00000000
00010000
01000000
10000000
00010000
00100000
,
00001000
00010000
00000000
00001000
00000010
00000100
00001000
00000001
,
00000100
00001000
00000000
00010000
01000000
00100000
00010000
10000000
,
01000000
00010000
00001000
00000010
00000001
00000100
00000010
00010000
,
00001000
00100000
00010000
00100000
01000000
10000000
00010000
01000000
,
00100000
00010000
00001000
00000100
00000010
00000001
00001000
00000100
,
00000010
00001000
00000000
00000100
00010000
00001000
00100000
01000000
,
00010000
01000000
00100000
00010000
01000000
00001000
01000000
00010000
,
00100000
00001000
00100000
00010000
01000000
00001000
00010000
00000100
,
00001000
00000010
00000100
00001000
00010000
00100000
01000000
00010000
,
01000000
00001000
00010000
00000100
00020200
00000000
00000000
00000000
,
00000000
00000000
00030300
00000000
00020000
00002000
00000000
00033000
,
00011000
00000000
00000000
00000000
;
