#TITLE:Play My Game;
#ARTIST:Lightning;
#BANNER:Play My Game.png;
#BACKGROUND:Play My Game-bg.png;
#CDTITLE:./CDTITLES/DANCE DANCE REVOLUTION ULTRAMIX 2.PNG;
#MUSIC:Play My Game.ogg;
#SAMPLESTART:92.402;
#SAMPLELENGTH:15;
#DISPLAYBPM:140;
#BPMS:0=140.02;

//---------------dance-single - ----------------
#NOTES:
     dance-single:
     :
     Beginner:
     1:
     :
0000
0000
0000
0000
,
0000
0000
0000
0000
,
0000
0000
0000
0000
,
0000
0000
0000
0000
,
0000
0000
0000
0000
,
1000
0000
1000
0000
,
1000
0000
1000
0000
,
0010
0000
0010
0000
,
0010
0000
0010
0000
,
0001
0000
0100
0000
,
0001
0000
1000
0000
,
0010
0000
0100
0000
,
0001
0000
0010
0000
,
0100
0000
0100
0000
,
0001
0000
1000
0000
,
1000
0000
0001
0000
,
0010
0000
1000
0000
,
0100
0000
0100
0000
,
1000
0000
0000
0000
,
0010
0000
0000
0000
,
0100
0000
0100
0000
,
0001
0000
0001
0000
,
0100
0000
0000
0000
,
1000
0000
0000
0000
,
0010
0000
0010
0000
,
0100
0000
0100
0000
,
1001
0000
0000
0000
,
1001
0000
0000
0000
,
1001
0000
0000
0000
,
0001
0000
1000
0000
,
1001
0000
0000
0000
,
1001
0000
0000
0000
,
1001
0000
0000
0000
,
0001
0000
1000
0000
,
0010
0000
1000
0000
,
0010
0000
0100
0000
,
0001
0000
1000
0000
,
0010
0000
0010
0000
,
0001
0000
0000
1000
,
0000
0010
0000
0100
,
0000
0001
0000
0100
,
0000
1000
0000
1000
,
0000
0010
0000
1000
,
0000
0010
0000
1000
,
0000
0010
0000
1000
,
0000
0000
0100
0000
,
1000
0000
0100
0000
,
1000
0000
0100
0000
,
1000
0000
0100
0000
,
0110
0000
0010
0000
,
1000
0000
1000
0000
,
0001
0000
0001
0000
,
1000
0000
0010
0000
,
0100
0000
0010
0000
,
0001
0000
1000
0000
,
1000
0000
0001
0000
,
0100
0000
0010
0000
,
1000
0000
0001
0000
,
0010
0000
1000
0000
,
0100
0000
0001
0000
,
0010
0000
0001
0000
,
0001
0000
0001
0000
,
0001
0000
1000
0000
,
0001
0000
0100
0000
,
0010
0000
0000
0000
,
1000
0000
0100
0000
;

//---------------dance-single - ----------------
#NOTES:
     dance-single:
     :
     Easy:
     4:
     :
0000
0000
0000
0000
,
0000
0000
0000
0000
,
0000
0000
0000
0000
,
0000
0000
0000
0000
,
0000
0000
0000
0000
,
1000
0010
1000
0010
,
1000
0001
1000
0001
,
0010
0100
0010
0100
,
0010
0001
0010
0001
,
0001
0010
0100
1000
,
0001
0000
1000
1000
,
0010
0000
0100
0100
,
0001
0000
0010
0010
,
0100
1000
0100
1000
,
0001
0001
1000
0001
,
1000
1000
0001
1000
,
0010
0010
1000
0010
,
0100
0001
0100
0001
,
2000
0000
0000
3000
,
0010
0000
0000
0000
,
0100
0100
0100
0100
,
0001
1000
0001
1000
,
0200
0000
0000
0300
,
1000
0000
0000
0000
,
0010
0010
0010
0010
,
0100
0001
0100
0001
,
1001
0000
0000
0000
,
1001
0000
0000
0000
,
1001
0000
0000
0000
,
0001
0100
1000
0100
,
1001
0000
0000
0000
,
1001
0000
0000
0000
,
1001
0000
0000
0000
,
0001
1000
1000
1000
,
0010
0000
1000
1000
,
0010
0000
0100
0100
,
0001
0000
1000
1000
,
0010
0100
0010
0100
,
0001
0001
0000
1000
,
0010
0010
0000
0100
,
0001
0001
0000
0100
,
0001
1000
0001
1000
,
0001
0010
0100
1000
,
0001
0010
0100
1000
,
0001
0010
0100
1000
,
1001
0000
0100
0100
,
1000
0010
0100
0001
,
1000
0010
0100
0001
,
1000
0010
0100
0001
,
0110
0000
0010
0010
,
1000
0000
1000
0000
,
0001
0000
0001
0000
,
1000
0000
0010
0000
,
0100
0100
0010
0100
,
0001
0000
1000
0000
,
1000
0000
0001
0000
,
0100
0000
0010
0000
,
1000
1000
0001
1000
,
0010
0010
1000
0001
,
0100
0100
0001
1000
,
0010
1000
0001
0100
,
0001
0100
0001
0100
,
0001
0001
1000
1000
,
0001
0001
0100
0100
,
0020
0000
0000
0030
,
1000
0010
0100
0001
;

//---------------dance-single - ----------------
#NOTES:
     dance-single:
     :
     Medium:
     5:
     :
0000
0000
0000
0000
,
0000
0000
0000
0000
,
0000
0000
0000
0000
,
0000
0000
0000
0000
,
0000
0000
0000
0000
,
0002
0000
1000
1003
,
0012
0000
0000
0100
0100
0000
0003
0000
,
2010
0000
0000
0001
0001
0000
3000
0000
,
2100
0000
0000
0010
0010
0000
3000
0000
,
1001
0000
0110
0000
0010
1000
0100
0000
,
1000
0001
0000
1000
0001
0000
0000
0000
,
0100
0001
0000
0100
0001
0000
0000
0000
,
0100
0010
0000
0100
0010
0000
0000
0000
,
0010
1000
0010
0000
0101
0000
1100
0000
,
1000
0001
1000
0000
0001
0010
0100
0000
,
1000
0001
1000
0000
0010
0100
0001
0000
,
1000
0010
0000
1000
0010
0000
0000
0000
,
1010
0101
1001
0110
,
2000
0000
0000
3001
0010
0100
2000
0000
,
0002
0000
0000
3003
,
0000
0010
0000
1000
0200
0000
0300
0000
,
1000
0001
0110
0110
,
0020
0000
0000
1030
0001
0100
0020
0000
,
2000
0000
0000
3030
,
0000
1000
0000
0010
0200
0000
0000
0000
,
0300
0010
1000
0010
1000
0010
1000
1000
,
0002
0000
0000
0000
,
0203
0000
0000
0000
,
0320
0000
0000
0000
,
1030
0001
0100
0001
,
2000
0000
3002
0000
,
0023
0000
0230
0300
,
2002
0000
0000
0000
,
0000
0000
3003
1001
,
0010
0000
0100
0000
0001
1000
0001
1000
,
0010
0000
1000
0000
0001
0100
0001
0100
,
0010
0000
1000
0000
0100
0010
0100
0020
,
0000
0000
0000
0030
,
1000
0000
0010
0000
1000
0010
0100
0001
,
0010
0000
0100
0000
1000
0100
1000
0100
,
1000
0000
0001
0000
0100
0010
1000
0001
,
0200
0000
0000
0300
,
0001
1000
0000
0001
0100
0000
0000
0000
,
0010
0100
0000
0001
0010
0000
0000
0000
,
0100
1000
0000
0001
1000
0000
0000
0000
,
0000
0001
0010
0100
1000
0001
0010
0100
,
1000
0100
0001
0000
1000
0100
0001
0000
,
0001
0100
1000
0000
0001
0100
1000
0000
,
1000
0100
0010
0000
1000
0100
0010
0000
,
0000
0001
1000
0001
1000
0110
0110
0110
,
2000
3000
0110
0101
,
2200
0000
0000
3300
,
0000
0010
0000
0100
0100
0000
0000
0000
,
1000
0001
0010
0100
,
0220
0330
1001
0110
,
0020
0000
0000
0030
,
0000
0100
0000
0001
0100
0000
0000
0000
,
0000
0001
0010
0001
1000
0001
0100
0000
,
0010
1000
1000
0000
0001
1000
1000
0000
,
0010
0100
0100
0000
0001
0100
0100
0000
,
1000
0001
0001
0000
1000
0100
0100
0000
,
1000
0001
0000
0100
0010
0100
0010
0100
,
0010
1000
0100
0000
1000
0001
0001
0000
,
0001
1000
0100
0000
0010
0001
0001
0000
,
0220
0000
0000
0330
,
0001
0010
0100
1000
0010
0100
0001
1000
;

//---------------dance-single - ----------------
#NOTES:
     dance-single:
     :
     Hard:
     8:
     :
0000
0000
0000
0000
,
0000
0000
0000
0000
,
0000
0000
0000
0000
,
0000
0000
0000
0000
,
0000
0000
0000
0000
,
0000
1000
0010
0100
0001
0010
0100
0000
,
0000
0100
0000
0010
0010
0000
1000
0001
,
0000
0100
0000
0010
0010
0000
0001
1000
,
0000
0100
0000
0010
0010
0000
0010
0100
,
0000
0001
0010
0100
1000
0010
0100
0000
,
0020
0000
0030
1000
0100
0000
0100
0000
,
2000
0000
3000
0100
0010
0000
0010
0000
,
0020
0000
0030
0100
1000
0000
1000
0000
,
0000
0001
0010
0001
0010
0001
0010
0000
,
0010
0000
0000
0100
0000
0000
1000
0000
1100
0000
0000
0000
0101
0000
0000
0000
,
0100
0000
0000
0010
0000
0000
0100
0000
0101
0000
0000
0000
0110
0000
0000
0000
,
1000
0000
0000
0001
0000
0000
1000
0000
1001
0000
0000
0000
0110
0000
0000
0000
,
0000
1000
0010
0100
0001
0001
0001
0000
,
0220
0330
1100
0101
,
2002
0000
0000
3003
,
1000
0000
0000
0100
0000
0000
0010
0000
0010
0000
0000
0000
0000
0000
0000
0000
,
0100
0000
0000
0100
0000
0000
0010
0000
0001
0000
0010
0000
0100
0000
0000
0000
,
2200
3300
0011
1100
,
0022
0000
0000
0033
,
0001
0000
0000
0100
0100
0000
0000
0000
,
0020
0000
0030
0100
0001
0100
1000
0000
,
0200
0000
0000
0300
,
0002
0000
0000
0003
,
2000
0000
0000
3000
,
0100
0100
0010
0010
1000
1000
0001
0000
,
2000
3100
0020
0031
,
2000
3001
0200
0310
,
2002
0000
0000
3003
,
0110
0000
0000
0000
0000
0000
0000
0000
1000
0100
1000
0000
0001
0000
0000
0000
,
0001
0100
0000
0100
0001
0000
0001
1000
0000
1000
0001
0000
1000
0000
0100
0000
,
0100
1000
0000
1000
0100
0000
0100
1000
0000
1000
0010
0000
0010
0000
0100
0000
,
0100
0010
0000
0010
0100
0000
0100
0001
0000
0001
1000
0000
0100
0000
0100
0000
,
0000
1000
0100
1000
0100
1000
0100
0000
,
1000
0100
0000
0100
0010
0000
0010
0001
0000
0001
0010
0000
0010
0000
0010
0000
,
0001
0100
0000
0100
0010
0000
0010
1000
0000
1000
0100
0000
0100
0000
0100
0000
,
1000
0100
0000
0001
0100
0000
1000
0100
0000
0001
0100
0000
0100
0000
0100
0000
,
0000
0001
0100
0010
0100
0001
1000
0000
,
0002
0000
0003
1000
0100
0000
1100
0000
,
2000
0000
3000
0001
0100
0000
0101
0000
,
0002
0000
0003
1000
0001
0000
1001
0000
,
0000
0010
0010
0100
0001
0100
0001
0000
,
0200
0000
0300
0010
2000
0000
3000
0000
,
0002
0000
0003
0100
0020
0000
0030
0000
,
2000
0000
3000
0001
0200
0000
0300
0000
,
0000
0001
0100
0010
1000
0010
0100
0000
,
2100
0000
3000
0000
0001
0100
0001
0100
,
0002
0000
0000
0003
,
1000
0000
0000
0100
0000
0000
0100
0000
0100
0000
0000
0000
0000
0000
0000
0000
,
0000
1000
0100
0001
0100
1000
0010
0001
,
0010
0000
0000
0100
0100
1000
1000
0001
,
0002
0000
0000
0003
,
0100
0000
0000
0100
0000
0000
0010
0000
1000
0000
0000
0000
0000
0000
0000
0000
,
1001
1001
0000
1000
0100
0010
0001
0000
,
0001
0010
0000
0010
0001
0000
0000
0000
1000
0000
1000
0000
0100
0000
1000
0000
,
0000
0000
0000
0001
0001
0100
0001
0000
,
0100
0000
0010
1000
0000
1000
0100
0000
,
0000
1000
0100
0010
0001
0100
0010
0000
,
0100
0001
0000
0001
0100
0000
0000
0000
0010
0000
1000
0000
0010
0000
0100
0000
,
0000
0000
0000
0001
0100
0100
0010
0000
,
2002
0000
0000
3003
,
0000
0000
0001
0100
0001
0000
0100
0000
0010
0000
2000
0000
3001
0000
0100
0000
;

//---------------dance-double - ----------------
#NOTES:
     dance-double:
     :
     Beginner:
     2:
     :
00000000
00000000
00000000
00000000
,
00000000
00000000
00000000
00000000
,
00000000
00000000
00000000
00000000
,
00000000
00000000
00000000
00000000
,
00000000
00000000
00000000
00000000
,
00001000
00000000
00001000
00000000
,
00000001
00000000
00000100
00000000
,
00000010
00000000
00000001
00000000
,
00000100
00000000
00001000
00000000
,
00010000
00000000
00100000
00000000
,
10000000
00000000
10010000
00000000
,
00100000
00000000
01100000
00000000
,
00010000
00000000
01100000
00000000
,
00001000
00000000
00000110
00000000
,
00000001
00000000
00001001
00000000
,
00000010
00000000
00000110
00000000
,
00001000
00000000
00000110
00000000
,
00010000
00000000
01100000
00000000
,
00010000
00000000
10000000
00000000
,
00010000
00000000
10000000
00000000
,
01000000
00000000
00001000
00000000
,
00001000
00000000
00000001
00000000
,
00001000
00000000
00000001
00000000
,
00001000
00000000
00000001
00000000
,
00000100
00000000
00010000
00000000
,
00010000
00000000
10000000
00000000
,
01100000
00000000
00000000
00000000
,
00010000
00000000
00000000
00000000
,
00001000
00000000
00010000
00000000
,
00011000
00000000
00000000
00000000
,
00001000
00000000
00000010
00000000
,
00000001
00000000
00001000
00000000
,
00001001
00000000
00000000
00000000
,
00000110
00000000
00000000
00000000
,
00000001
00000000
00000000
00000010
,
00000000
00010000
00000000
00010000
,
00000000
00100000
00000000
10000000
,
00000000
00100000
00000000
00100000
,
00000000
00001000
00000000
00001000
,
00000000
00000010
00000000
00001000
,
00000000
00001000
00000000
00010000
,
00000000
00010000
00000000
00011000
,
00000000
00000010
00000000
00000000
,
00000010
00000000
00001001
00000000
,
00000001
00000000
00000110
00000000
,
00000100
00000000
00000110
00000000
,
00010000
00000000
01100000
00000000
,
01000000
00000000
01100000
00000000
,
10000000
00000000
10010000
00000000
,
00100000
00000000
10010000
00000000
,
00010000
00000000
10000000
00000000
,
00010000
00000000
10000000
00000000
,
01000000
00000000
00100000
00000000
,
00010000
00000000
00001000
00000000
,
00001000
00000000
00000001
00000000
,
00001000
00000000
00000001
00000000
,
00000100
00000000
00000010
00000000
,
00001000
00000000
00010000
00000000
,
00010000
00000000
00010000
00000000
,
00001000
00000000
00001000
00000000
,
00010000
00000000
00010000
00000000
,
00001000
00000000
00001000
00000000
,
00001000
00000000
00001000
00000000
,
00010000
00000000
00010000
00000000
,
00011000
00000000
00000000
00000000
,
00011000
00000000
00000000
00000000
;

//---------------dance-double - ----------------
#NOTES:
     dance-double:
     :
     Easy:
     4:
     :
00000000
00000000
00000000
00000000
,
00000000
00000000
00000000
00000000
,
00000000
00000000
00000000
00000000
,
00000000
00000000
00000000
00000000
,
00000000
00000000
00000000
00000000
,
00001000
00000010
00001000
00000001
,
00000001
00000010
00000100
00001000
,
00000010
00000100
00000001
00001000
,
00000100
00010000
00001000
00100000
,
00010000
10000000
00100000
01000000
,
10000000
00010000
10010000
00000000
,
00100000
01000000
01100000
00000000
,
00010000
01000000
01010000
00000000
,
00001000
00000100
00001100
00000000
,
00000001
00001000
00001001
00000000
,
00000010
00000100
00000110
00000000
,
00001000
00000100
00001100
00000000
,
00010000
01000000
01010000
00000000
,
00010000
01000000
10000000
00100000
,
00020000
10000000
10000000
10030000
,
01000000
00010000
00001000
00010000
,
00001000
00000100
00000001
00000100
,
00001000
00000100
00000001
00000010
,
00002000
00000001
00000001
00003001
,
00000100
00001000
00010000
00001000
,
00010000
01000000
10000000
01000000
,
02200000
00000000
00000000
03300000
,
00020000
00000000
00000000
00030000
,
00002000
00003000
00020000
00030000
,
00022000
00000000
00000000
00033000
,
00002000
00003000
00000020
00000030
,
00000002
00000003
00002000
00003000
,
00002002
00000000
00000000
00003003
,
00000110
00000000
00000000
00000000
,
00000001
00000100
00000000
00000010
,
00001000
00010000
00000000
00010000
,
01000000
00100000
00000000
10000000
,
01000000
00100000
00000000
00100000
,
00010000
00001000
00000000
00001000
,
00000100
00000010
00000000
00001000
,
00010000
00001000
00000000
00010000
,
00001000
00010000
00000000
00011000
,
00001000
00000010
00001010
00000000
,
00000010
00000001
00000011
00000000
,
00000001
00000100
00000101
00000000
,
00000100
00001000
00001100
00000000
,
00010000
01000000
01010000
00000000
,
01000000
10000000
11000000
00000000
,
10000000
00100000
10100000
00000000
,
00100000
00010000
00110000
00000000
,
00010000
00100000
10000000
01000000
,
00020000
10000000
10000000
10030000
,
01000000
00010000
00100000
00001000
,
00010000
00000100
00001000
00000010
,
00001000
00000010
00000001
00000100
,
00002000
00000001
00000001
00003001
,
00000100
00001000
00000010
00010000
,
00001000
01000000
00010000
00100000
,
00010000
00001000
00010000
00000000
,
00001000
00010000
00001000
00000000
,
00010000
01000000
00010000
00000000
,
00001000
00000100
00001000
00000000
,
00001000
00000010
00001000
00000000
,
00010000
00100000
00010000
00000000
,
00022000
00000000
00000000
00033000
,
00022000
00000000
00000000
00000000
00000000
00000000
00000000
00033000
;

//---------------dance-double - ----------------
#NOTES:
     dance-double:
     :
     Medium:
     5:
     :
00000000
00000000
00000000
00000000
,
00000000
00000000
00000000
00000000
,
00000000
00000000
00000000
00000000
,
00000000
00000000
00000000
00000000
,
00000000
00000000
00000000
00000000
,
20000000
00000000
00010000
30010000
,
00010000
10000000
00010000
01100000
,
10000000
00010000
10000000
01100000
,
01000000
00010000
00001000
00011000
,
00010000
00001000
00000100
00001001
,
00001000
00000001
00001000
00000110
,
00000001
00001000
00000001
00000110
,
00000100
00001000
00010000
00011000
,
00001000
00010000
01000000
10010000
,
01000000
00010000
00001000
00010000
,
00010000
00011000
00001000
00011000
,
00001000
00010000
00001000
00000100
,
00001000
00011000
00010000
00011000
,
00010000
00000000
00001000
00000000
00010000
00010000
00001000
00000000
,
00001000
00000000
00010000
00000000
00001000
00001000
00010000
00000000
,
00001000
00000000
00000010
00000000
00001000
00001000
00000010
00000000
,
00000001
00000000
00000100
00000000
00001000
00001000
00000100
00000000
,
00010000
00000000
00001000
00000000
00010000
00010000
00001000
00000000
,
00010000
00000000
00100000
00000000
00010000
00010000
00100000
00000000
,
10000000
00000000
01000000
00000000
00010000
00010000
01000000
00000000
,
00001000
00010000
00001000
00010000
,
00022000
00000000
00000000
00033000
,
00020000
00000000
00000000
00030000
,
02000000
00000000
00000000
03000000
,
00020000
00000000
00000000
00030000
,
00002000
00000000
00000000
00003000
,
00000200
00000000
00000000
00000300
,
00002000
00000000
00000000
00003000
,
00020000
00000000
00000000
00030000
,
00010000
10000000
01000000
00100000
,
00010000
10000000
00000000
10010000
,
01000000
00010000
00001000
00000100
,
00001000
00000001
00000000
00001001
,
00001000
00000001
00000100
00000010
,
00001000
00000001
00000000
00001001
,
00000100
00001000
00010000
01000000
,
00010000
10000000
00000000
10010000
,
10100000
01000000
01010000
00100000
,
00110000
01000000
11000000
00100000
,
01000000
00010000
00001000
00010000
,
00001000
00101000
00010000
00010010
,
00000011
00000100
00001100
00000010
,
00001010
00000100
00000101
00000010
,
00000100
00001000
00010000
00001000
,
00010000
00010010
00001000
00101000
,
00100000
00010000
01000000
10000000
,
01000000
00010000
01000000
10000000
,
01000000
01010000
00010000
00011000
,
00001000
00011000
00010000
00010010
,
00000010
00001000
00000100
00000001
,
00000100
00001000
00000100
00000001
,
00000100
00001100
00001000
00011000
,
00010000
00011000
00001000
00101000
,
00010000
00000000
00001000
00000000
00010000
00010000
00001000
00000000
,
00001000
00000000
00010000
00000000
00001000
00001000
00010000
00000000
,
00001000
00000000
00000010
00000000
00001000
00001000
00000010
00000000
,
00000001
00000000
00000100
00000000
00001000
00001000
00000100
00000000
,
00010000
00000000
00001000
00000000
00010000
00010000
00001000
00000000
,
00010000
00000000
00100000
00000000
00010000
00010000
00100000
00000000
,
10000000
00000000
01000000
00000000
00010000
00010000
01000000
00000000
,
00001000
00000000
00010000
00000000
00001000
00000000
00010000
00001000
;

//---------------dance-double - ----------------
#NOTES:
     dance-double:
     :
     Hard:
     7:
     :
00000000
00000000
00000000
00000000
,
00000000
00000000
00000000
00000000
,
00000000
00000000
00000000
00000000
,
00000000
00000000
00000000
00000000
,
00000000
00000000
00000000
00000000
,
00000000
00010000
01000000
00100000
10000000
01000000
00100000
00000000
,
00000000
10010000
00000000
00100000
01000000
00000000
00100000
00000000
,
00000000
01100000
00000000
00010000
10000000
00000000
00010000
00000000
,
00000000
11000000
00000000
01000000
00010000
00000000
01000000
00000000
,
00000000
01010000
00000000
00010000
00001000
00000000
00010000
00000000
,
00000000
00001100
00000000
00000100
00000001
00000000
00000100
00000000
,
00000000
00000101
00000000
00000001
00000100
00000000
00000001
00000000
,
00000000
00000110
00000000
00001000
00000001
00000000
00001000
00000000
,
00000000
00001001
00000000
00000100
00000010
00000000
00000100
00000000
,
00000000
00000100
00000000
00001000
00010000
00000000
00010000
00000000
,
00000000
01000000
00000000
00010000
00001000
00000000
00010000
00000000
,
00000000
00100000
00000000
00010000
00001000
00000000
00001000
00000000
,
00000000
00000010
00000000
00001000
00010000
00000000
00001000
00000000
,
00020000
00000000
00030000
00001000
00000100
00000001
00000010
00001000
,
00000020
00000001
00000100
00001030
,
00000001
00000101
00001000
00011000
,
01000000
01010000
00010000
00011000
,
00002000
00000000
00003000
00010000
01000000
10000000
00100000
00010000
,
00200000
10000000
01000000
00310000
,
10000000
11000000
00010000
00011000
,
00000100
00001100
00001000
00011000
,
00022000
00000000
00000000
00003000
,
00200000
00000000
00000000
00300000
,
00002000
00000000
00000000
00030000
,
00000020
00000000
00000000
00000030
,
00020000
00000000
00000000
00003000
,
02000000
00000000
00000000
03000000
,
00002000
00000000
00000000
00030000
,
00000200
00000000
00000000
00003300
,
00010000
00000000
00000000
01000000
00000000
00000000
00010000
00000000
00000000
01000000
00000000
00000000
10000000
00000000
10000000
00000000
,
00100000
00000000
00000000
00010000
00000000
00000000
00100000
00000000
00000000
00010000
00000000
00000000
00001000
00000000
00001000
00000000
,
00000100
00000000
00000000
00000001
00000000
00000000
00000100
00000000
00000000
00000001
00000000
00000000
00000010
00000000
00000010
00000000
,
00001000
00000000
00000000
00010000
00000000
00000000
00001000
00000000
00000000
00010000
00000000
00000000
01000000
00000000
01000000
00000000
,
10000000
00000000
00000000
00010000
00000000
00000000
10000000
00000000
00000000
01000000
00000000
00000000
00010000
00000000
00010000
00000000
,
00001000
00000000
00000000
00000100
00000000
00000000
00000001
00000000
00000000
00001000
00000000
00000000
00000001
00000000
00000001
00000000
,
00000100
00000000
00000000
00001000
00000000
00000000
00010000
00000000
00000000
00001000
00000000
00000000
00010000
00000000
00010000
00000000
,
00100000
00000000
00000000
00010000
00000000
00000000
00001000
00000000
00000000
00010000
00000000
00000000
00001000
00000000
00001000
00000000
,
00010000
00001000
00000000
00000100
00000000
00000001
00000001
00000000
,
00000001
00000010
00000000
00001000
00000000
00000010
00000010
00000000
,
00000001
00000100
00000000
00001000
00000000
00010000
00010000
00000000
,
00001000
00010000
00000000
01000000
00000000
10000000
10000000
00000000
,
10000000
00100000
00000000
00010000
00000000
00100000
00100000
00000000
,
10000000
01000000
00000000
00010000
00000000
00001000
00001000
00000000
,
00010000
00001000
00000000
00000100
00000000
00000001
00000001
00000000
,
00000001
00000010
00000000
00001000
00000000
00000010
00000010
00000000
,
00000002
00000000
00000003
00001000
00000010
00000100
00000001
00001000
,
00000200
00000001
00000010
00001300
,
00001100
00011000
00011000
01010000
,
00010000
01000000
00100000
10000000
,
20000000
00000000
30000000
00010000
00100000
01000000
10000000
00010000
,
02000000
10000000
00100000
03010000
,
01010000
00011000
00011000
00001100
,
00001000
00000100
00000010
00000001
,
00001000
00000000
00000000
00000100
00000000
00000000
00001000
00000000
00000000
00000100
00000000
00000000
00000001
00000000
00000001
00000000
,
00000010
00000000
00000000
00001000
00000000
00000000
00000010
00000000
00000000
00001000
00000000
00000000
00010000
00000000
00010000
00000000
,
01000000
00000000
00000000
10000000
00000000
00000000
01000000
00000000
00000000
10000000
00000000
00000000
00100000
00000000
00100000
00000000
,
00010000
00000000
00000000
00001000
00000000
00000000
00010000
00000000
00000000
00001000
00000000
00000000
00000100
00000000
00000100
00000000
,
00000001
00000000
00000000
00001000
00000000
00000000
00000001
00000000
00000000
00000100
00000000
00000000
00001000
00000000
00001000
00000000
,
00010000
00000000
00000000
01000000
00000000
00000000
10000000
00000000
00000000
00010000
00000000
00000000
10000000
00000000
10000000
00000000
,
01000000
00000000
00000000
00010000
00000000
00000000
00001000
00000000
00000000
00010000
00000000
00000000
00001000
00000000
00001000
00000000
,
00000010
00000000
00000000
00001000
00000000
00000000
00010000
00000000
00000000
00001000
00000000
00000000
00010000
00000000
00010000
00000000
;
