#TITLE:Open the P.A.;
#ARTIST:Akira Ishihara;
#BANNER:Open the PA.png;
#BACKGROUND:Open the PA-bg.png;
#CDTITLE:./CDTITLES/Song Pack 11.PNG;
#MUSIC:Open the PA.ogg;
#SAMPLESTART:22.435;
#SAMPLELENGTH:15;
#DISPLAYBPM:139;
#BPMS:0=139.004;

//---------------dance-single - ----------------
#NOTES:
     dance-single:
     :
     Beginner:
     2:
     :
0000
0000
0000
0000
,
0000
0000
0000
0000
,
0000
0000
0000
0000
,
0000
0000
0000
0000
,
0000
0000
0000
0000
,
1000
0000
1000
0000
,
0001
0000
0001
0000
,
0010
0000
0010
0000
,
0100
0000
0100
0000
,
1000
0000
1000
0000
,
0001
0000
0001
0000
,
1000
0000
1000
0000
,
0001
0000
0001
0000
,
0010
0000
0010
0000
,
0001
0000
0001
0000
,
0100
0000
0100
0000
,
1001
0000
1001
0000
,
0001
0000
0110
0000
,
1000
0000
0110
0000
,
0010
0000
1001
0000
,
1000
0000
1001
0000
,
1000
0000
0100
0000
,
0010
0000
0100
0000
,
0100
0000
0001
0000
,
0100
0000
1000
0000
,
0010
0000
0010
0000
,
0010
0000
0010
0000
,
0010
0000
0010
0000
,
1001
0000
0000
0000
,
0100
0000
0010
0000
,
0001
0000
0100
0000
,
1000
0000
0001
0000
,
0010
0000
0100
0000
,
0001
0000
1000
0000
,
0001
0000
1000
0000
,
0100
0000
0001
0000
,
1001
0000
0000
0000
,
1000
0000
0001
0000
,
1000
0000
0100
0000
,
0100
0000
0010
0000
,
1000
0000
0100
0000
,
0010
0000
0010
0000
,
0001
0000
1000
0000
,
0100
0000
0010
0000
,
1001
0000
0000
0000
,
0010
0000
1000
0000
,
0100
0000
1000
0000
,
0010
0000
0010
0000
,
0100
0000
0100
0000
,
0010
0000
1000
0000
,
1000
0000
0010
0000
,
0110
0000
1001
0000
,
1001
0000
0000
0000
;

//---------------dance-single - ----------------
#NOTES:
     dance-single:
     :
     Easy:
     4:
     :
0000
0000
0000
0000
,
0000
0000
0000
0000
,
0000
0000
0000
0000
,
0000
0000
0000
0000
,
0000
0000
0000
0000
,
1000
0000
1000
0000
,
0001
0000
0001
0000
,
0010
0000
0010
0000
,
0100
0000
0100
0000
,
1000
0100
1000
0000
,
0001
0100
0001
0000
,
1000
0010
1000
0000
,
0001
0010
0001
0000
,
0010
0110
0010
0000
,
0001
0011
0001
0000
,
0100
0110
0100
0000
,
1001
1001
2002
3003
,
0001
0100
0110
0000
,
1000
0100
0110
0000
,
0010
0001
0011
0000
,
1000
0010
1010
0000
,
1000
0001
0100
0110
,
0010
1000
0100
0110
,
0100
0010
0001
1001
,
0100
0010
1000
1001
,
0010
0100
0010
1100
,
0010
0001
0010
0101
,
0010
1000
0010
1000
,
2002
0000
0000
3003
,
0200
0300
0020
0030
,
0002
0003
0200
0300
,
2000
3000
0002
0003
,
0020
0030
0200
0300
,
0002
0103
2000
3100
,
0002
0013
2000
3010
,
0200
1300
0002
0103
,
2002
0000
0000
3003
,
1000
0100
0001
0100
,
1000
0001
0100
1000
,
0100
0001
0010
0100
,
1000
0010
0100
0001
,
0010
1001
0010
0110
,
0001
0101
1000
1010
,
0100
1100
0010
0110
,
2002
0000
0000
3003
,
0010
0100
1000
0001
,
0100
0010
1000
0100
,
0010
1000
0010
0001
,
0100
0010
0100
0001
,
0010
0100
1000
0010
,
1000
0100
0010
0011
,
0101
1100
1010
0110
,
2002
0000
3003
0000
;

//---------------dance-single - ----------------
#NOTES:
     dance-single:
     :
     Medium:
     5:
     :
0000
0000
0000
0000
,
0000
0000
0000
0000
,
0000
0000
0000
0000
,
0000
0000
0000
0000
,
0000
0000
0000
0000
,
0000
0001
0000
1000
0000
0001
0000
1000
,
0000
0100
0000
0010
0000
0100
0000
0010
,
0000
0001
0000
0010
0000
0001
0000
1000
,
0000
0010
0000
1000
0000
0010
0000
2000
,
0000
3100
0000
1000
0000
0100
0000
0020
,
0000
0031
0000
0010
0000
0001
0000
0200
,
0000
0310
0000
0100
0000
0010
0000
2000
,
0000
3010
0000
1000
0000
0010
0000
2000
,
0000
3010
0000
1010
0000
0100
0000
0002
,
0000
0013
0000
0011
0000
0010
0000
0200
,
0000
1300
0000
1100
0000
0001
0000
0010
,
0001
1000
0000
0001
0100
0010
0000
1000
,
0010
0000
0100
0000
0001
0010
0100
0000
,
1000
0000
0010
0000
1000
0100
0010
0000
,
0001
0000
0100
0000
1000
0100
0001
0000
,
0010
0000
0100
0000
1000
0010
0100
0000
,
0001
0000
0010
0000
0100
0010
0001
0000
,
0010
0000
0100
0000
0010
0001
1000
0000
,
0010
0000
0100
0000
0001
0010
0100
0000
,
1000
0000
0010
0000
0001
0010
1000
0000
,
0001
0000
0100
0000
1000
0100
0010
0000
,
0001
0000
0100
0000
1000
0100
0010
0000
,
0001
0010
1000
0100
,
2002
0000
0000
3003
,
0001
0000
0000
1000
0000
0000
2000
0000
0000
3000
0000
0010
0000
0000
0020
0000
,
0000
0030
0000
0001
0000
0000
0002
0000
0000
0003
0000
0100
0000
0000
0200
0000
,
0000
0300
0000
1000
0000
0000
2000
0000
0000
3000
0000
0001
0000
0000
0002
0000
,
0000
0003
0000
0010
0000
0000
0020
0000
0000
0030
0000
0100
0000
0000
0200
0000
,
0000
0300
0000
0001
0000
0000
0002
0000
0000
0003
0000
1000
0000
0000
2000
0000
,
0000
3000
0000
0100
0000
0000
0200
0000
0000
0300
0000
0001
0000
0000
0002
0000
,
0000
0003
0000
1000
0000
0000
2000
0000
0000
3000
0000
0010
0000
0000
0010
0000
,
0220
0000
0000
0330
,
1000
0001
0000
0100
0000
1000
0000
0100
,
0010
1000
0000
0001
0000
1000
0000
0001
,
0010
0100
0000
0010
0000
0100
0000
0010
,
0100
1000
0000
0001
0000
1000
0000
0010
,
1000
0001
0000
1000
0000
0001
0000
1000
,
0100
0010
0000
0100
0000
0010
0000
0001
,
0010
0100
0000
1000
0000
0001
0000
1000
,
1001
0000
0000
0001
0000
0000
1000
0000
0000
0000
0000
0010
0000
0000
0100
0000
,
0010
1000
0010
0000
0100
0000
0001
0000
,
0010
0100
0010
0000
0001
0000
1000
0000
,
0010
1000
0010
0000
0100
0000
0001
0000
,
1000
0001
1000
0000
0010
0000
0100
0010
,
0110
0100
0000
0001
0000
0010
0000
1000
,
0000
0001
0000
0100
0000
1000
0000
1010
,
0000
0101
0000
0011
0000
1100
0000
1001
,
2002
0000
3003
0000
;

//---------------dance-single - ----------------
#NOTES:
     dance-single:
     :
     Hard:
     8:
     :
0000
0000
0000
0000
,
0000
0000
0000
0000
,
0000
0000
0000
0000
,
0000
0000
0000
0000
,
0000
0000
0000
0000
,
0000
1000
0000
0100
0000
1000
0000
0001
,
0000
0100
0000
0001
0000
1000
0100
1000
,
0000
0001
0000
0100
0000
0001
0000
1000
,
0000
0100
0000
1000
0000
0001
0100
0001
,
0000
1000
0000
0100
0000
1000
0001
0200
,
0000
0301
0000
0100
0000
0001
1000
0200
,
0000
1300
0000
0001
0000
0010
0001
2000
,
0000
3010
0000
1000
0000
0001
1000
0010
,
0100
0001
1000
0000
0001
1000
0100
0000
,
1000
0001
0010
0000
0001
1000
0010
0000
,
0100
0001
0010
0000
0100
1000
0010
0000
,
1000
0000
0010
0100
0010
0000
1000
0001
1000
0000
0001
0100
0001
1000
0001
0100
,
0001
0000
0000
1000
0001
0000
0100
0000
0000
0000
0000
0001
1000
0000
0100
0000
,
0000
0000
0000
1000
0001
0000
0010
0000
0000
0000
0000
0001
1000
0000
0010
0000
,
0000
0000
0000
0100
0001
0000
0010
0000
0000
0000
0000
0100
1000
0000
0010
0000
,
0000
0000
0000
0100
0010
0000
1000
0000
0000
0000
0000
0100
0010
0000
0001
0000
,
1000
0001
0010
0000
0100
1000
0001
0000
,
1000
0001
0100
0001
0010
0100
1000
0000
,
0001
0100
0010
0000
1000
0100
0010
0000
,
0001
0100
0010
1000
0010
0100
1000
0000
,
0100
0001
0010
0000
0100
1000
0010
0000
,
0001
0010
1000
0100
0010
0001
1000
0000
,
0010
0100
0001
0000
0010
0100
1000
0000
,
2002
0000
0000
3003
,
0100
0000
0000
0010
0000
0000
0010
0000
0001
0000
0000
1000
0000
0000
1000
0000
,
0010
0000
0000
0100
0000
0000
0100
0000
0001
0000
0000
0010
0000
0000
0010
0000
,
0100
0000
0000
1000
0000
0000
1000
0000
0001
0000
0000
0100
0000
0000
0100
0000
,
1000
0000
0000
0100
0000
0000
0100
0000
0001
0000
0000
0010
0000
0000
0010
0000
,
0100
0000
0000
1001
0000
0000
1001
0000
0010
0000
0000
1010
0000
0000
1010
0000
,
0100
0000
0000
0101
0000
0000
0101
0000
0010
0000
0000
0110
0000
0000
0110
0000
,
0001
0000
0000
0011
0000
0000
0011
0000
0100
0000
0000
1001
0000
0000
1001
0000
,
2002
0000
0000
3003
,
1000
0010
0100
0001
1000
0100
1000
0000
,
0010
0001
1000
0001
0010
0100
0010
0000
,
1000
0001
0100
0010
1000
0001
1000
0000
,
0100
1000
0100
0010
0001
1000
0001
0000
,
0100
0010
1000
0100
0010
0001
1000
0000
,
0100
1000
0010
0100
0010
1000
0001
0000
,
0010
0100
1000
0010
0100
0001
1001
0100
,
1001
0000
0000
0100
0000
0000
0010
0000
0000
0000
0000
0100
0000
0000
0010
0000
,
0001
0100
0010
1000
0001
0010
0001
0000
,
0100
1000
0001
1000
0100
0010
0100
0000
,
0001
1000
0010
0100
0001
1000
0001
0000
,
0010
0001
0010
0100
1000
0001
1000
1001
,
1001
0100
0000
1000
0000
0100
0000
0001
,
0100
1000
0000
0001
0000
0100
0000
1000
,
0100
0001
0000
1000
0001
1000
0010
0110
,
0220
0000
0330
0000
;

//---------------dance-double - ----------------
#NOTES:
     dance-double:
     :
     Beginner:
     2:
     :
00000000
00000000
00000000
00000000
,
00000000
00000000
00000000
00000000
,
00000000
00000000
00000000
00000000
,
00000000
00000000
00000000
00000000
,
00000000
00000000
00000000
00000000
,
10000000
00000000
10000000
00000000
,
00010000
00000000
00010000
00000000
,
00100000
00000000
00100000
00000000
,
00001000
00000000
00001000
00000000
,
00010000
00000000
00010000
00000000
,
00001000
00000000
00001000
00000000
,
00000100
00000000
00000100
00000000
,
00000001
00000000
00000001
00000000
,
00000100
00000000
00000100
00000000
,
00010000
00000000
00010000
00000000
,
01000000
00000000
01000000
00000000
,
10010000
00000000
10010000
00000000
,
00010000
00000000
01100000
00000000
,
10000000
00000000
01100000
00000000
,
00100000
00000000
00101000
00000000
,
00001000
00000000
00011000
00000000
,
00000100
00000000
00010100
00000000
,
00001000
00000000
00000100
00000000
,
00001000
00000000
00001000
00000000
,
00010000
00000000
00010000
00000000
,
01000000
00000000
01000000
00000000
,
10000000
00000000
10000000
00000000
,
00010000
00000000
00010000
00000000
,
10010000
00000000
00000000
00000000
,
01000000
00000000
00100000
00000000
,
00010000
00000000
00001000
00000000
,
00000100
00000000
00000001
00000000
,
00000010
00000000
00000100
00000000
,
00001000
00000000
00000010
00000000
,
00010000
00000000
10000000
00000000
,
01000000
00000000
01000000
00000000
,
10010000
00000000
00000000
00000000
,
10000000
00000000
00010000
00000000
,
10000000
00000000
01000000
00000000
,
00010000
00000000
00001000
00000000
,
00000100
00000000
00000010
00000000
,
00001000
00000000
00000100
00000000
,
00010000
00000000
10000000
00000000
,
00010000
00000000
00001000
00000000
,
00011000
00000000
00000000
00000000
,
00010000
00000000
10000000
00000000
,
01000000
00000000
00010000
00000000
,
00000100
00000000
00000100
00000000
,
00001000
00000000
00000010
00000000
,
00010000
00000000
10000000
00000000
,
10000000
00000000
00100000
00000000
,
01100000
00000000
10010000
00000000
,
00011000
00000000
00000000
00000000
;

//---------------dance-double - ----------------
#NOTES:
     dance-double:
     :
     Easy:
     4:
     :
00000000
00000000
00000000
00000000
,
00000000
00000000
00000000
00000000
,
00000000
00000000
00000000
00000000
,
00000000
00000000
00000000
00000000
,
00000000
00000000
00000000
00000000
,
10000000
00000000
10000000
00000000
,
00010000
00000000
00010000
00000000
,
00100000
00000000
00100000
00000000
,
00001000
00000000
00001000
00000000
,
00010000
00001000
00010000
00000000
,
00001000
00000100
00001000
00000000
,
00000100
00000001
00000100
00000000
,
00000001
00000010
00000001
00000000
,
00000100
00001100
00000100
00000000
,
00010000
00011000
00010000
00000000
,
01000000
01010000
01000000
00000000
,
10010000
10010000
20020000
30030000
,
00010000
00010000
01100000
00000000
,
10000000
10000000
01100000
00000000
,
00100000
00100000
00101000
00000000
,
00001000
00001000
00011000
00000000
,
00000100
00000100
00010100
00001000
,
00001000
00000010
00000100
00000101
,
00001000
00000100
00001000
00001100
,
00010000
00001000
00010000
00011000
,
01000000
00010000
01000000
01010000
,
10000000
00100000
10000000
10100000
,
00010000
10000000
00010000
10000000
,
20020000
00000000
00000000
30030000
,
02000000
03000000
00200000
00300000
,
00020000
00030000
00002000
00003000
,
00000200
00000300
00000002
00000003
,
00000020
00000030
00000200
00000300
,
00002000
00003100
00000020
00001030
,
00020000
00130000
20000000
30100000
,
02000000
13000000
02000000
03010000
,
20020000
00000000
00000000
30030000
,
10000000
01000000
00010000
01000000
,
10000000
00010000
01000000
00001000
,
00010000
00000100
00001000
00000010
,
00000100
00000001
00000010
00000100
,
00001000
00000011
00000100
00011000
,
00010000
01010000
10000000
10100000
,
00010000
01010000
00001000
00011000
,
00022000
00000000
00000000
00033000
,
00010000
01000000
10000000
00010000
,
01000000
00100000
00010000
00001000
,
00000100
00000010
00000100
00000001
,
00001000
00000100
00000010
00001000
,
00010000
01000000
10000000
00100000
,
10000000
01000000
00100000
00110000
,
01010000
01100000
00110000
00011000
,
00022000
00000000
00033000
00000000
;

//---------------dance-double - ----------------
#NOTES:
     dance-double:
     :
     Medium:
     5:
     :
00000000
00000000
00000000
00000000
,
00000000
00000000
00000000
00000000
,
00000000
00000000
00000000
00000000
,
00000000
00000000
00000000
00000000
,
00000000
00000000
00000000
00000000
,
00000000
10000000
00000000
00010000
00000000
10000000
00000000
00010000
,
00000000
00100000
00000000
01000000
00000000
00100000
00000000
01000000
,
00000000
00010000
00000000
01000000
00000000
00010000
00000000
00001000
,
00000000
00000100
00000000
00001000
00000000
00000100
00000000
00000001
,
00000000
00000010
00000000
00000001
00000000
00000010
00000000
00000002
,
00000000
00000103
00000000
00001000
00000000
00010000
00000000
00002000
,
00000000
00013000
00000000
01000000
00000000
10000000
00000000
00020000
,
00000000
00130000
00000000
01000000
00000000
00010000
00000000
00002000
,
00000000
00003100
00000000
00000101
00000000
00000010
00000000
00000200
,
00000000
00001300
00000000
00011000
00000000
01000000
00000000
20000000
,
00000000
31000000
00000000
00110000
00000000
00010000
00000000
00100000
,
00001000
00010000
00100000
00010000
00001000
00000100
00001000
00010000
,
00000100
00000000
00001000
00000000
00000001
00000100
00001000
00000000
,
00000100
00000000
00000001
00000000
00000100
00001000
00010000
00000000
,
00001000
00000000
00010000
00000000
00001000
00010000
01000000
00000000
,
10000000
00000000
00100000
00000000
01000000
00010000
00100000
00000000
,
00001000
00000000
00010000
00000000
00001000
00000010
00000100
00000000
,
00001000
00000000
00000010
00000000
00000100
00001000
00010000
00000000
,
00001000
00000000
00100000
00000000
00010000
10000000
01000000
00000000
,
00100000
00000000
01000000
00000000
00010000
00001000
00000100
00000000
,
00000010
00000000
00001000
00000000
00000001
00001000
00000100
00000000
,
00000010
00000000
00001000
00000000
00010000
00100000
01000000
00000000
,
10000000
01000000
00100000
00010000
,
00022000
00000000
00000000
00033000
,
00001000
00000000
00000000
00010000
00000000
00000000
00020000
00000000
00000000
00030000
00000000
01000000
00000000
00000000
02000000
00000000
,
00000000
03000000
00000000
10000000
00000000
00000000
20000000
00000000
00000000
30000000
00000000
00100000
00000000
00000000
00200000
00000000
,
00000000
00300000
00000000
00010000
00000000
00000000
00020000
00000000
00000000
00030000
00000000
00001000
00000000
00000000
00002000
00000000
,
00000000
00003000
00000000
00000100
00000000
00000000
00000200
00000000
00000000
00000300
00000000
00000010
00000000
00000000
00000020
00000000
,
00000000
00000030
00000000
00001000
00000000
00000000
00002000
00000000
00000000
00003000
00000000
00000001
00000000
00000000
00000002
00000000
,
00000000
00000003
00000000
00000010
00000000
00000000
00000020
00000000
00000000
00000030
00000000
00001000
00000000
00000000
00002000
00000000
,
00000000
00003000
00000000
00010000
00000000
00000000
00020000
00000000
00000000
00030000
00000000
01000000
00000000
00000000
01000000
00000000
,
02200000
00000000
00000000
03300000
,
10000000
00010000
00000000
01000000
00000000
00010000
00000000
00100000
,
01000000
00010000
00000000
00001000
00000000
00010000
00000000
00001000
,
00000100
00000010
00000000
00000100
00000000
00000010
00000000
00000100
,
00000010
00001000
00000000
00000001
00000000
00001000
00000000
00000100
,
00010000
00001000
00000000
00010000
00000000
00001000
00000000
00010000
,
00100000
01000000
00000000
00100000
00000000
01000000
00000000
10000000
,
01000000
00010000
00000000
00100000
00000000
00001000
00000000
00010000
,
00011000
00000000
00000000
00010000
00000000
00000000
00001000
00000000
00000000
00000000
00000000
00000100
00000000
00000000
00000001
00000000
,
00000100
00000010
00000100
00000000
00001000
00000000
00010000
00000000
,
01000000
00100000
01000000
00000000
10000000
00000000
00010000
00000000
,
01000000
00010000
01000000
00000000
00100000
00000000
00010000
00000000
,
00001000
00010000
00001000
00000000
00000100
00000000
00000010
00000100
,
00000110
00000010
00000000
00001000
00000000
00000100
00000000
00010000
,
00000000
00001000
00000000
00100000
00000000
00010000
00000000
01010000
,
00000000
00101000
00000000
00010100
00000000
00001100
00000000
00001000
,
00002002
00000000
00003003
00000000
;

//---------------dance-double - ----------------
#NOTES:
     dance-double:
     :
     Hard:
     8:
     :
00000000
00000000
00000000
00000000
,
00000000
00000000
00000000
00000000
,
00000000
00000000
00000000
00000000
,
00000000
00000000
00000000
00000000
,
00000000
00000000
00000000
00000000
,
00000000
10000000
00000000
01000000
00000000
00010000
00000000
01000000
,
00000000
00100000
00000000
00001000
00000000
00010000
00000000
00000010
,
00000000
00000100
00000000
00000001
00000000
00000100
00000000
00001000
,
00000000
00010000
00000000
01000000
00000000
10000000
00000000
00010000
,
00000000
10000000
00000000
01000000
00000000
00010000
00001000
00000020
,
00000000
00000130
00000000
00001000
00000000
00000001
00000100
00002000
,
00000000
00013000
00000000
00100000
00000000
10000000
00010000
20000000
,
00000000
30100000
00000000
10000000
00000000
00010000
00100000
00001000
,
00010000
00000100
00001000
00000000
00000001
00001000
00000100
00000000
,
00000100
00010000
00001000
00000000
00100000
01000000
10000000
00000000
,
00100000
01000000
00010000
00000000
10000000
01000000
00100000
00000000
,
00010000
00000000
00100000
00010000
00100000
00000000
00001000
00010000
00001000
00000000
01000000
00010000
01000000
00000000
00100000
00000000
,
10000000
00000000
00000000
10000000
00010000
00000000
01000000
00000000
00000000
00000000
00000000
00001000
00010000
00000000
00000100
00000000
,
00000000
00000000
00000000
00000010
00000001
00000000
00001000
00000000
00000000
00000000
00000000
00000010
00000100
00000000
00001000
00000000
,
00000000
00000000
00000000
00010000
00100000
00000000
10000000
00000000
00000000
00000000
00000000
01000000
10000000
00000000
00100000
00000000
,
00000000
00000000
00000000
10000000
00100000
00000000
00010000
00000000
00000000
00000000
00000000
00001000
00010000
00000000
00001000
00000000
,
00010000
00001000
00000100
00000000
00000010
00000100
00000001
00000000
,
00001000
00000100
00000010
00001000
00010000
01000000
10000000
00000000
,
00010000
10000000
00100000
00000000
10000000
01000000
00100000
00000000
,
00010000
01000000
00100000
00010000
00001000
00000100
00000001
00000000
,
00000010
00000100
00001000
00000000
00000001
00000100
00000010
00000000
,
00000010
00001000
00000100
00000010
00001000
00010000
01000000
00000000
,
10000000
00100000
01000000
00000000
00100000
00010000
00001000
00000000
,
00022000
00000000
00000000
00033000
,
00001000
00000000
00000000
00010000
00000000
00000000
00010000
00000000
00100000
00000000
00000000
10000000
00000000
00000000
10000000
00000000
,
00100000
00000000
00000000
00010000
00000000
00000000
00010000
00000000
00001000
00000000
00000000
00000010
00000000
00000000
00000010
00000000
,
00000001
00000000
00000000
00000100
00000000
00000000
00000100
00000000
00000010
00000000
00000000
00000100
00000000
00000000
00000100
00000000
,
00001000
00000000
00000000
00010000
00000000
00000000
00010000
00000000
00100000
00000000
00000000
10000000
00000000
00000000
10000000
00000000
,
01000000
00000000
00000000
00010000
00000000
00000000
00010000
00000000
00001000
00000000
00000000
00000100
00000000
00000000
00000100
00000000
,
00000001
00000000
00000000
00001000
00000000
00000000
00001000
00000000
00000100
00000000
00000000
00010000
00000000
00000000
00010000
00000000
,
00001000
00000000
00000000
00100000
00000000
00000000
00100000
00000000
00010000
00000000
00000000
01000000
00000000
00000000
01000000
00000000
,
02200000
00000000
00000000
03300000
,
01000000
00100000
02000000
00000000
03010000
00100000
00020000
00000000
,
00130000
00001000
00200000
00000000
00301000
00010000
00002000
00000000
,
00013000
00000100
00020000
00000000
00030100
00001000
00000200
00000000
,
00000310
00000001
00000020
00000000
00000031
00001000
00000001
00000000
,
00000100
00001000
00020000
00000000
00031000
00010000
02000000
00000000
,
13000000
00100000
02000000
00000000
03100000
00010000
00002000
00000000
,
00013000
00001000
00000200
00000000
00000301
00000010
00000100
00000010
,
00001001
00000000
00000000
00001000
00000000
00000000
00000001
00000000
00000000
00000000
00000000
00001000
00000000
00000000
00000001
00000000
,
00000100
00000010
00000100
00001000
00010000
00001000
00100000
00000000
,
01000000
10000000
00010000
10000000
01000000
00100000
00010000
00000000
,
00010000
01000000
00100000
00010000
00001000
00010000
00000100
00000000
,
00001000
00000001
00000100
00000010
00000100
00001000
00010000
00001000
,
00011000
00010000
00000000
00001000
00000000
00010000
00000000
00001000
,
00100000
00010000
00000000
10000000
00000000
00010000
00000000
01000000
,
00100000
00010000
00000000
00001000
00010000
00000100
00010000
00001000
,
00022000
00000000
00033000
00000000
;
