#TITLE:O JIYA;
#ARTIST:ASMAT & emi;
#BANNER:O JIYA.png;
#BACKGROUND:O JIYA-bg.png;
#CDTITLE:./CDTITLES/Song Pack 9.PNG;
#MUSIC:O JIYA.ogg;
#SAMPLESTART:1.51;
#SAMPLELENGTH:15;
#DISPLAYBPM:151;
#BPMS:0=151;

//---------------dance-single - ----------------
#NOTES:
     dance-single:
     :
     Beginner:
     2:
     :
0000
0000
0000
0000
,
0000
0000
0000
0000
,
0000
0000
0000
0000
,
0000
0000
0000
0000
,
0000
0000
0000
0000
,
1000
0000
0010
0000
,
1000
0000
0100
0000
,
1000
0000
0001
0000
,
1001
0000
1001
0000
,
0110
0000
0110
0000
,
0010
0000
0100
0000
,
0110
0000
1001
0000
,
0001
0000
0001
0000
,
1001
0000
1001
0000
,
0001
0000
0100
0000
,
0110
0000
1001
0000
,
1000
0000
1000
0000
,
0010
0000
0010
0000
,
0100
0000
0100
0000
,
0010
0000
0010
0000
,
1001
0000
1001
0000
,
0010
0000
0010
0000
,
0100
0000
0100
0000
,
0010
0000
0010
0000
,
0110
0000
1001
0000
,
0001
0000
0100
0000
,
0100
0000
0010
0000
,
1000
0000
0100
0000
,
0100
0000
0010
0000
,
1000
0000
0001
0000
,
1000
0000
0001
0000
,
0001
0000
1000
0000
,
0001
0000
1000
0000
,
0010
0000
0010
0000
,
1001
0000
1001
0000
,
0010
0000
0010
0000
,
0010
0000
0100
0000
,
0100
0000
0100
0000
,
1001
0000
1001
0000
,
0100
0000
0100
0000
,
0100
0000
0010
0000
,
1001
0000
1001
0000
,
0110
0000
0110
0000
,
0010
0000
0100
0000
,
0110
0000
1001
0000
,
0001
0000
0001
0000
,
1001
0000
1001
0000
,
0001
0000
0100
0000
,
0110
0000
1001
0000
,
1000
0000
1000
0000
,
0010
0000
0010
0000
,
0100
0000
0100
0000
,
0010
0000
0010
0000
,
1001
0000
1001
0000
,
0010
0000
0010
0000
,
0100
0000
0100
0000
,
0010
0000
0010
0000
,
0110
0000
1001
0000
;

//---------------dance-single - ----------------
#NOTES:
     dance-single:
     :
     Easy:
     5:
     :
0000
0000
0000
0000
,
0000
0000
0000
0000
,
0000
0000
0000
0000
,
0000
0000
0000
0000
,
0000
0000
0000
0000
,
1000
0001
0010
0001
,
1000
0001
0100
0001
,
1000
0010
0001
0010
,
1001
0110
1001
0000
,
0110
1001
0220
0330
,
0010
1000
0100
0001
,
0101
1100
2002
3003
,
0001
0100
0001
0000
,
1001
0110
2002
3003
,
0001
1000
0100
1000
,
0101
1100
2002
3003
,
1000
0010
1000
0000
,
0010
0001
0010
0001
,
0100
1000
0100
0001
,
0010
0001
0010
0001
,
1001
0110
1001
0110
,
0010
1000
0010
1000
,
0100
0001
0100
1000
,
0010
1000
0010
1000
,
1100
0101
1001
0000
,
0002
2003
3200
0320
,
0230
0010
0010
0310
,
2000
3002
0203
0320
,
0230
0010
0010
0310
,
2000
3020
0032
0023
,
2030
0001
0001
3001
,
0002
0000
0000
0000
0023
0000
0000
0000
2030
0000
0000
3000
0020
0000
0000
0000
,
0032
1000
1003
0000
,
0010
1000
0010
0100
,
1001
0101
1001
0101
,
0010
0001
0010
0100
,
0020
0001
0100
0031
,
0100
1000
0100
0010
,
1010
1001
1010
1001
,
0100
0001
0100
0001
,
0200
1000
0010
1300
,
1001
0110
1001
0000
,
0110
1001
0220
0330
,
0010
1000
0100
0001
,
0101
1100
2002
3003
,
0001
0100
0001
0000
,
1001
0110
2002
3003
,
0001
1000
0100
1000
,
0101
1100
2002
3003
,
1000
0010
1000
0000
,
0010
0001
0010
0001
,
0100
1000
0100
0001
,
0010
0001
0010
0001
,
1001
0110
1001
0110
,
0010
1000
0010
1000
,
0100
0001
0100
1000
,
0010
1000
0010
1000
,
1100
0101
1001
0000
;

//---------------dance-single - ----------------
#NOTES:
     dance-single:
     :
     Medium:
     6:
     :
0000
0000
0000
0000
,
0000
0000
0000
0000
,
0000
0000
0000
0000
,
0000
0000
0000
0000
,
0000
0000
0000
0000
,
0002
0000
0000
0203
0000
0000
0300
0000
,
0010
1000
0001
0000
0010
0001
1000
0000
,
2000
0000
0000
3200
0000
0000
0300
0000
,
0011
1100
0101
0000
,
1000
0100
0001
0000
0220
0000
0330
0000
,
1000
0100
0001
0000
0001
0100
1000
0000
,
1000
0010
0001
0000
0220
0000
0330
0000
,
0010
1000
0001
0010
0100
0000
0000
0000
,
0001
0100
1000
0000
0220
0000
0330
0000
,
1000
0010
0001
0000
0001
0010
1000
0000
,
1000
0100
0001
0000
0220
0000
0330
0000
,
0100
1000
0010
0100
0001
0000
0000
0000
,
0002
0000
0003
0200
0000
0000
0300
0000
,
0100
0001
0010
0000
0100
1000
0010
0000
,
2000
0000
0000
3200
0000
0000
0300
0000
,
0011
1010
0101
1100
,
2000
0000
0000
3020
0000
0000
0030
0000
,
0010
1000
0001
0000
0010
0001
1000
0000
,
2002
0000
0000
3003
,
1010
0101
1100
0000
,
0002
0100
1000
0103
,
1000
0100
0001
0010
0000
0010
0001
0100
,
1100
0101
1100
0101
,
0100
0001
0010
1000
0000
1000
0010
0001
,
0110
1001
0110
1001
,
0010
1000
0100
0001
0000
0001
0100
1000
,
1010
0011
1100
0101
,
1100
0000
1000
1100
0000
0000
0000
0000
,
0010
0000
0001
0100
1000
0000
0100
0000
,
1100
0101
1100
0101
,
0010
1000
0100
0001
0100
0000
1000
0000
,
0100
0010
1001
0000
0100
0010
0000
0100
,
0010
0000
1000
0100
0001
0000
0100
0000
,
0011
1010
0011
1010
,
0001
0100
1000
0100
0001
0000
1000
0000
,
0100
0010
1001
0000
0100
0010
0000
0100
,
0010
0001
1000
0100
0010
0000
0000
0000
,
1000
0100
0001
0000
0220
0000
0330
0000
,
1000
0100
0001
0000
0001
0100
1000
0000
,
1000
0010
0001
0000
0220
0000
0330
0000
,
0010
1000
0001
0010
0100
0000
0000
0000
,
0001
0100
1000
0000
0220
0000
0330
0000
,
1000
0010
0001
0000
0001
0010
1000
0000
,
1000
0100
0001
0000
0220
0000
0330
0000
,
0100
1000
0010
0100
0001
0000
0000
0000
,
0002
0000
0003
0200
0000
0000
0300
0000
,
0100
0001
0010
0000
0100
1000
0010
0000
,
2000
0000
0000
3200
0000
0000
0300
0000
,
0011
1010
0101
1100
,
2000
0000
0000
3020
0000
0000
0030
0000
,
0010
1000
0001
0000
0010
0001
1000
0000
,
2000
0000
0000
3200
0000
0000
0300
0000
,
1010
0101
1100
0000
;

//---------------dance-single - ----------------
#NOTES:
     dance-single:
     :
     Hard:
     8:
     :
0000
0000
0000
0000
,
0000
0000
0000
0000
,
0000
0000
0000
0000
,
0000
0000
0000
0000
,
0000
0000
0000
0000
,
1001
0000
1001
0002
0000
0000
0000
0103
,
0110
0000
0010
1010
0000
1000
0100
1000
,
0100
0000
1100
2000
0000
0000
0000
3001
,
0101
1001
1100
0000
,
0001
1000
0001
1000
0001
0000
0000
0010
,
0001
1000
0100
0010
0001
0100
0010
1000
,
0100
1000
0001
0010
0100
0000
0000
0010
,
0001
0100
0010
1000
0100
0000
0000
0000
,
0001
1000
0001
1000
0001
0000
0000
0100
,
0001
0010
0100
0010
0001
1000
0010
0100
,
0001
1000
0100
0001
0100
0000
0000
0010
,
0001
0100
0010
1000
0100
0000
0000
0000
,
1001
0000
1001
0100
0000
0000
0100
0000
,
0002
1000
0100
1003
,
0110
0000
0110
0001
0000
0000
1000
0000
,
1010
1001
1100
0000
,
1001
0000
1001
0010
0000
0000
0010
0000
,
2000
0001
0010
3001
,
0220
0000
0000
0330
,
1010
1001
1100
0000
,
1001
0000
1000
0100
0000
0100
1000
0100
,
1001
0000
0101
0000
0001
0100
0001
0100
,
0010
0000
0010
0100
0000
0001
1000
0100
,
0010
0000
0010
0100
0000
1000
0001
0010
,
0100
0000
0100
0010
0000
0001
0010
0100
,
1000
0000
1001
0000
0010
1000
0100
0001
,
0100
0000
0100
0001
0000
0001
0100
1000
,
0010
0000
1001
2002
0000
0000
3003
0000
,
0110
0000
0010
0100
0010
0000
0110
0000
,
0010
1000
0100
0001
0100
1000
0010
0000
,
1000
0100
0001
0100
1000
0000
1001
0000
,
0010
0100
1001
0000
0100
0010
0000
0010
,
1001
0000
1000
0001
1000
0000
0110
0000
,
0010
0001
0100
1000
0100
0001
0010
0000
,
0001
0100
1000
0100
0001
0000
1001
0000
,
0100
0010
1001
0000
0010
0100
0000
0100
,
0010
0100
0010
0100
0010
0100
0010
0100
0010
0000
0000
0000
0110
0000
0000
0000
,
0001
1000
0001
1000
0001
0000
0000
0010
,
0001
1000
0100
0010
0001
0100
0010
1000
,
0100
1000
0001
0010
0100
0000
0000
0010
,
0001
0100
0010
1000
0100
0000
0000
0000
,
0001
1000
0001
1000
0001
0000
0000
0100
,
0001
0010
0100
0010
0001
1000
0010
0100
,
0001
1000
0100
0001
0100
0000
0000
0010
,
0001
0100
0010
1000
0100
0000
0000
0000
,
1001
0000
1001
0002
0000
0000
0000
0103
,
0110
0000
0010
1010
0000
1000
0100
1000
,
0100
0000
1100
2000
0000
0000
0000
3001
,
0101
1001
1100
0000
,
1001
0000
1001
2000
0000
0000
0000
3010
,
0110
0000
0100
0101
0000
0001
0100
0001
,
0100
0000
0101
0002
0000
0000
0000
1003
,
1100
1001
0101
0000
;

//---------------dance-double - ----------------
#NOTES:
     dance-double:
     :
     Beginner:
     2:
     :
00000000
00000000
00000000
00000000
,
00000000
00000000
00000000
00000000
,
00000000
00000000
00000000
00000000
,
00000000
00000000
00000000
00000000
,
00000000
00000000
00000000
00000000
,
00000001
00000000
00000001
00000000
,
00001000
00000000
01000000
00000000
,
01000000
00000000
00100000
00000000
,
10010000
00000000
00011000
00000000
,
00010000
00000000
00010000
00000000
,
00001000
00000000
00000001
00000000
,
00001000
00000000
00001000
00000000
,
00001001
00000000
00011000
00000000
,
00001000
00000000
00001000
00000000
,
00010000
00000000
10000000
00000000
,
00010000
00000000
00010000
00000000
,
10010000
00000000
00011000
00000000
,
00001000
00000000
00100000
00000000
,
00001000
00000000
00001000
00000000
,
00100000
00000000
00001000
00000000
,
00010010
00000000
00010100
00000000
,
00010000
00000000
00000010
00000000
,
00010000
00000000
00010000
00000000
,
00000010
00000000
00010000
00000000
,
00101000
00000000
01001000
00000000
,
00001000
00000000
01000000
00000000
,
00100000
00000000
00010000
00000000
,
00100000
00000000
01000000
00000000
,
00001000
00000000
00010000
00000000
,
00010000
00000000
00000100
00000000
,
00000010
00000000
00001000
00000000
,
00000010
00000000
00000100
00000000
,
00010000
00000000
00001000
00000000
,
00001000
00000000
01000000
00000000
,
10010000
00000000
00011000
00000000
,
00000100
00000000
00001000
00000000
,
00010000
00000000
00001000
00000000
,
00010000
00000000
00000100
00000000
,
00001001
00000000
00011000
00000000
,
01000000
00000000
00010000
00000000
,
00001000
00000000
00010000
00000000
,
00011000
00000000
00010100
00000000
,
00010000
00000000
00010000
00000000
,
00001000
00000000
00000001
00000000
,
00001000
00000000
00001000
00000000
,
00001001
00000000
00011000
00000000
,
00001000
00000000
00001000
00000000
,
00010000
00000000
10000000
00000000
,
00010000
00000000
00010000
00000000
,
10010000
00000000
00011000
00000000
,
00001000
00000000
00100000
00000000
,
00001000
00000000
00001000
00000000
,
00100000
00000000
00001000
00000000
,
00010010
00000000
00010100
00000000
,
00010000
00000000
00000010
00000000
,
00010000
00000000
00010000
00000000
,
00000010
00000000
00010000
00000000
,
00101000
00000000
01001000
00000000
;

//---------------dance-double - ----------------
#NOTES:
     dance-double:
     :
     Easy:
     4:
     :
00000000
00000000
00000000
00000000
,
00000000
00000000
00000000
00000000
,
00000000
00000000
00000000
00000000
,
00000000
00000000
00000000
00000000
,
00000000
00000000
00000000
00000000
,
00000001
00000010
00000001
00000100
,
00001000
00010000
01000000
00010000
,
01000000
10000000
00100000
10000000
,
10100000
01010000
00011000
00000000
,
00010000
00001000
00020000
00030000
,
00001000
00000100
00000001
00000010
,
00001000
00000010
00002000
00003000
,
00000011
00001100
00011000
00000000
,
00001000
00010000
00002000
00003000
,
00010000
01000000
10000000
00100000
,
00010000
00100000
00020000
00030000
,
10100000
01010000
00011000
00000000
,
00001000
00010000
00100000
00010000
,
00001000
00000100
00001000
00010000
,
00100000
00010000
00001000
00010000
,
00010010
00011000
00010100
00011000
,
00010000
00001000
00000010
00001000
,
00010000
01000000
00010000
00001000
,
00000010
00001000
00010000
00001000
,
00101000
00011000
01001000
00000000
,
00002000
00023000
02030000
23000000
,
30200000
00010000
00010000
00310000
,
00200000
20300000
32000000
03020000
,
00032000
00010000
00010000
00013000
,
00020000
00032000
00003200
00000302
,
00000023
00001000
00001000
00001030
,
00000020
00000000
00000000
00000000
00000032
00000000
00000000
00000000
00000203
00000000
00000000
00000300
00002000
00000000
00000000
00000000
,
00023000
00001000
00031000
00000000
,
00001000
00010000
01000000
10000000
,
10100000
01010000
00011000
00001100
,
00000100
00010000
00001000
00010000
,
00020000
00001000
00001000
00031000
,
00010000
00001000
00000100
00000001
,
00000011
00001100
00011000
01010000
,
01000000
00001000
00010000
00001000
,
00002000
00010000
00010000
00013000
,
00011000
01001000
00010100
00000000
,
00010000
00001000
00020000
00030000
,
00001000
00000100
00000001
00000010
,
00001000
00000010
00002000
00003000
,
00000011
00001100
00011000
00000000
,
00001000
00010000
00002000
00003000
,
00010000
01000000
10000000
00100000
,
00010000
00100000
00020000
00030000
,
10100000
01010000
00011000
00000000
,
00001000
00010000
00100000
00010000
,
00001000
00000100
00001000
00010000
,
00100000
00010000
00001000
00010000
,
00010010
00011000
00010100
00011000
,
00010000
00001000
00000010
00001000
,
00010000
01000000
00010000
00001000
,
00000010
00001000
00010000
00001000
,
00101000
00011000
01001000
00000000
;

//---------------dance-double - ----------------
#NOTES:
     dance-double:
     :
     Medium:
     7:
     :
00000000
00000000
00000000
00000000
,
00000000
00000000
00000000
00000000
,
00000000
00000000
00000000
00000000
,
00000000
00000000
00000000
00000000
,
00000000
00000000
00000000
00000000
,
00000020
00001000
00020000
00000030
,
00032000
00010000
00200000
00003000
,
00320000
01000000
20030000
00000000
,
30020000
00100000
02030000
03000000
,
00200000
00000000
10000000
10300000
00020000
00000000
00030000
00000000
,
10000000
00010000
02000000
00000000
03001000
00001000
00020000
00000000
,
00030100
00000100
00002000
00000000
00003001
00000000
00000000
00000010
,
00000001
00001000
00000010
00000100
00000001
00000000
00000000
00000000
,
00000020
00000000
00000001
00000031
00002000
00000000
00003000
00000000
,
00000001
00001000
00000200
00000000
00010300
00010000
00002000
00000000
,
01003000
01000000
00020000
00000000
10030000
00000000
00000000
00100000
,
10000000
00010000
00100000
01000000
00010000
00000000
00000000
00000000
,
00200000
00000000
01300000
00020000
00000000
00000000
00000000
00031000
,
00000020
00000000
00000031
00000020
00000000
00000230
00000000
00000000
,
00002300
00000000
00003100
00020000
00000000
00000000
00000000
01030000
,
20000000
30100000
00020000
00130000
,
20000000
00000000
31000000
00200000
00000000
00000000
00000000
00301000
,
00020000
00000000
00031000
00000020
00000000
00000032
00000000
00000000
,
00000023
00000000
00001030
00000020
00000000
00000000
00000000
00000130
,
00002000
00003200
00002000
00003300
,
00002000
00003010
00000200
00001300
,
00020000
00000000
01030000
00000000
10000000
00100000
10000000
00100000
,
20000000
30100000
00020000
00130000
,
20000000
00000000
31000000
00000000
00010000
01000000
00010000
01000000
,
00020000
00031000
00000200
00000310
,
00002000
00000000
00003100
00000000
00000010
00000001
00000010
00000001
,
00000020
00000031
00000200
00001300
,
00020000
00000000
00031000
00011000
00000000
00000000
00000000
00000000
,
00002000
00003000
00000200
00000300
,
00000101
00001001
00000101
00001001
,
00002000
00003000
00000200
00000300
,
00000010
00000001
00000100
00000000
00000100
00001000
00000000
00001000
,
00020000
00030000
02000000
03000000
,
11000000
10010000
11000000
10010000
,
00020000
00030000
02000000
03000000
,
00100000
10000000
01000000
00000000
01000000
00010000
00000000
00001000
,
00010000
01000000
10000000
01000000
10000000
00000000
00000000
00000000
,
00200000
00000000
10000000
10300000
00020000
00000000
00030000
00000000
,
10000000
00010000
02000000
00000000
03001000
00001000
00020000
00000000
,
00030100
00000100
00002000
00000000
00003001
00000000
00000000
00000010
,
00000001
00001000
00000010
00000100
00000001
00000000
00000000
00000000
,
00000020
00000000
00000001
00000031
00002000
00000000
00003000
00000000
,
00000001
00001000
00000200
00000000
00010300
00010000
00002000
00000000
,
01003000
01000000
00020000
00000000
10030000
00000000
00000000
00100000
,
10000000
00010000
00100000
01000000
00010000
00000000
00000000
00000000
,
02000000
00000000
13000000
00020000
00000000
00000000
00000000
01030000
,
00002000
00000000
00013000
00000020
00000000
00000230
00000000
00000000
,
00000302
00000000
00000103
00000020
00000000
00000000
00000000
00001030
,
00000200
00010300
00002000
00103000
,
00020000
00000000
01030000
00200000
00000000
00000000
00000000
10300000
,
02000000
00000000
03100000
00020000
00000000
02030000
00000000
00000000
,
03200000
00000000
10300000
00020000
00000000
00000000
00000000
00130000
,
20000000
30200000
00020000
00330000
;

//---------------dance-double - ----------------
#NOTES:
     dance-double:
     :
     Hard:
     8:
     :
00000000
00000000
00000000
00000000
,
00000000
00000000
00000000
00000000
,
00000000
00000000
00000000
00000000
,
00000000
00000000
00000000
00000000
,
00000000
00000000
00000000
00000000
,
00000010
00000001
00000100
00002000
00000000
00000000
00000000
00003100
,
00000100
00001000
00010000
00200000
00000000
00000000
00000000
00310000
,
00010000
00100000
10000000
02000000
00000000
00000000
00000000
03010000
,
00020000
02030000
23000000
30000000
,
10000000
00010000
10000000
00010000
20000000
00000000
00000000
30100000
,
10000000
00010000
01000000
00001000
00010000
00000100
00001000
00000001
,
00000100
00000010
00001000
00000100
00020000
00000000
00000000
00031000
,
00010000
00000100
00001000
00000010
00000100
00000000
00000000
00000000
,
00000001
00001000
00000001
00001000
00000002
00000000
00000000
00000013
,
00000001
00001000
00000100
00010000
00001000
01000000
00010000
10000000
,
01000000
00100000
00010000
01000000
00002000
00000000
00000000
00013000
,
00001000
01000000
00010000
00100000
01000000
00000000
00000000
00000000
,
00100000
00010000
10000000
02000000
00000000
00000000
03000000
10000000
,
01000000
00010000
01000000
10000000
00000000
01000000
00000000
00010000
,
00001000
00010000
00001000
00000100
00000000
00000000
00000000
00000001
,
00000010
00001001
00000100
00001001
,
00000010
00001000
00000001
00000200
00000000
00000000
00000300
00000001
,
00000100
00001000
00000100
00000001
00000000
00000100
00000000
00001000
,
00010000
00001000
00010000
01000000
00000000
00000000
00000000
10000000
,
00100000
10010000
20000000
00000000
,
30100000
00000000
00100000
00010000
00000000
00010000
00100000
10000000
,
01000000
00000000
00010000
00000000
01000000
10000000
01000000
10000000
,
00100000
00000000
00100000
00010000
00000000
00010000
00100000
10000000
,
01000000
00000000
00010000
00001000
00000000
00010000
00001000
00000100
,
00000010
00000000
00000010
00001000
00000000
00001000
00000010
00000001
,
00000100
00000000
00001000
00000000
00000100
00000001
00000100
00000001
,
00000010
00000000
00000010
00001000
00000000
00001000
00000010
00000001
,
00000100
00000000
00001000
00022000
00000000
00000000
00033000
00000000
,
00200000
00000000
00300000
10000000
02000000
00000000
13000000
00000000
,
00020000
00000000
00030000
00001000
00000200
00000000
00000301
00000000
,
00000002
00000000
00000003
00000100
00002000
00000000
00003010
00000000
,
00000002
00000000
00000003
00001000
00020000
00000000
00130000
00000000
,
20000000
00000000
30000000
01000000
20000000
00000000
30010000
00000000
,
00200000
00000000
00300000
01000000
00020000
00000000
00030100
00000000
,
00000002
00000000
00000003
00001000
00000020
00000000
00000130
00000000
,
00002000
00000000
00003000
00000001
00000200
00000000
00010300
00000000
,
20000000
00000000
00000000
30000000
,
10000000
00010000
10000000
00010000
20000000
00000000
00000000
30100000
,
10000000
00010000
01000000
00001000
00010000
00000100
00001000
00000001
,
00000100
00000010
00001000
00000100
00020000
00000000
00000000
00031000
,
00010000
00000100
00001000
00000010
00000100
00000000
00000000
00000000
,
00000001
00001000
00000001
00001000
00000002
00000000
00000000
00000013
,
00000001
00001000
00000100
00010000
00001000
01000000
00010000
10000000
,
01000000
00100000
00010000
01000000
00002000
00000000
00000000
00013000
,
00001000
01000000
00010000
00100000
01000000
00000000
00000000
00000000
,
00100000
10000000
01000000
00020000
00000000
00000000
00000000
01030000
,
01000000
00010000
00001000
00000020
00000000
00000000
00000000
00001030
,
00001000
00000010
00000001
00000200
00000000
00000000
00000000
00001300
,
00002000
00000000
00000000
00003000
00000200
00000000
00000000
00000000
00000302
00000000
00000000
00000000
00000013
00000000
00000000
00000000
,
00000010
00000001
00000100
00002000
00000000
00000000
00000000
00003100
,
00000100
00001000
00010000
00200000
00000000
00000000
00000000
00310000
,
00010000
00100000
10000000
02000000
00000000
00000000
00000000
03010000
,
00020000
02030000
23000000
30000000
;
