#TITLE:MAKE A JAM! (Dub/House);
#ARTIST:Big Idea;
#BANNER:MAKE A JAM! (DubHouse).png;
#BACKGROUND:MAKE A JAM! (DubHouse)-bg.png;
#MUSIC:MAKE A JAM! (DubHouse).ogg;
#SAMPLESTART:71.6;
#SAMPLELENGTH:15;
#BPMS:0=124;
#BGCHANGES:4=MAKE A JAM! (DubHouse).avi=1=1=0=0,210.75=MAKE A JAM! (DubHouse)-bg.png=1=0=0=1;

//---------------dance-single - ----------------
#NOTES:
     dance-single:
     :
     Beginner:
     1:
     :
0000
0000
0000
0000
,
0000
0000
0000
0000
,
0000
0000
0000
0000
,
0000
0000
0000
0000
,
0000
0000
0000
0000
,
1000
0000
0010
0010
,
0000
0000
0001
0001
,
0000
0000
1000
1000
,
0000
0000
0100
0100
,
0000
0000
0001
0001
,
0000
0000
0010
0010
,
0000
0000
1000
1000
,
0000
0000
0000
0000
,
0000
0100
0000
0001
,
0000
0001
0000
0100
,
0000
0010
0000
0100
,
0000
0100
0000
0000
,
0000
1000
0000
0010
,
0000
1000
0000
0100
,
0000
0010
0000
0010
,
0000
1000
1000
1000
,
0000
0100
0000
0100
,
0000
0001
0001
0001
,
0002
0000
0000
0003
,
0002
0000
0000
0003
,
0000
1000
0000
1000
,
0000
0010
0010
0010
,
0020
0000
0000
0030
,
0020
0000
0000
0030
,
0000
0100
0000
1001
,
0000
0010
0000
1001
,
0000
0001
0000
1000
,
2000
0000
0000
3000
,
2000
0000
0000
3000
,
0000
1000
0000
0010
,
0000
0001
0000
0100
,
0200
0000
0000
0300
,
0000
0001
0000
0100
,
0000
0010
0000
0100
,
0000
1000
0000
0010
,
0000
1000
0000
0001
,
0000
0100
0000
0001
,
0000
1000
0000
0001
,
0000
1000
1000
1000
,
0000
0100
0100
0100
,
0000
0001
0000
0010
,
0000
0100
0000
0010
,
0000
1000
0000
0001
,
0000
1000
0000
0100
,
0000
0000
0010
0010
,
0000
0000
0001
0001
,
0000
0000
0100
0100
,
0200
0000
0000
0300
;

//---------------dance-single - ----------------
#NOTES:
     dance-single:
     :
     Easy:
     3:
     :
0000
0000
0000
0000
,
0000
0000
0000
0000
,
0000
0000
0000
0000
,
0000
0000
0000
0000
,
0000
0000
0000
0000
,
0010
0000
0010
0010
,
0000
0000
2000
0000
,
0000
3100
0000
0110
,
1001
1010
1001
0110
,
0001
0000
0001
0000
,
1000
0000
0010
0000
,
0100
0000
1000
0000
,
0010
0000
0001
0000
,
0100
0000
1000
0000
,
0001
0000
0100
0000
,
0100
0000
0010
0000
,
0001
0000
1000
0000
,
0010
0000
0100
0000
,
0001
0000
0001
0000
,
1000
0000
1000
0000
,
0101
1100
0101
1100
,
0010
0100
0010
0100
,
0001
0001
1000
1000
,
0002
1000
0000
1003
,
2000
0001
0000
3001
,
0200
0010
0000
0310
,
0020
0100
0000
0130
,
0010
0001
0010
0001
,
0010
1000
0010
1000
,
2002
3003
2002
3003
,
2200
3300
2200
3300
,
0202
0303
0202
0303
,
2000
0100
0000
3100
,
0002
0100
0000
0103
,
0001
0001
1000
0001
,
1000
1000
0001
1000
,
2002
0000
0000
3003
,
0010
0010
0100
0100
,
0010
0010
0100
0100
,
1000
0001
1000
0001
,
1000
0001
1000
0000
0002
0000
0000
0000
,
0203
0300
0020
0030
,
0100
0010
0100
0010
,
0020
0000
0000
0030
,
0002
0000
0000
0003
,
0001
0100
1000
0100
,
0001
0001
1000
1000
,
0001
0000
0001
0000
,
1000
0000
1000
0000
,
0100
0000
0100
0000
,
0001
0000
1000
0000
,
0100
0000
0010
0000
,
0200
0000
0000
0300
;

//---------------dance-single - ----------------
#NOTES:
     dance-single:
     :
     Medium:
     5:
     :
0000
0000
0000
0000
,
0000
0000
0000
0000
,
0000
0000
0000
0000
,
0000
0000
0000
0000
,
0000
0000
0000
0000
,
0010
2001
0000
0001
,
0000
0001
0000
3001
,
0010
1002
0000
1000
,
0000
1000
0000
1003
,
0010
0100
0001
0010
,
0100
1000
0010
0001
,
1000
0100
0001
0010
,
2002
0000
3003
0110
,
0001
0100
1000
0000
0001
0100
0010
0000
,
1000
0100
0001
0000
1000
0100
0010
0000
,
1000
0100
0001
0000
0100
1000
0001
0000
,
2002
3003
0010
0100
,
1000
0101
0010
1000
,
0100
1100
0001
0010
,
1000
1100
1000
0100
,
0001
0011
0101
1100
,
1001
0010
0100
0010
,
0011
0001
1000
0001
,
0101
0000
0100
0001
1000
0000
0010
0000
,
1000
0000
0100
1000
0001
0000
1000
0000
,
0101
0010
1001
0010
,
0101
1000
0011
1000
,
0010
0100
1000
0000
0010
0000
1000
0000
,
0010
0100
0001
0000
0010
0000
0001
0000
,
0010
0000
1000
0000
0001
0100
0002
0000
,
1003
0000
0001
0000
1000
0100
2000
0000
,
3001
0000
1000
0000
0010
0100
2000
0000
,
3010
0000
0001
0000
0010
0100
0002
0000
,
0013
0000
0001
1000
0100
0001
1000
0000
,
0010
0000
1000
0001
0100
1000
0001
0000
,
0100
0000
0010
0100
0001
0010
1000
0000
,
0100
0002
0000
0003
,
1000
0001
0010
0000
0001
0100
0010
0000
,
1000
0100
0010
0000
0001
1000
0010
0000
,
2000
3100
0020
0031
,
0200
0310
2000
3001
,
0001
1000
0001
1000
0100
0000
0100
0000
,
1000
0001
1000
0001
0100
0000
0100
0000
,
1001
0001
0101
1000
,
1100
0100
0110
1001
,
0010
1001
1001
0100
,
0100
0110
0110
1000
,
1000
1100
1100
0010
,
0010
0011
0011
1000
,
0001
0100
0010
1000
0001
0000
0010
0000
,
0001
1000
0001
0100
0010
0000
1000
0000
,
0010
1000
0100
0010
0001
0000
1000
0000
,
2002
0000
0000
3003
;

//---------------dance-single - ----------------
#NOTES:
     dance-single:
     :
     Hard:
     8:
     :
0000
0000
0000
0000
,
0000
0000
0000
0000
,
0000
0000
0000
0000
,
0000
0000
0000
0000
,
0000
0000
0000
0000
,
0010
1002
0000
0010
,
0000
0100
0000
1003
,
0010
2001
0000
0010
,
0000
0100
0000
3001
,
0010
1000
0100
0000
1000
0100
0010
0000
,
0100
0010
0001
0000
0010
0001
1000
0000
,
0001
1000
0100
0000
1000
0100
0010
0000
,
2002
0000
3003
0110
,
1000
0100
0001
1000
0001
0100
0010
0000
,
0001
0100
1000
0001
1000
0100
0010
0000
,
0001
0100
1000
0010
0100
1000
0001
0000
,
1000
0010
0000
0100
0000
0001
0000
0100
0000
0010
0000
1000
0100
1000
0000
0000
,
0001
1100
0010
1001
,
0100
0101
1000
0110
,
1001
1100
1001
0101
,
1010
0011
1100
0101
,
1001
0000
0000
0010
0000
1000
0000
0000
0101
0000
0000
0100
0000
0010
0000
0000
,
1010
0000
0000
1000
0000
0100
0000
0000
0011
0000
0000
0010
0000
0100
0000
0000
,
0110
0000
0000
0000
0100
0000
0001
0000
1000
0000
0000
0000
0010
2000
0001
0000
,
3001
0000
1000
0010
0100
0000
0001
2100
,
3100
0011
1001
1010
,
1001
0100
1000
0001
0010
0100
0001
0000
,
0010
0000
0100
0000
0001
0000
0000
0000
0010
2000
0001
0000
3001
0000
0000
0000
,
1000
0100
0010
0000
0010
1002
1003
0000
,
0110
0000
1001
0000
1100
0100
2000
0001
,
3001
0000
1001
0000
0101
0100
0002
1000
,
1003
0000
1001
0000
0110
0100
0002
0010
,
0013
0000
1001
0000
0110
0100
2000
0010
,
3010
0000
1000
0001
0110
1000
0001
0000
,
1010
0000
0001
0100
1001
0100
0001
0000
,
1100
0000
0010
1000
0101
1000
0010
0000
,
0101
2002
0000
3003
,
0001
1000
0010
0001
1000
0100
0010
1000
,
0001
1000
0010
0100
1000
0001
0010
1000
,
0001
0001
0100
0100
0010
0010
1000
1000
,
0100
0100
0010
0010
0001
0001
1001
0000
,
1000
0001
1000
0100
0001
0100
0010
0001
,
0010
1000
0001
0100
0010
0001
1000
0000
,
1001
0110
1100
0011
,
0101
1010
0110
1001
,
0010
1000
1001
0000
1001
1000
0100
0000
,
0100
0010
0110
0000
0110
0010
0001
0000
,
0001
0100
0101
0000
0101
0100
0010
0000
,
0010
1000
1010
0000
1010
1000
0001
0000
,
1000
0100
0010
0001
1000
0001
0010
0100
,
1000
0001
1000
0100
0001
0010
0001
0100
,
0010
0001
1000
0100
0010
1000
0001
0010
,
2002
0000
0000
3003
;

//---------------dance-double - ----------------
#NOTES:
     dance-double:
     :
     Beginner:
     2:
     :
00000000
00000000
00000000
00000000
,
00000000
00000000
00000000
00000000
,
00000000
00000000
00000000
00000000
,
00000000
00000000
00000000
00000000
,
00000000
00000000
00000000
00000000
,
00000000
10000000
00000000
00100000
,
00000000
00010000
00000000
00001000
,
00000000
00000010
00000000
00000001
,
00000000
00001000
00000000
00010000
,
00000000
00100000
00000000
01000000
,
00000000
10000000
00000000
00010000
,
00000000
01000000
00000000
00100000
,
00000000
00000000
00000000
00000000
,
00000000
01000000
00000000
00010000
,
00000000
00001000
00000000
00000100
,
00000000
00001000
00000000
00010000
,
00000000
00000000
00000000
00000000
,
00001001
00000000
00000000
00000010
,
00000000
00000001
00000000
00000001
,
00000000
00000000
00000110
00000000
,
00000110
00000000
00001001
00000000
,
00000000
00000001
00000000
00000110
,
00000000
00000010
00000000
00001001
,
00000000
00000001
00000000
00001000
,
00000000
00010000
00000000
01000000
,
00000000
00100000
00000000
10010000
,
00000000
00010000
00000000
01100000
,
00000000
00100000
00000000
00010000
,
00000000
00001000
00000000
00000010
,
00000000
00000001
00000000
00000001
,
00000000
00000100
00000000
00000100
,
00000000
00001000
00000000
00001000
,
00000000
00000010
00000000
00000010
,
00000000
00010000
00000000
00100000
,
00000000
10000000
00000000
01000000
,
00000000
00010000
00000000
00011000
,
00000000
00000000
00000000
00000000
,
00011000
00000000
00000000
00001000
,
00000000
00100000
00000000
00010000
,
00000000
00000100
00000000
00001000
,
00000000
01000000
00000000
10000000
,
00000000
00010000
00000000
01100000
,
00000000
10000000
00000000
01100000
,
00000000
01000000
00000000
00011000
,
00000000
00000100
00000000
00011000
,
00000000
00001000
00000000
00000110
,
00000000
00000001
00000000
00000110
,
00000000
00001001
00000000
00001000
,
00000000
00010000
00000000
10000000
,
00000000
10010000
00000000
00010000
,
00000000
00001000
00000000
00011000
,
00000000
00010000
00000000
00001000
;

//---------------dance-double - ----------------
#NOTES:
     dance-double:
     :
     Easy:
     3:
     :
00000000
00000000
00000000
00000000
,
00000000
00000000
00000000
00000000
,
00000000
00000000
00000000
00000000
,
00000000
00000000
00000000
00000000
,
00000000
00000000
00000000
00000000
,
00000000
10000000
00000000
00100000
,
00000000
00010000
00000000
00001000
,
00000000
00000010
00000000
00000001
,
00000000
00001000
00000000
00010000
,
00000000
00200000
00300000
01000000
,
00000000
20000000
30000000
00010000
,
00000000
02000000
03000000
00100000
,
20020000
00000000
00000000
30030000
,
00000000
01000000
00000000
00010000
,
00000000
00001000
00000000
00000100
,
00000000
00001000
00000000
00010000
,
00022000
00000000
00000000
00033000
,
00001010
00000010
00000000
00000010
,
00000011
00000001
00000000
00000001
,
00000101
00000000
00000110
00000000
,
00000110
00000110
00001001
00001001
,
00000000
00000001
00000000
00000110
,
00000000
00000010
00000000
00001001
,
00000000
00000001
00000100
00001000
,
00000000
00010000
00001000
01000000
,
00000000
00100000
00000000
10010000
,
00000000
00010000
00000000
01100000
,
00000000
00100000
00001000
00010000
,
00000000
00001000
00010000
00000010
,
00002000
00000001
00000000
00003001
,
00000020
00000100
00000000
00000130
,
00000002
00001000
00000000
00001003
,
00000200
00000010
00000000
00000310
,
00001000
00010000
00000000
00100000
,
00000000
10000000
00000000
01000000
,
00000000
00010000
00000000
00011000
,
00000000
00000000
00000000
00000000
,
00011000
00000010
00000000
00001000
,
00011000
00100000
00000000
00010000
,
00011000
00000100
00000000
00001000
,
00011000
01000000
00000000
10000000
,
00000000
00010000
00000000
11000000
,
00000000
10000000
00000000
01010000
,
00000000
01000000
00000000
00011000
,
00000000
00000100
00000000
00011000
,
00000000
00001000
00000000
00000101
,
00000000
00000001
00000000
00001100
,
00000001
00001001
00000000
00001000
,
00011000
00010000
00000000
10000000
,
00010000
10010000
00000000
00010000
,
00011000
00001000
00000000
00011000
,
00000000
00010000
00000000
00001000
,
00022000
00000000
00000000
00033000
;

//---------------dance-double - ----------------
#NOTES:
     dance-double:
     :
     Medium:
     6:
     :
00000000
00000000
00000000
00000000
,
00000000
00000000
00000000
00000000
,
00000000
00000000
00000000
00000000
,
00000000
00000000
00000000
00000000
,
00000000
00000000
00000000
00000000
,
10000000
00010000
00100000
00001000
,
00010000
00000010
00001000
00000001
,
00000001
00001000
00000010
00000100
,
00000020
00000000
00000000
00000030
,
00000000
00000010
00000000
00000001
00000000
00000100
00000000
00000010
,
00000000
00001000
00000000
00010000
00000000
00100000
00000000
00010000
,
00000000
01000000
00000000
00010000
00000000
10000000
00000000
00100000
,
20000000
30000000
00020000
00030000
,
10000000
01000000
00010000
01000000
,
00100000
10000000
00100000
00010000
,
00001000
00000010
00000001
00001000
,
00002002
00000000
00000000
00003003
,
00000100
00000110
00000010
00000110
,
00001000
00010000
10000000
10010000
,
10000000
11000000
00010000
01010000
,
00001000
00011000
00000100
00001100
,
00000010
00000001
00001000
00000000
00001000
00000001
00000010
00000000
,
00000100
00001000
00000010
00000000
00000010
00001000
00000001
00000000
,
00000010
00000100
00010000
00001000
,
00010000
00001000
00010000
00001000
00020000
00000000
00030000
00000000
,
00001000
00010000
01000000
00000000
01000000
00010000
00001000
00000000
,
00010000
00001000
00000100
00000000
00000100
00001000
00010000
00000000
,
00010000
00001000
00000010
00000000
00001000
00010000
00100000
00000000
,
10000000
00010000
10000000
00000000
20020000
00000000
30030000
00000000
,
00100000
00000000
10000000
00000000
01000000
00100000
00010000
00000000
,
01000000
00000000
00100000
00000000
10000000
00010000
01000000
00000000
,
00001000
00000000
00010000
00000000
00001000
00010000
00000010
00000000
,
00001000
00000000
00000100
00000000
00000001
00000010
00000100
00000000
,
00001000
00000001
00001000
00000010
,
00000010
00000001
00001000
00011000
,
00000100
00001000
01000000
00010000
,
00022000
00000000
00000000
00033000
,
00001000
01000000
00001000
00010000
,
00000100
00010000
00001000
00011000
,
00000010
00001000
00100000
00010000
,
00001000
00000010
00000001
00001001
,
00001000
00010000
10000000
10010000
,
00100000
00100000
01000000
01000000
,
00100000
01000000
00100000
00000000
10000000
00010000
10000000
00000000
,
00100000
01000000
00100000
00000000
02200000
00000000
03300000
00000000
,
01000000
00010000
00001000
00000000
00010000
00000000
00001000
00000000
,
00001000
00000010
00000001
00000000
00000001
00000000
00000100
00000000
,
00000100
00001000
00010000
00000000
00001000
00000000
00001000
00000000
,
00010000
00001000
00010000
00000000
00022000
00000000
00033000
00000000
,
01000000
00000000
00010000
00000000
10000000
00010000
10000000
00000000
,
00100000
00000000
01000000
00000000
00001000
00010000
00000010
00000000
,
00001000
00000000
00000001
00000000
00000010
00001000
00010000
00000000
,
00022000
00000000
00000000
00033000
;

//---------------dance-double - ----------------
#NOTES:
     dance-double:
     :
     Hard:
     7:
     :
00000000
00000000
00000000
00000000
,
00000000
00000000
00000000
00000000
,
00000000
00000000
00000000
00000000
,
00000000
00000000
00000000
00000000
,
00000000
00000000
00000000
00000000
,
00100000
10000000
01000000
00000000
10000000
01000000
00010000
00000000
,
01000000
00010000
00100000
00000000
00010000
00100000
10000000
00000000
,
10000000
00100000
01000000
00000000
10000000
01000000
00010000
00000000
,
00010000
00100000
01000000
00000000
01000000
00010000
00001000
00000000
,
00000010
00000001
00000100
00000000
00000001
00000100
00001000
00000000
,
00000100
00001000
00000010
00000000
00001000
00000010
00000001
00000000
,
00000001
00000010
00000100
00000000
00000001
00000100
00001000
00000000
,
00001000
00000010
00000100
00000000
00000100
00001000
00010000
00000000
,
00010000
00000010
00001000
00000000
00001000
00000010
00010000
00000000
,
00001000
00100000
00010000
00000000
00010000
00100000
00001000
00000000
,
00011000
00010010
00011000
00101000
,
00022000
00000000
00000000
00033000
,
00010000
01000000
10000000
00000000
01000000
00000000
00010000
00000000
,
00001000
00000100
00000001
00000000
00000100
00000000
00001000
00000000
,
00001100
00001000
01010000
00010000
,
00011000
00001100
00011000
01010000
,
00010000
01000000
00100000
00000000
00010000
00100000
10000000
00000000
,
01000000
00100000
10000000
00000000
00100000
00010000
01000000
00000000
,
00001000
00010000
01000000
00000000
00010000
00001000
00000100
00000000
,
00000001
00001000
00000100
00000000
00001000
00000001
00000010
00000000
,
00001000
00000010
00000100
00000000
00001000
00000100
00000001
00000000
,
00000010
00000100
00000001
00000000
00000100
00001000
00000010
00000000
,
00010000
00001000
00000010
00000000
00001000
00010000
00100000
00000000
,
10000000
00010000
00100000
00000000
00010000
10000000
01000000
00000000
,
10000000
01000000
00010000
00000000
00001000
00000100
00000001
00000000
,
00000001
00000010
00001000
00000000
00010000
00100000
10000000
00000000
,
00100000
00010000
00001000
00000000
00010000
00001000
00000100
00000000
,
00000010
00001000
00010000
00000000
00001000
00010000
01000000
00000000
,
10000000
01000000
10000000
00000000
01000000
00010000
01000000
00000000
,
00010000
00001000
00010000
00000000
00001000
00000100
00001000
00000000
,
00000100
00000001
00000100
00000000
00001000
00000100
00001000
00000000
,
00022000
00000000
00000000
00000000
,
00033000
00000000
10010000
00000000
01000000
00010000
00001000
00000000
,
00011000
00000000
00001001
00000000
00000001
00000100
00001000
00000000
,
00001100
00000000
00011000
00000000
00010000
01000000
10000000
00000000
,
01010000
00000000
00011000
00000000
00001000
00000100
00000001
00000000
,
00000001
00000100
00001000
00000010
,
00000001
00000010
00001000
00000100
00000001
00000100
00001000
00000000
,
00010000
01000000
10000000
00100000
,
00010000
00100000
10000000
01000000
00010000
01000000
10000000
00000000
,
10010000
01100000
00010000
00001000
,
00001001
00000110
00001000
00010000
,
00010000
00001000
00000010
00000001
00000100
00001000
00010000
00000000
,
00001000
00010000
00100000
10000000
01000000
00010000
00001000
00000000
,
00011000
00000000
00001010
00000000
00000001
00000100
00001000
00000000
,
00011000
00000000
00110000
00000000
10000000
01000000
00010000
00000000
,
00001000
00010000
00001000
00010000
,
00022000
00000000
00000000
00033000
;
