#TITLE:Looking For You;
#ARTIST:BOYJAZZ;
#BANNER:Looking For You.png;
#BACKGROUND:Looking For You-bg.png;
#CDTITLE:./CDTITLES/DANCE DANCE REVOLUTION ULTRAMIX 2.PNG;
#MUSIC:Looking For You.ogg;
#SAMPLESTART:14.864;
#SAMPLELENGTH:15;
#DISPLAYBPM:145;
#BPMS:0=145.01;

//---------------dance-single - ----------------
#NOTES:
     dance-single:
     :
     Beginner:
     2:
     :
0000
0000
0000
0000
,
0000
0000
0000
0000
,
0000
0000
0000
0000
,
0000
0000
0000
0000
,
0000
0000
0000
0000
,
0100
0000
0010
0000
,
0100
0000
0010
0000
,
1000
0000
0001
0000
,
1000
0000
0001
0000
,
1000
0000
0100
0000
,
1000
0000
0100
0000
,
0010
0000
0001
0000
,
0010
0000
0001
0000
,
0000
1001
0000
1001
,
0000
1001
0000
1001
,
0000
0000
0001
0000
,
0010
0000
0100
0000
,
0000
0110
0000
0110
,
0000
0110
0000
0010
,
0000
0001
0000
0001
,
0000
1000
0000
1000
,
0000
0000
0010
0000
,
0100
0000
0001
0000
,
0100
0000
0100
0000
,
1000
0000
1000
0000
,
0100
0000
0010
0000
,
0100
0000
0010
0000
,
0001
0000
1000
0000
,
0001
0000
1000
0000
,
0010
0000
0100
0000
,
0010
0000
0100
0000
,
0001
0000
1000
0000
,
0001
0000
1000
0000
,
0000
1000
0000
0100
,
0000
0010
0000
0001
,
0000
0100
0000
0010
,
0000
1000
0000
0100
,
0000
0010
0000
0001
,
0000
0100
0000
0010
,
0000
1000
0000
0100
,
0000
0010
0000
0001
,
0000
1001
0000
1001
,
0000
1001
0000
1001
,
0000
0000
0001
0000
,
0010
0000
0100
0000
,
0000
0110
0000
0110
,
0000
0110
0000
0010
,
0000
0001
0000
0001
,
0000
1000
0000
1000
,
0000
0000
0010
0000
,
0100
0000
0001
0000
,
0100
0000
0100
0000
,
1000
0000
1000
0000
,
0000
1000
0000
0010
,
0000
0100
0000
1000
,
0000
0100
0000
0010
,
0000
0001
0000
0001
;

//---------------dance-single - ----------------
#NOTES:
     dance-single:
     :
     Easy:
     2:
     :
0000
0000
0000
0000
,
0000
0000
0000
0000
,
0000
0000
0000
0000
,
0000
0000
0000
0000
,
0000
0000
0000
0000
,
0100
0000
0010
0000
,
0100
0000
0010
0000
,
1000
0000
0001
0000
,
1000
0000
0001
0000
,
1000
0000
0100
0000
,
1000
0000
0100
0000
,
0010
0000
0001
0000
,
0010
0000
0001
0000
,
0000
1001
0000
1001
,
0000
1001
0000
1001
,
1000
0000
0001
0000
,
0010
0000
0100
0000
,
0000
0110
0000
0110
,
0000
0110
0000
0010
,
0001
0001
0001
0001
,
1000
1000
1000
1000
,
1000
0000
0010
0000
,
0100
0000
0001
0010
,
0100
0100
0100
0100
,
1000
1000
1000
1000
,
0100
0000
0010
0000
,
0100
0000
0010
0000
,
0001
0000
1000
0000
,
0001
0000
1000
0000
,
0010
0000
0100
0000
,
0010
0000
0100
0000
,
0001
0000
1000
0000
,
0001
0000
1000
0000
,
0000
1000
0000
0100
,
0000
0010
0000
0001
,
0000
0100
0000
0010
,
0000
1000
0000
0100
,
0000
0010
0000
0001
,
0000
0100
0000
0010
,
0000
1000
0000
0100
,
0000
0010
0000
0001
,
0000
1001
0000
1001
,
0000
1001
0000
1001
,
1000
0000
0001
0000
,
0010
0000
0100
0000
,
0000
0110
0000
0110
,
0000
0110
0000
0010
,
0001
0001
0001
0001
,
1000
1000
1000
1000
,
1000
0000
0010
0000
,
0100
0000
0001
0010
,
0100
0100
0100
0100
,
1000
1000
1000
1000
,
0000
1000
0000
0010
,
0000
0100
0001
1000
,
0000
0100
0000
0010
,
0000
0001
1000
0001
;

//---------------dance-single - ----------------
#NOTES:
     dance-single:
     :
     Medium:
     4:
     :
0000
0000
0000
0000
,
0000
0000
0000
0000
,
0000
0000
0000
0000
,
0000
0000
0000
0000
,
0000
0000
0000
0000
,
0000
1000
0001
0010
,
0100
1000
0001
0101
,
0010
1000
0010
0100
,
0001
1000
0100
0010
,
0100
1000
1000
0001
,
0100
0001
0010
0100
,
0010
0001
0001
0010
,
0100
2000
0000
0000
0000
0000
3001
0000
,
1000
1010
0000
0100
,
0001
0101
0100
1020
,
0100
0001
0100
1000
,
0100
0001
0100
1030
,
0100
0110
0000
0001
,
1000
0110
0010
0201
,
0010
1000
0010
0001
,
0010
1000
0010
0301
,
2000
0000
0000
3200
0000
0000
0320
0000
,
0000
0032
0000
0000
1003
0000
0010
0000
,
1000
0100
1000
0001
,
1000
0010
0100
1001
,
0000
0001
0100
0010
,
1000
0001
0010
1001
,
0010
0100
0001
1000
,
0001
1000
0010
0110
,
0010
1000
1000
0001
,
0010
0100
1000
0011
,
0001
1000
0010
0100
,
0001
2000
0000
0000
0000
0000
3100
0000
,
0000
1000
0001
0010
,
0100
0010
0001
1001
,
0010
0100
0001
1000
,
0100
0010
0001
1001
,
0010
0100
0100
0001
,
1000
0001
0010
0100
,
1000
0001
0001
0100
,
0010
2000
0000
0000
0000
0000
3010
0000
,
0100
0101
0000
1000
,
0010
1001
0100
1020
,
0100
0031
1200
0010
,
0301
1002
0100
0013
,
0100
1001
0000
0100
,
0010
1001
0100
0021
,
0100
1030
0201
0010
,
1300
2001
0100
3010
,
0002
0000
0000
0203
0000
0000
0320
0000
,
0000
2030
0000
0000
3001
0000
0010
0000
,
1000
0100
1000
0001
,
0010
0001
0100
1000
,
0001
0100
0010
1000
,
0001
1000
0010
0100
,
0010
0001
1000
0010
,
0100
0001
1000
1001
;

//---------------dance-single - ----------------
#NOTES:
     dance-single:
     :
     Hard:
     7:
     :
0000
0000
0000
0000
,
0000
0000
0000
0000
,
0000
0000
0000
0000
,
0000
0000
0000
0000
,
0000
0000
0000
0000
,
0001
0100
0000
0001
0000
1000
0000
0100
,
1000
0100
0000
0000
0000
0000
0000
0000
,
0010
0100
0000
0010
0000
0100
0000
0010
,
1000
0100
1000
0001
0000
0001
1000
0000
,
1000
0010
0000
0100
0000
0001
0000
0010
,
0001
0010
0000
0000
0000
0000
0000
0000
,
0010
1000
0000
0001
0000
1000
0000
0001
,
0100
0001
0000
0000
0000
0000
0000
0000
,
1001
2000
0000
0000
3001
0000
0100
0000
,
0101
0200
0000
0000
0310
0000
0000
0000
,
0200
0001
0010
0001
,
0001
1000
0001
0301
,
0001
2000
0000
0000
3100
0000
1000
0000
,
0010
0200
0000
0000
0301
0000
0000
0000
,
2000
0010
0010
0001
,
0100
0001
0100
3010
,
0110
0000
0000
0100
0000
0000
0101
0000
0000
0000
0000
0000
1100
0000
0000
1000
,
0000
1001
0000
0000
0001
0100
0001
0100
,
0000
0010
1000
0100
0010
0001
1000
0100
,
0010
1000
0001
0100
0001
1000
0010
0100
,
0100
0001
0000
1000
0000
0010
0000
0010
,
0100
0010
0000
0000
1000
0001
0101
0000
,
1000
0001
0000
1000
0000
0010
0000
0100
,
0001
1000
0000
0010
0000
0010
0000
0000
,
1000
0010
0000
1000
0000
0100
0000
0100
,
1000
0100
0000
0000
0000
0000
0000
0000
,
0010
0001
0000
0100
0000
0010
0000
1000
,
0010
0000
0110
0000
0000
0000
0000
0000
0010
0100
0010
0100
0010
0000
0000
0000
,
1000
0100
0010
0002
0000
0000
0000
0000
,
0000
0003
0010
0001
0010
0100
0000
0000
,
1000
0010
0100
0002
0000
0000
0000
0000
,
0000
0003
0010
0100
0000
0100
0010
0000
,
0001
0010
0100
2000
0000
0000
0000
0000
,
0000
3000
0010
1000
0001
0100
0000
0000
,
1000
0001
0100
0020
0000
0000
0000
0000
,
0000
0030
1000
0100
0000
0100
1000
0000
,
0010
0100
0101
0000
1100
0000
0101
0000
,
1000
0100
0110
0000
1001
0000
0110
0000
,
0000
1000
1000
0100
0100
0010
0010
0001
,
0001
0100
0100
0010
0010
1000
0010
0000
,
0100
0010
1010
0000
0101
0000
1010
0000
,
0010
1000
1100
0000
0011
0000
1100
0000
,
1000
0100
1000
0000
0001
0100
0001
0000
,
1000
0010
1000
0000
0001
0010
0001
0000
,
1000
0000
1000
0000
0000
0110
0000
0000
0000
0000
0000
0000
0001
0000
0001
0000
,
0000
0101
0000
0000
0000
0000
0000
0000
0010
0000
1000
0000
0010
0000
0200
0000
,
0000
0000
0000
0000
,
0000
0000
0000
0300
,
0001
0001
0000
0100
0000
0010
0000
1000
,
0100
1000
0010
0100
0100
0100
0000
0000
,
1000
0010
0100
0002
0000
0000
0000
0000
,
0003
0000
1000
0100
0000
0000
1001
0000
;

//---------------dance-double - ----------------
#NOTES:
     dance-double:
     :
     Beginner:
     2:
     :
00000000
00000000
00000000
00000000
,
00000000
00000000
00000000
00000000
,
00000000
00000000
00000000
00000000
,
00000000
00000000
00000000
00000000
,
00000000
00000000
00000000
00000000
,
01000000
00000000
00100000
00000000
,
00100000
00000000
00000000
00000000
,
00010000
00000000
00000010
00000000
,
00000010
00000000
00000000
00000000
,
00000001
00000000
00001000
00000000
,
01000000
00000000
00000000
00000000
,
10000000
00000000
00010000
00000000
,
00000100
00000000
00000000
00000000
,
00000010
00000000
00000000
00001001
,
00000000
00000110
00000000
00000110
,
00000000
00010000
00000000
00010000
,
00000000
00010000
00000000
10000000
,
00000000
10010000
00000000
10010000
,
00000000
01100000
00000000
01100000
,
00000000
00001000
00000000
00001000
,
00000000
00001000
00000000
00000001
,
00000000
00000000
00000000
00001001
,
00000000
00000000
00001001
00000000
,
00000010
00000000
00000100
00000000
,
00001000
00000000
00001000
00000000
,
00000001
00000000
00000000
00000100
,
00000000
00000000
00001000
00000000
,
00000010
00000000
00000000
00000001
,
00000000
00000000
00000100
00000000
,
00001000
00000000
00000000
00010000
,
00000000
00000000
01000000
00000000
,
10000000
00000000
00000000
00100000
,
00000000
00000000
00010000
00000000
,
00000010
00000000
00000001
00000000
,
00000110
00000000
00000000
00000000
,
00000010
00000000
00000100
00000000
,
00011000
00000000
00000000
00000000
,
00100000
00000000
00010000
00000000
,
01100000
00000000
00000000
00000000
,
00100000
00000000
01000000
00000000
,
00011000
00000000
00000000
00000000
,
00001000
00000000
00000000
00001001
,
00000000
00000110
00000000
00001001
,
00000000
00000010
00000000
00000100
,
00000000
00001000
00000000
00001000
,
00000000
01100000
00000000
10010000
,
00000000
01100000
00000000
10010000
,
00000000
00100000
00000000
01000000
,
00000000
00001000
00000000
00001000
,
00000000
00000000
00000000
00011000
,
00000000
00000000
00001001
00000000
,
00000010
00000000
00000100
00000000
,
00001000
00000000
00001000
00000000
,
00000100
00000000
00010000
00000000
,
10000000
00000000
00000000
00000000
,
01000000
00000000
00001000
00000000
,
00001001
00000000
00000000
00001001
;

//---------------dance-double - ----------------
#NOTES:
     dance-double:
     :
     Easy:
     4:
     :
00000000
00000000
00000000
00000000
,
00000000
00000000
00000000
00000000
,
00000000
00000000
00000000
00000000
,
00000000
00000000
00000000
00000000
,
00000000
00000000
00000000
00000000
,
01000000
10000000
00100000
00010000
,
00200000
00000000
00000000
00300000
,
00010000
00001000
00000010
00000001
,
00000020
00000000
00000000
00000030
,
00000001
00000100
00001000
00010000
,
02000000
00000000
00000000
03000000
,
10000000
01000000
00010000
00001000
,
00000200
00000000
00000000
00000300
,
00000010
00001001
00000000
00001001
,
00001000
00000110
00000000
00000110
,
00001000
00010000
01000000
00010000
,
00001000
00010000
01000000
10000000
,
00100000
10010000
00000000
10010000
,
00010000
01100000
00000000
01100000
,
00010000
00001000
00000100
00001000
,
00010000
00001000
00000100
00000001
,
00001001
00000000
00000000
00000110
00000000
00000000
00001001
00000000
,
00000000
00000110
00000000
00000000
00001001
00000000
00000110
00000000
,
00000010
00000010
00000100
00000100
,
00001000
00000001
00001000
00000001
,
00000001
00000100
00000000
00000100
,
00001000
00000000
00001000
00000010
,
00000010
00000001
00000000
00000001
,
00000100
00000000
00000100
00001000
,
00001000
00010000
00000000
00010000
,
01000000
00000000
01000000
10000000
,
10000000
00100000
00000000
00100000
,
00010000
00000000
00010000
00011000
,
00000010
00001000
00000001
00000010
,
00000220
00000000
00000000
00000330
,
00000010
00000001
00000100
00001000
,
00022000
00000000
00000000
00033000
,
00100000
10000000
00010000
00100000
,
02200000
00000000
00000000
03300000
,
00100000
10000000
01000000
00010000
,
00022000
00000000
00000000
00033000
,
00001000
00000110
00000000
00001001
,
00000001
00000110
00000000
00001001
,
00000010
00000010
00000100
00000100
,
00010000
00001000
00010000
00001000
,
00010000
01100000
00000000
10010000
,
10000000
01100000
00000000
10010000
,
00100000
00100000
01000000
01000000
,
00010000
00001000
00010000
00001000
,
00110000
00000000
00000000
01010000
00000000
00000000
00011000
00000000
,
00000000
00001100
00000000
00000000
00001010
00000000
00001001
00000000
,
00000010
00000010
00000100
00000100
,
00001000
00000001
00001000
00000001
,
00000100
00001000
00010000
01000000
,
20000000
00000000
00000000
30000000
,
01000000
00010000
00001000
00000100
,
00002002
00000000
00003003
00001001
;

//---------------dance-double - ----------------
#NOTES:
     dance-double:
     :
     Medium:
     6:
     :
00000000
00000000
00000000
00000000
,
00000000
00000000
00000000
00000000
,
00000000
00000000
00000000
00000000
,
00000000
00000000
00000000
00000000
,
00000000
00000000
00000000
00000000
,
00000001
00001000
00000001
00000000
00000000
00001000
00000001
00000000
,
00000100
00001000
00000100
00000000
00000000
00001000
00000100
00000000
,
00001000
00010000
00001000
00000000
00000000
00010000
00001000
00000000
,
00010000
01000000
00010000
00000000
00000000
01000000
00010000
00000000
,
01000000
10000000
01000000
00000000
00000000
10000000
01000000
00000000
,
10000000
00010000
10000000
00000000
00000000
00010000
10000000
00000000
,
00010000
10000000
00010000
00000000
00000000
10000000
00010000
00000000
,
10000000
00100000
10000000
00000000
00100000
00000000
10010000
00000000
,
01000000
00010000
01000000
00000000
00000000
00000000
01000000
00000000
,
00010000
00001000
00010000
00000000
00001000
00000000
00000100
00000000
,
00000100
00000010
00000010
00001000
,
00001000
00000001
00000001
00000100
,
00000100
00001000
00000100
00000000
00000000
00000000
00000100
00000000
,
00001000
00010000
00001000
00000000
00010000
00000000
01000000
00000000
,
01000000
00100000
00100000
00010000
,
00010000
10000000
10000000
01000000
,
10010000
00000000
00000000
01100000
00000000
00000000
01100000
00000000
,
00000000
10010000
00000000
00000000
01100000
00000000
01100000
00000000
,
10010000
01000000
00001000
00010000
,
00000100
00001000
00000001
00000100
,
00000001
00000001
00001000
00000000
00000000
00000001
00001000
00000000
,
00000010
00000010
00000100
00000000
00000000
00000010
00000100
00000000
,
00001000
00001000
00010000
00000000
00000000
00001000
00010000
00000000
,
00100000
00100000
01000000
00000000
00000000
00100000
01000000
00000000
,
10000000
10000000
00010000
00000000
00000000
10000000
00010000
00000000
,
00100000
00100000
01000000
00000000
00000000
00100000
01000000
00000000
,
00010000
00010000
00001000
00000000
00000000
00010000
00001000
00000000
,
00022000
00000000
00000000
00033000
00010000
00001000
00011000
00000000
,
00010000
00100000
00010000
00011000
,
00010000
00001000
00000010
00000110
,
00000100
00001000
00010000
00011000
,
00010000
00001000
00000100
00001100
,
00001000
00000100
00001000
00011000
,
00001000
00010000
01000000
01100000
,
00100000
00010000
00001000
00011000
,
00001000
00010000
00100000
00110000
,
00010000
00100000
00010000
00000000
00000000
00000000
10100000
00000000
,
00100000
10000000
00100000
00000000
10000000
00000000
11000000
00000000
,
01000000
00010000
01010000
01010000
,
00010000
00001000
00011000
00011000
,
00001000
00000100
00001000
00000000
00000000
00000000
00000101
00000000
,
00000100
00000001
00000100
00000000
00000001
00000000
00000011
00000000
,
00000010
00001000
00001010
00001010
,
00001000
00010000
00011000
00011000
,
00001010
00000000
00000000
00011000
00000000
00000000
01010000
00000000
,
00000000
00011000
00000000
00000000
00011000
00000000
00011000
00000000
,
00001000
00000100
00000011
00001100
,
00010000
00001000
00011000
00011000
,
00001000
00010000
00001000
00000000
00000000
00010000
00010000
00000000
,
00010000
00001000
00010000
00000000
00000000
00001000
00001000
00000000
,
00001000
00001000
00010000
00000000
00000000
00010000
00010000
00000000
,
00002000
00020000
00033000
00000000
00010000
00001000
00011000
00000000
;

//---------------dance-double - ----------------
#NOTES:
     dance-double:
     :
     Hard:
     7:
     :
00000000
00000000
00000000
00000000
,
00000000
00000000
00000000
00000000
,
00000000
00000000
00000000
00000000
,
00000000
00000000
00000000
00000000
,
00000000
00000000
00000000
00000000
,
00100000
01000000
00000000
00010000
00000000
10000000
00000000
01000000
,
10000000
01000000
00000000
00000000
00000000
00000000
00000000
00000000
,
00010000
00001000
00000000
00010000
00000000
00000100
00000000
00001000
,
00000001
00001000
00000000
00000000
00000000
00000000
00000000
00000000
,
00000100
00001000
00000000
00000001
00000000
00000010
00000000
00000100
,
00001000
00000100
00000000
00000000
00000000
00000000
00000000
00000000
,
00010000
00001000
00000000
00010000
00000000
01000000
00000000
10000000
,
00100000
10000000
00000000
00000000
00000000
00000000
00000000
00000000
,
10010000
20010000
00000000
00000000
30010000
00000000
01000000
00000000
,
01100000
02100000
00000000
00000000
03100000
00000000
00010000
00000000
,
00001000
00010000
00100000
00010000
,
00001000
00000010
00001000
00010000
,
00011000
00021000
00000000
00000000
00031000
00000000
00000100
00000000
,
00000110
00000120
00000000
00000000
00000130
00000000
00000001
00000000
,
00001000
00000100
00010000
00001000
,
01000000
00001000
00010000
00001000
,
01010000
00000000
00000000
11000000
00000000
00000000
01010000
00000000
,
00000000
11000000
00000000
00000000
00100000
00010000
10000000
00100000
,
00000000
10000000
01000000
00100000
00010000
01000000
00100000
00010000
,
00001000
00000100
00000010
00001000
00000100
00000010
00000001
00000100
,
00000010
00000100
00000000
00000001
00000000
00001000
00000000
00000001
,
00000100
00000001
00000000
00000000
00001000
00000010
00001001
00000000
,
00000100
00001000
00000000
00010000
00000000
01000000
00000000
10000000
,
00010000
10000000
00000000
01100000
00000000
01100000
00000000
00000000
,
10000000
00100000
00000000
10000000
00000000
01000000
00000000
00010000
,
00001000
00010000
00000000
00000010
00000000
00000000
00000000
00000000
,
00000100
00000001
00000000
00000010
00000000
00000001
00000000
00001000
,
00000001
00000000
00001001
00000000
00000000
00000000
00000000
00000000
00001000
00000001
00001000
00000001
00001000
00000000
00000000
00000000
,
00000001
00000100
00000010
00000200
00000000
00000000
00000000
00000000
,
00000000
00000300
00001000
00010000
00100000
01000000
00000000
00000000
,
10000000
01000000
00010000
00200000
00000000
00000000
00000000
00000000
,
00000000
00300000
00010000
10000000
00000000
00010000
10000000
00000000
,
00010000
00100000
01000000
20000000
00000000
00000000
00000000
00000000
,
00000000
30000000
00100000
10000000
01000000
00010000
00000000
00000000
,
00001000
00000100
00000001
00000020
00000000
00000000
00000000
00000000
,
00000000
00000030
00000001
00001000
00000000
00001000
00000001
00000000
,
00001100
00000102
00000000
00000000
00000100
00000000
00000013
00000000
,
00000011
00002010
00000000
00000000
00003010
00000000
00000100
00000000
,
00000000
00000001
00000100
00001000
00000100
00000001
00000100
00001000
,
00010000
01000000
10000000
01000000
00010000
01000000
10000000
00000000
,
10010000
02100000
00000000
00000000
03100000
00000000
01000000
00000000
,
01100000
10020000
00000000
00000000
10030000
00000000
00010000
00000000
,
10000000
01000000
10000000
00000000
00010000
01000000
00010000
00000000
,
10000000
00100000
10000000
00000000
00010000
00100000
00010000
00000000
,
11000000
00000000
00000000
00110000
00000000
00000000
01010000
00000000
,
00000000
10100000
00000000
00000000
10000000
01000000
00020000
00002000
,
00000000
00000000
00000000
00000000
,
00000000
00000000
00000000
00033000
,
00000100
00000100
00000000
00000010
00000000
00000100
00000000
00000001
,
00001000
00000001
00000000
00000000
00000000
00000000
00000000
00000000
,
00000001
00000010
00001000
00020000
00000000
00000000
00000000
00000000
,
00030000
00000000
00001000
00010000
00000000
00000000
00011000
00000000
;
