#TITLE:Life Is A Game;
#ARTIST:Arctic Blue;
#BANNER:Life Is A Game.png;
#BACKGROUND:Life Is A Game-bg.png;
#CDTITLE:./CDTITLES/DANCE DANCE REVOLUTION ULTRAMIX 2.PNG;
#MUSIC:Life Is A Game.ogg;
#SAMPLESTART:70.59;
#SAMPLELENGTH:15;
#DISPLAYBPM:141;
#BPMS:0=141;

//---------------dance-single - ----------------
#NOTES:
     dance-single:
     :
     Beginner:
     2:
     :
0000
0000
0000
0000
,
0000
0000
0000
0000
,
0000
0000
0000
0000
,
0000
0000
0000
0000
,
0000
0000
0000
0000
,
1001
0000
0000
0000
,
0100
0000
0000
0000
,
0001
0000
0000
0000
,
1000
0000
0000
0000
,
1000
0000
1000
0000
,
1000
0000
1000
0000
,
0001
0000
0001
0000
,
0001
0000
0001
0000
,
1000
0000
0001
0000
,
1000
0000
0010
0000
,
1000
0000
0010
0000
,
0100
0000
0100
0000
,
0110
0000
0000
0000
,
0001
0000
0000
0001
,
0000
0100
0000
0010
,
0000
1000
0000
0100
,
0000
0001
0000
1000
,
0000
0100
0000
0010
,
0000
0100
0000
0010
,
0000
0100
0000
1000
,
0000
0000
0000
0000
,
1000
0000
1000
0000
,
0010
0000
0010
0000
,
1000
0000
1000
0000
,
0100
0000
0100
0000
,
0100
0000
0001
0000
,
0100
0000
1000
0000
,
0010
0000
0001
0000
,
0010
0000
1000
0000
,
0001
0000
1000
0000
,
1000
0000
0001
0000
,
0100
0000
0010
0000
,
0010
0000
0100
0000
,
1000
0000
0010
0000
,
0001
0000
0010
0000
,
0100
0000
0100
0000
,
1001
0000
0010
0000
,
0100
0000
1000
0000
,
0010
0000
0100
0000
,
0010
0000
0100
0000
,
0001
0000
1000
0000
,
1000
0000
0001
0000
,
0100
0000
1000
0000
,
0100
0000
0001
0000
,
0001
0000
0001
0000
,
1000
0000
1000
0000
,
0001
0000
0110
0000
,
1000
0000
0010
0000
,
1001
0000
0100
0000
,
1001
0000
0001
0000
,
1001
0000
0100
0000
,
1001
0000
1000
0000
,
1001
0000
0001
0000
,
1001
0000
0000
0000
;

//---------------dance-single - ----------------
#NOTES:
     dance-single:
     :
     Easy:
     3:
     :
0000
0000
0000
0000
,
0000
0000
0000
0000
,
0000
0000
0000
0000
,
0000
0000
0000
0000
,
0000
0000
0000
0000
,
2002
0000
0000
3003
,
0200
0000
0000
0300
,
0002
0000
0000
0003
,
2000
0000
0000
3000
,
1000
0000
1000
0000
,
1000
0000
1000
0000
,
0001
0000
0001
0000
,
0001
0000
0001
0000
,
1000
0000
0001
0000
,
1000
0000
0010
0000
,
1000
0000
0010
0000
,
0100
0010
0100
0010
,
0220
0000
0000
0330
,
0001
1000
0000
0001
,
0010
0100
0000
0010
,
0100
1000
0000
0100
,
1000
0001
0000
1000
,
0001
0100
0000
0010
,
1000
0100
0000
0010
,
0001
0100
0010
1000
,
2002
0000
0000
3003
,
1000
0001
1000
0000
,
0010
0100
0010
0000
,
1000
0001
1000
0000
,
0100
0010
0100
0000
,
0100
0010
0001
0000
,
0100
0010
1000
0000
,
0010
0100
0001
0000
,
0010
0100
1000
0000
,
0001
0001
1000
0000
,
1000
1000
0001
0000
,
0100
0100
0010
0000
,
0010
0010
0100
0000
,
1000
0001
0010
0000
,
0001
1000
0010
0000
,
0100
0010
0100
0010
,
2002
3003
0010
0001
,
0100
0001
1000
0000
,
0010
1000
0100
0000
,
0010
0001
0100
0000
,
0001
0100
1000
0000
,
1000
0100
0001
0000
,
0100
0010
1000
0000
,
0100
0010
0001
0000
,
0001
1000
0001
0000
,
1000
0001
1000
0000
,
0001
0001
0110
1000
,
1000
0000
0010
0010
,
1001
0100
0100
0000
,
1001
1000
0001
0000
,
1001
0001
0100
0000
,
0011
1000
1000
0001
,
1010
0001
0001
1000
,
1001
0000
0000
0000
;

//---------------dance-single - ----------------
#NOTES:
     dance-single:
     :
     Medium:
     5:
     :
0000
0000
0000
0000
,
0000
0000
0000
0000
,
0000
0000
0000
0000
,
0000
0000
0000
0000
,
0000
0000
0000
0000
,
0001
0000
0010
0000
,
0100
0000
0010
0000
,
1000
0000
1000
0000
,
0010
0000
0100
0000
,
1000
0001
0000
0001
2000
0000
3000
0000
,
0010
0100
0000
0100
0020
0000
0030
0000
,
0001
0001
0000
1000
2000
0000
3000
0000
,
0001
0100
0000
0010
2000
0000
3000
0000
,
1000
0100
0000
0010
0002
0000
0003
0000
,
1000
0001
0000
1000
0002
0000
0003
0000
,
0001
1000
0000
0001
2000
0000
3000
0000
,
1000
0100
0010
0001
,
2002
0000
0000
3003
,
0001
1000
0001
0000
1000
0000
1000
0000
,
0010
0100
0010
0000
0100
0000
0100
0000
,
0100
0001
0100
0000
0001
0000
0001
0000
,
1000
0010
1000
0000
0010
0000
0010
0000
,
1000
0100
1000
0000
0100
0000
0100
0000
,
0010
0001
0010
0000
0001
0000
0001
0000
,
0001
1000
0001
0000
1001
0000
0110
0000
,
2002
0000
3003
0001
,
1001
0011
1100
0100
,
0010
1001
0110
0011
,
0010
0100
1100
0011
,
0110
0010
0001
1001
,
0110
1010
1000
0010
,
1010
1001
0011
0001
,
0010
0011
1001
0011
,
0000
0101
1001
0110
,
0001
0100
0001
0000
1000
0000
0001
0000
,
1000
0100
1000
0000
0001
0000
1000
0000
,
0010
0100
0010
0000
1000
0000
0100
0000
,
0010
0100
0010
0000
0001
0000
0100
0000
,
0100
0010
1000
0000
0001
0000
1000
0000
,
0100
0010
0001
0000
1000
0000
0001
0000
,
1001
1010
0101
0110
,
2002
0000
3003
0000
0001
1000
0001
0000
,
0010
0001
1000
0001
,
0100
0000
0001
0200
0000
0000
0310
1000
,
0000
0000
1000
0001
1000
0000
0100
0000
,
0001
0000
0100
0001
1000
0000
0100
1000
,
0001
0000
0000
0000
0100
0000
0010
1000
,
0100
0000
0010
0001
1000
0000
0100
0000
,
0001
0000
0010
0001
0100
0000
0001
1000
,
0010
0000
1000
0000
0100
0000
0010
0001
,
0100
1000
0100
0001
,
0001
1000
0001
0000
1000
0000
1000
0001
,
0100
0000
0001
0000
0100
0010
0100
0000
,
1001
0000
0010
0100
0010
0000
0100
0000
,
1001
0000
0010
0000
0100
0001
1000
0000
,
0100
0000
0100
1000
0001
0000
0100
0000
,
0011
0000
1000
0001
0100
0000
1001
0000
,
0100
0000
0101
0000
1000
0001
0010
1000
,
0001
0000
0000
0000
;

//---------------dance-single - ----------------
#NOTES:
     dance-single:
     :
     Hard:
     7:
     :
0000
0000
0000
0000
,
0000
0000
0000
0000
,
0000
0000
0000
0000
,
0000
0000
0000
0000
,
0000
0000
0000
0000
,
1001
0100
0001
0100
,
0110
0100
1000
0100
,
0101
0010
0100
1000
,
1100
0001
0010
0100
,
1000
0100
1000
0100
0100
0000
1001
0000
,
0010
0100
0001
0100
1000
0000
1001
0000
,
1000
0100
0001
0100
1000
0000
0110
0000
,
0001
1000
0001
1000
1000
0000
0011
0000
,
0100
0001
0100
0000
0100
1000
0100
0000
,
0010
1000
0010
0100
0001
0100
0001
0000
,
0100
0010
0100
0000
0010
0001
0010
0000
,
0001
1000
0001
0010
0100
1000
0100
0010
,
0002
0000
0000
0003
,
0010
0100
1000
0100
0001
0100
0001
0100
,
1000
0100
0010
0001
0100
0001
1000
0000
,
0001
0100
0001
0100
1000
0100
0010
0100
,
0001
0010
0100
1000
0100
0000
1001
0000
,
0100
1000
0100
0001
0100
0001
1000
0100
,
0010
0100
0010
0001
0010
0100
1000
0000
,
0010
0100
0010
0001
0100
1000
0100
0010
,
0100
1000
0100
1000
0100
0000
0110
0000
,
0001
0100
0000
0100
0001
0000
0010
0100
,
0100
0010
0000
0001
0100
0000
0100
1000
,
1000
0100
0000
0010
0100
0000
0100
0001
,
0001
0100
0000
1001
0000
0010
0001
0100
,
0001
0010
0000
0010
0100
0000
0100
1000
,
1000
0100
0000
0100
0001
0000
0001
0010
,
0010
0100
0000
1000
0100
0000
0010
0001
,
0010
0000
0100
1000
0100
0000
0010
0100
,
0010
0000
0010
0001
0000
1000
0001
0001
,
1000
0000
0100
0001
0000
0100
1000
1000
,
0100
0000
0010
0100
0000
0100
1000
0010
,
0100
0001
1000
0001
0100
0010
1000
0000
,
1001
0000
0010
0100
0000
0010
1000
1000
,
0001
0000
0001
1000
0000
0100
0010
0001
,
0100
0000
1000
0100
0000
0010
0100
1000
,
0100
0001
0100
0001
0100
1000
0100
0000
,
0010
0100
0000
0001
0100
0000
0100
1000
,
1000
0100
0000
0001
1000
0000
0010
0100
,
0001
0100
0000
0001
0100
0000
1000
0100
,
1000
0100
0010
0001
0010
0001
0100
0000
,
1001
0000
0000
0000
0100
0010
0100
0000
,
0010
0001
0100
1000
0100
0000
0100
0000
,
1001
0000
0000
0110
0000
0000
1001
0000
,
0010
1000
0100
0000
0010
0001
0100
0000
,
0100
1000
0000
1001
0000
0000
0110
0000
,
0010
1000
0100
0001
0100
1000
0010
0000
,
0100
0001
0000
0110
0000
0000
1001
0000
,
0100
0001
0100
1000
0100
1000
0001
0000
,
1010
0000
0101
0000
,
1001
0100
1001
0010
,
0100
1000
0100
0000
1000
0010
1000
0000
,
1001
0110
1100
0101
,
1001
0000
0000
0000
;

//---------------dance-double - ----------------
#NOTES:
     dance-double:
     :
     Beginner:
     2:
     :
00000000
00000000
00000000
00000000
,
00000000
00000000
00000000
00000000
,
00000000
00000000
00000000
00000000
,
00000000
00000000
00000000
00000000
,
00000000
00000000
00000000
00000000
,
10010000
00000000
00000000
00000000
,
01000000
00000000
00000000
00000000
,
00010000
00000000
00000000
00000000
,
00001000
00000000
00000000
00000000
,
00010000
00000000
01000000
00000000
,
10000000
00000000
01000000
00000000
,
00010000
00000000
00100000
00000000
,
10000000
00000000
00100000
00000000
,
00001000
00000000
00000010
00000000
,
00000001
00000000
00000010
00000000
,
00001001
00000000
00000110
00000000
,
00001001
00000000
00000110
00000000
,
00000110
00000000
00000000
00000000
,
00000100
00000000
00000000
00001000
,
00000000
00000000
00010000
00000000
,
00000000
00100000
00000000
00000000
,
01000000
00000000
00000000
00000000
,
10010000
00000000
01000000
00000000
,
00010000
00000000
00010000
00000000
,
00001000
00000000
00001000
00000000
,
00000100
00000000
00000100
00000000
,
00000100
00000000
00000000
00001000
,
00000000
00000000
00010000
00000000
,
00000000
00100000
00000000
00000000
,
01000000
00000000
00000000
00000000
,
10010000
00000000
01000000
00000000
,
00010000
00000000
00010000
00000000
,
00001000
00000000
00001000
00000000
,
00000100
00000000
00000100
00000000
,
00011000
00000000
00000100
00000000
,
00001001
00000000
00001000
00000000
,
00001001
00000000
00000010
00000000
,
00000110
00000000
00000100
00000000
,
00011000
00000000
00100000
00000000
,
01100000
00000000
00010000
00000000
,
01100000
00000000
01000000
00000000
,
10010000
00000000
00100000
00000000
,
00011000
00000000
00000100
00000000
,
00000100
00000000
00001000
00000000
,
00001000
00000000
00001000
00000000
,
00001000
00000000
00010000
00000000
,
00010000
00000000
00010000
00000000
,
00010000
00000000
01000000
00000000
,
01000000
00000000
00010000
00000000
,
00011000
00000000
00001000
00000000
,
00000001
00000000
00000001
00000000
,
00001000
00000000
00010000
00000000
,
10000000
00000000
10000000
00000000
,
00010000
00000000
00001000
00000000
,
00000010
00000000
00010000
00000000
,
01000000
00000000
00001000
00000000
,
00000100
00000000
00011000
00000000
,
00011000
00000000
00011000
00000000
,
00011000
00000000
00000000
00000000
;

//---------------dance-double - ----------------
#NOTES:
     dance-double:
     :
     Easy:
     3:
     :
00000000
00000000
00000000
00000000
,
00000000
00000000
00000000
00000000
,
00000000
00000000
00000000
00000000
,
00000000
00000000
00000000
00000000
,
00000000
00000000
00000000
00000000
,
20020000
00000000
00000000
30030000
,
02000000
00000000
00000000
03000000
,
00020000
00000000
00000000
00030000
,
00002000
00000000
00000000
00003000
,
00010000
00000000
01000000
00000000
,
10000000
00000000
01000000
00000000
,
00010000
00000000
00100000
00000000
,
10000000
00000000
00100000
00000000
,
00001000
00000000
00000010
00000000
,
00000001
00000000
00000010
00000000
,
00001001
00000000
00000110
00000000
,
00001001
00000110
00000110
00001001
,
00000220
00000000
00000000
00000330
,
00000100
00000010
00000000
00001000
,
00000100
00000000
00010000
00001000
,
00000000
00100000
00010000
00000000
,
01000000
00100000
00000000
00000000
,
10010000
00000000
01000000
00001000
,
00010000
00000000
00010000
00000100
,
00001000
00000000
00001000
00000001
,
00000100
00000000
00000100
00001000
,
00000100
00000010
00000000
00001000
,
00000100
00000000
00010000
00001000
,
00000000
00100000
00010000
00000000
,
01000000
00100000
00000000
00000000
,
10010000
00000000
01000000
00001000
,
00010000
00000000
00010000
00000100
,
00001000
00000000
00001000
00000001
,
00000100
00000000
00000100
00001000
,
00011000
00000000
00000100
00000010
,
00001010
00000000
00001000
00000001
,
00000011
00000000
00000010
00000100
,
00000101
00000000
00000100
00001000
,
00011000
00000000
00100000
01000000
,
01010000
00000000
00010000
10000000
,
11000000
00000000
01000000
00100000
,
10100000
00000000
00100000
00010000
,
00011000
00000000
00000100
00000010
,
00000100
00000000
00001000
00000001
,
00001000
00000000
00001000
00000100
,
00001000
00000000
00010000
01000000
,
00010000
00000000
00010000
10000000
,
00010000
00000000
01000000
00100000
,
01000000
00000000
00010000
00001000
,
00011000
00000000
00001000
00000010
,
00000001
00000000
00000001
00000100
,
00001000
00000000
00010000
01000000
,
10000000
00000000
10000000
00100000
,
00010000
00000000
00001000
00010000
,
00000010
00000000
00010000
00001000
,
01000000
00000000
00001000
00010000
,
00000100
00000000
00011000
00000000
,
00011000
00011000
00011000
00011000
,
00011000
00000000
00000000
00000000
;

//---------------dance-double - ----------------
#NOTES:
     dance-double:
     :
     Medium:
     5:
     :
00000000
00000000
00000000
00000000
,
00000000
00000000
00000000
00000000
,
00000000
00000000
00000000
00000000
,
00000000
00000000
00000000
00000000
,
00000000
00000000
00000000
00000000
,
10000000
00000000
01000000
00000000
,
00100000
00000000
01000000
00000000
,
00010000
00000000
00001000
00000000
,
00000100
00000000
00000100
00000000
,
00000001
00000100
00001000
00000100
,
00000001
00000010
00001000
00000010
,
00000100
00010000
00001000
00100000
,
01000000
10000000
00010000
01000000
,
20020000
00000000
30030000
00000000
,
00022000
00000000
00033000
00000000
,
00002002
00003003
00000220
00000330
,
00001010
00000011
00000110
00001001
,
00002002
00000000
00000000
00003003
,
00000010
00001000
00000000
00000101
,
00000010
00010000
00000000
00010010
,
00001000
00000100
00000000
00000011
,
00000001
00001000
00000000
00011000
,
00100000
00010000
00000000
11000000
,
00010000
01000000
00000000
10100000
,
01000000
00100000
00000000
01100000
,
00010000
10000000
00000000
10010000
,
00010000
10000000
00010000
00000000
00000000
00000000
10010000
00000000
,
00100000
01000000
00100000
00000000
00000000
00000000
01100000
00000000
,
00010000
00001000
00010000
00000000
00000000
00000000
00011000
00000000
,
00000010
00000100
00000010
00000000
00000000
00000000
00000110
00000000
,
00000100
00000001
00000100
00000000
00000000
00000000
00000101
00000000
,
00000010
00001000
00000010
00000000
00000000
00000000
00001010
00000000
,
00000100
00001000
00010000
00000000
00000000
00000000
00011000
00000000
,
00010000
01000000
10000000
00000000
00000000
00000000
11000000
00000000
,
10000000
01000000
00010000
01010000
,
00010000
00000010
00001000
00001010
,
00001000
00000100
00000001
00000101
,
00000100
00001000
00000010
00001010
,
00000010
00001000
00010000
00011000
,
00010000
01000000
10000000
11000000
,
01000000
00100000
01000000
00100000
,
01100000
00000000
00000000
00000000
10000000
01000000
10000000
00000000
,
00020000
00000000
10000000
10000000
,
00030000
00000000
00100000
00100000
00000000
00000000
00001000
00002000
,
00000000
00000000
00010000
00010000
,
00003000
00000000
00000010
00000010
00000000
00000000
00000100
00000200
,
00000000
00000000
00001000
00001000
,
00000300
00000000
00000010
00000000
00000010
00000000
00000001
00000002
,
00000000
00000000
00000100
00000100
,
00000003
00001000
00001000
00000000
,
00000010
00000001
00000100
00000000
00000010
00000000
00001100
00000000
,
00001000
00000100
00010000
00000000
00001000
00000000
00010010
00000000
,
00001000
01000000
00010000
00000000
00100000
00000000
01010000
00000000
,
10000000
00100000
01000000
00000000
01000000
00000000
01100000
00000000
,
00010000
10000000
01000000
00000000
00010000
00000000
01010000
00000000
,
00100000
00001000
00010000
00000000
00001000
00000000
00011000
00000000
,
00000010
00000001
00001000
00000000
00000100
00001000
00000001
00000000
,
00000010
00000001
00001000
00000010
00000100
00000001
00000100
00000100
;

//---------------dance-double - ----------------
#NOTES:
     dance-double:
     :
     Hard:
     8:
     :
00000000
00000000
00000000
00000000
,
00000000
00000000
00000000
00000000
,
00000000
00000000
00000000
00000000
,
00000000
00000000
00000000
00000000
,
00000000
00000000
00000000
00000000
,
00011000
00000000
00000000
00000000
,
00000000
00000000
00000000
00010000
00000000
00000000
00000000
00000100
00000000
00000000
00000000
00000000
00000010
00000000
00000200
00000000
,
00000000
00000000
00000000
00000000
,
00000300
00000000
00000001
00000100
00001000
00000000
00000010
00000000
,
00002002
00000000
00000000
00003003
,
00000000
00000000
00000010
00000100
00000010
00000000
00000100
00020000
,
00000000
00002000
00000000
00000000
00000000
00000000
00000000
00000000
00000000
00000000
00000000
00000000
00000000
00000000
00000000
00000000
,
00000000
00000000
00033000
00000000
00010000
01000000
10000000
00000000
,
20020000
00000000
00000000
30030000
,
02200000
00000000
00000000
03300000
,
22000000
33000000
02020000
03030000
,
10000000
00010000
10000000
00010000
,
20020000
00000000
00000000
30030000
,
00100000
00000000
00001000
00000000
00010000
00100000
10000000
00000000
,
00010000
00100000
10000000
00100000
01000000
00010000
01000000
00000000
,
10000000
00000000
00010000
00000000
00100000
00001000
00010000
00000000
,
00100000
00010000
00001000
00100000
00010000
01000000
00100000
00000000
,
00010000
00001000
00000100
00000000
00001000
00000100
00000001
00000000
,
00000100
00000010
00000100
00000001
00000010
00001000
00000010
00000000
,
00000100
00001000
00000010
00000000
00000100
00000001
00001000
00000000
,
00000011
00001100
00001010
00000101
,
00000010
00000000
00000001
00000100
00001000
00000000
00001000
00000100
,
00000010
00000000
00001000
00000100
00010000
00000000
00100000
10000000
,
01000000
00000000
00010000
01000000
00100000
00000000
01000000
00100000
,
00001000
00000000
00010000
01000000
10000000
00000000
00100000
10000000
,
00010000
00000000
01000000
00001000
00100000
00000000
00010000
00000010
,
00000001
00000000
00001000
00000100
00010000
00000000
00000100
00001000
,
00000001
00000000
00000010
00000001
00000100
00000000
00000010
00001000
,
00000100
00000001
00000100
00010000
00001000
01000000
00100000
00000000
,
10000000
01000000
00000000
00000000
10000000
00000000
01000000
00000000
00100000
00010000
00000000
00000000
00100000
00000000
00010000
00000000
,
10000000
00010000
00000000
00000000
10000000
00000000
01000000
00000000
00100000
01000000
00000000
00000000
00100000
00000000
00010000
00000000
,
01000000
00001000
00000000
00000000
00010000
00000000
00001000
00000000
00010000
00000100
00000000
00000000
00001000
00000000
00000010
00000000
,
00001000
00000100
00000000
00000000
00000010
00000000
00000001
00000000
00001000
00000100
00000000
00000000
00000010
00000000
00000001
00000000
,
00000100
00000010
00000000
00000000
00010000
00000000
00001000
00000000
00000010
00000001
00000000
00000000
00001000
00000000
00000001
00000000
,
00000010
00000100
00000000
00000000
00010000
00000000
01000000
00000000
10000000
01000000
00000000
00000000
00100000
00000000
01000000
00000000
,
10000000
00010000
00000000
00000000
01000000
00000000
00100000
00000000
01000000
00010000
00000000
00000000
10000000
00000000
01000000
00000000
,
10000000
00100000
01000000
00001000
00010000
00100000
10000000
00000000
,
00000000
01000000
00100000
00001000
00000000
00010000
01000000
00010000
,
00000000
00001000
00000100
00001000
00000000
00000100
00000010
00001000
,
00000000
00000001
00000010
00000100
00000000
00000001
00000100
00001000
,
00000000
00000100
00010000
00100000
00000000
10000000
00010000
01000000
,
00000000
00010000
01000000
00010000
10000000
01000000
10000000
00100000
,
00000000
01000000
00001000
01000000
00100000
00010000
00001000
00000100
,
00000000
00000010
00010000
00001000
00010000
00000010
00001000
00000100
,
00000000
00001000
00000100
00000010
00000010
00000100
00001000
00000000
,
00000001
00000010
00000001
00000000
00000100
00000000
00000100
00000000
00000010
00001000
00000010
00000000
00000100
00000000
00000100
00000000
,
00000001
00001000
00000001
00000000
00000010
00000000
00000010
00000000
00000100
00001000
00000100
00000000
00010000
00000000
00010000
00000000
,
00001000
00010000
00001000
00000000
01000000
00000000
01000000
00000000
00100000
10000000
00100000
00000000
01000000
00000000
01000000
00000000
,
00001000
00010000
00001000
00000000
00000100
00000000
00000100
00000000
00000001
00001000
00000001
00000000
00000010
00000000
00000010
00000000
,
00001000
00000010
00001000
00010000
00000010
00001000
00000100
00010000
,
00001000
00000100
00001000
00010000
00100000
00010000
00001000
00100000
,
00010000
01000000
00001000
00010000
01000000
00100000
00010000
10000000
,
11000000
10100000
00110000
01010000
,
10010000
00000000
00000000
00000000
;
