#TITLE:La Cucaracha;
#ARTIST:Big Idea;
#BANNER:La Cucaracha.png;
#BACKGROUND:La Cucaracha-bg.png;
#MUSIC:La Cucaracha.ogg;
#SAMPLESTART:38.7;
#SAMPLELENGTH:15;
#DISPLAYBPM:165;
#BPMS:0=165;
#BGCHANGES:1.5=La Cucaracha.avi=1=1=0=0,251=La Cucaracha-bg.png=1=0=0=1;

//---------------dance-single - ----------------
#NOTES:
     dance-single:
     :
     Beginner:
     1:
     :
0000
0000
0000
0000
,
0000
0000
0000
0000
,
0000
0000
0000
0000
,
2000
0000
0000
3000
,
2000
0000
0000
3000
,
0000
0001
0001
0001
,
0001
0000
0000
0000
,
0002
0000
0000
0003
,
0002
0000
0000
0003
,
0000
1000
1000
1000
,
1000
0000
0000
0000
,
0010
0010
0010
0010
,
0010
0010
0010
0000
,
0100
0100
0100
0100
,
0100
0100
0100
0000
,
0001
0000
0001
0000
,
0001
0000
0001
0000
,
0001
0000
0001
0000
,
0100
0100
0100
0100
,
0100
0000
1000
0000
,
0010
0000
1000
0000
,
0100
0000
0001
0000
,
0010
0000
0001
0000
,
0010
0000
1000
0000
,
0100
0000
1000
0000
,
0010
0000
0001
0000
,
0100
0000
0001
0000
,
1001
0000
0000
0000
,
1001
0000
0000
0000
,
0000
0010
0010
0010
,
0010
0000
0000
0000
,
0110
0000
0000
0000
,
0110
0000
0000
0000
,
0000
0100
0100
0100
,
0200
0000
0000
0300
,
0000
0000
0000
0000
,
0000
0000
0000
0000
,
0020
0000
0000
0030
,
0020
0000
0000
0030
,
0000
1000
1000
1000
,
1000
0000
0000
0000
,
0200
0000
0000
0300
,
0200
0000
0000
0300
,
0100
0100
0100
0100
,
0100
0000
0000
0000
,
0000
0010
0010
0000
,
0000
0100
0100
0000
,
2002
0000
0000
3003
,
2002
0000
0000
3003
,
0000
0010
0010
0010
,
0010
0000
0000
0000
,
0220
0000
0000
0330
,
0220
0000
0000
0330
,
0000
1000
1000
1000
,
1000
0000
0000
0000
,
1000
0000
0100
0000
,
0001
0000
0100
0000
,
1000
0000
0010
0000
,
0001
0000
0010
0000
,
0001
0000
0100
0000
,
1000
0000
0100
0000
,
0001
0000
0010
0000
,
1000
0000
0010
0000
;

//---------------dance-single - ----------------
#NOTES:
     dance-single:
     :
     Easy:
     4:
     :
0000
0000
0000
0000
,
0000
0000
0000
0000
,
0000
0000
0000
0000
,
2002
0000
0000
3003
,
0220
0000
0000
0330
,
0000
0100
1000
0001
,
0200
0000
0000
0300
,
2002
0000
0000
3003
,
0220
0000
0000
0330
,
0000
0100
0001
1000
,
1001
0000
0000
0000
,
0010
0001
0100
1000
,
0010
0001
0100
1001
,
0010
1000
0100
0001
,
0010
1000
0100
0001
,
0001
1000
0010
1000
,
1000
0001
0010
0001
,
0001
1000
0100
1000
,
1000
0001
0100
0001
,
1000
0010
0100
1000
,
0010
0001
1000
0001
,
0001
0010
0100
0001
,
0010
0100
0001
1000
,
1000
0010
0001
1000
,
0010
0001
0100
1000
,
0001
0010
1000
0001
,
0010
1000
0100
0001
,
1001
0000
0010
0000
,
1001
0000
0010
0000
,
0000
0001
1000
0001
,
2002
0000
0000
3003
,
1001
0000
0100
0000
,
1001
0000
0100
0000
,
0000
1000
0001
1000
,
2002
0000
0000
3003
,
1000
0000
0100
0000
,
0001
0000
0100
0000
,
0001
0100
1000
0100
,
0001
0100
1000
0100
,
0001
0010
1000
0001
,
1000
0001
0100
0000
,
1000
0100
0001
0100
,
1000
0100
0001
0100
,
1000
0010
0001
0010
,
1000
0010
0001
0000
,
0001
1000
0100
0000
,
1000
0001
0100
0000
,
2002
0000
0000
3003
,
0220
0000
0000
0330
,
0000
0100
0001
1000
,
0200
0000
0000
0300
,
2002
0000
0000
3003
,
0220
0000
0000
0330
,
0000
0100
1000
0001
,
1001
0000
0000
0000
,
0010
0001
0100
1000
,
0010
0001
0100
1001
,
0010
1000
0100
0001
,
0010
1000
0100
0001
,
0100
1000
0010
0001
,
0100
1000
0010
1001
,
0100
0001
0010
1000
,
0100
0001
0010
1000
;

//---------------dance-single - ----------------
#NOTES:
     dance-single:
     :
     Medium:
     6:
     :
0000
0000
0000
0000
,
0000
0000
0000
0000
,
0000
0000
0000
0000
,
1000
0000
0000
0011
0000
0100
0010
0100
,
0010
0000
0000
1001
0000
0000
0000
0000
,
0000
1001
0000
0001
0010
0010
0100
0100
,
1000
0000
0000
0000
0000
0001
0100
0001
,
1000
0000
0000
0101
0000
1000
0010
1000
,
0001
0000
0000
1100
0000
0000
0000
0000
,
0000
0110
0000
0010
0100
0010
0100
0010
,
0200
0000
0000
0300
,
0001
1000
0001
0000
0100
0000
0100
0000
,
0001
1000
0001
0000
0010
0000
0010
0000
,
0100
1000
0100
0000
0010
0000
0010
0000
,
0001
0100
0001
0000
0100
0000
0100
0000
,
0001
0001
1000
1000
0010
0010
0100
0100
,
0001
0001
0100
0100
0001
0001
0100
0100
,
0010
0010
1000
1000
0001
0001
0100
0100
,
0002
0000
0003
0000
1000
0100
1000
0100
,
2000
3000
0002
0003
,
0200
0300
0020
0030
,
2000
3000
0020
0030
,
0100
0010
0100
0001
,
1000
0100
1000
0010
,
0100
0001
1000
0001
,
0100
0010
0100
0010
,
2002
0000
0000
3003
0000
0001
0100
0010
,
1000
0000
0000
1010
0000
0100
0010
1000
,
0100
0000
0000
1100
0000
0000
0000
0000
,
0000
1001
0000
0001
1000
0001
1000
0001
,
2000
0000
0000
0000
3000
0010
0100
0001
,
1000
0000
0000
1001
0000
0100
0010
0100
,
0001
0000
0000
0101
0000
0000
0000
0000
,
0000
1001
0000
0010
1000
0010
1000
0010
,
2000
0000
0000
3000
,
0001
0010
0100
0100
,
1000
0001
0100
0100
,
0010
1000
0010
1000
0000
0000
0001
0000
,
0010
1000
0010
1000
0000
0000
0100
0000
,
0000
1000
0000
0001
0001
1000
1000
0010
,
0200
0000
0000
0300
,
0001
0100
0001
0100
0000
0000
0010
0000
,
0001
0100
0001
0100
0000
0000
0010
0000
,
0000
1000
0000
0010
0010
0100
0100
0002
,
0000
0000
0000
0003
,
2000
0000
0100
3100
,
2200
0000
0000
3300
0000
1000
0100
0010
,
0001
0000
0000
0011
0000
0100
0010
0001
,
0100
0000
0000
0101
0000
0000
0000
0000
,
0000
1001
0000
1000
0001
1000
0001
1000
,
0002
0000
0000
0000
0003
0010
0100
1000
,
0001
0000
0000
1001
0000
0100
0010
0100
,
1000
0000
0000
1100
0000
0000
0000
0000
,
0000
1001
0000
0010
0001
0010
0001
0010
,
0002
0000
0000
0003
,
2002
3003
0010
1000
,
2020
3030
0100
0001
,
0202
0303
1000
0001
,
0001
0100
0010
0000
1000
0010
0100
0000
,
0002
0000
0003
0000
0100
0010
0100
0000
,
0020
0000
0030
0000
1000
0100
1000
0000
,
0010
0100
0001
1000
,
0020
0230
0300
0110
;

//---------------dance-single - ----------------
#NOTES:
     dance-single:
     :
     Hard:
     8:
     :
0000
0000
0000
0000
,
0000
0000
0000
0000
,
0000
0000
0000
0000
,
0110
0000
0000
0000
0000
1001
0100
0100
,
0010
0000
0000
0000
0000
1010
0010
0010
,
1000
0100
0001
1000
,
0110
0000
0000
0000
0000
0101
0001
0001
,
1000
0000
0000
0000
0000
0000
0000
0000
0011
0000
0000
0000
0000
0000
0000
1010
0000
0000
1000
0000
0000
1000
0000
0000
,
0010
0000
0000
0000
0011
0000
0000
0000
0000
0000
0000
0000
,
0000
0110
0000
1001
0100
0100
0010
0010
,
0200
0000
0000
0300
,
1100
0000
0000
0000
0101
0000
0000
0000
0001
0000
0000
1000
0001
0000
1000
0000
,
1001
0000
0000
0000
0110
0000
0000
0000
1000
0000
0000
0001
0100
0000
0000
0000
,
0101
0000
0000
0000
1100
0000
0000
0000
0001
0000
0000
1000
0010
0000
0100
0000
,
0101
0000
0000
0000
1100
0000
0000
0000
1000
0000
0000
0010
0100
0000
0000
0000
,
0100
0100
0001
0001
0100
0010
0010
0010
,
1000
1000
0100
0100
0010
0001
0001
0001
,
0010
0010
0100
0100
1000
0010
0010
0010
,
0100
0100
0001
0001
0010
0100
0100
0100
,
1001
0000
0000
0000
1000
0100
1000
0100
,
1100
0000
0000
0000
0010
0001
0010
0001
,
0011
0000
0000
0000
0010
0100
0010
0100
,
0110
0000
0000
0110
0000
0000
1001
0000
,
0000
0000
0000
0000
0001
1000
0001
1000
,
1001
0000
0000
0000
0010
1000
0010
1000
,
1010
0000
0000
0000
0100
0001
0100
0001
,
1001
0000
0000
0000
0000
1000
1000
0100
,
1100
0000
0000
0000
0000
0000
0000
0000
0110
0000
0000
0000
0000
0000
0000
0010
0000
0000
0010
0000
0000
0001
0000
0000
,
0011
0000
0000
0000
0220
0000
0000
0000
0000
0330
0000
0000
,
0000
1100
0000
0100
0001
0100
0001
0100
,
1100
0000
0000
0000
0000
0010
0010
0100
,
0110
0000
0000
0000
0000
0000
0000
0000
1001
0000
0000
0000
0000
0000
0000
1000
0000
0000
1000
0000
0000
0001
0000
0000
,
1001
0000
0000
0000
0202
0000
0000
0000
0000
0303
0000
0000
,
0000
1100
0000
0010
0100
0010
0100
0010
,
0011
0000
0000
0000
,
1000
1000
0100
0010
0001
0001
1000
0010
,
0100
0100
0001
0100
0010
0010
1001
0000
,
1000
1000
0001
1001
0000
0000
0110
0000
,
0001
0001
1000
1001
0000
0000
1001
0000
,
0000
1010
0000
0010
0001
0010
0001
0010
,
0110
0000
0000
0000
,
0001
0001
0010
0011
0000
0000
1100
0000
,
0100
0100
0001
0101
0000
0000
1100
0000
,
1000
0000
0000
0000
0100
1000
0100
0000
1000
0000
0100
0000
0100
0000
0200
0000
,
0000
0000
0000
0300
,
1010
0101
0110
1010
,
0011
0000
1001
0000
0000
0010
0010
1000
,
1010
0000
0000
0000
0000
0000
0000
0000
0101
0000
0000
0000
0000
0000
0000
0010
0000
0000
0010
0000
0000
0001
0000
0000
,
0011
0000
0000
0000
2200
0000
0000
0000
0000
3300
0000
0000
,
0000
1001
0000
1000
0001
1000
0001
1000
,
0110
0000
0000
0000
0000
0001
0001
1000
,
1001
0000
0000
0000
0000
0000
0000
0000
0110
0000
0000
0000
0000
0000
0000
1000
0000
0000
1000
0000
0000
0001
0000
0000
,
1001
0000
0000
0000
0220
0000
0000
0000
0000
0330
0000
0000
,
0000
1010
0000
0100
1000
0100
1000
0100
,
0101
0000
0000
0000
,
0110
0000
0010
0100
1000
0100
1001
0000
,
0110
0000
0100
0001
0100
1000
1100
0000
,
0101
0000
0010
0100
0001
0100
1001
0000
,
0101
0000
0100
0010
0100
1000
1100
0000
,
0101
0000
0001
1000
0001
0100
0110
0000
,
1001
0000
1000
0100
0001
0100
0101
0100
,
0010
0100
0001
0100
1000
0100
1100
0100
,
1000
0100
0010
0001
0100
1001
0000
0000
;

//---------------dance-double - ----------------
#NOTES:
     dance-double:
     :
     Beginner:
     2:
     :
00000000
00000000
00000000
00000000
,
00000000
00000000
00000000
00000000
,
00000000
00000000
00000000
00000000
,
10010000
00000000
00000000
00000000
,
01100000
00000000
00000000
00000000
,
00000000
01000000
00000000
00001000
,
00000000
00000000
00000000
00000000
,
00001001
00000000
00000000
00000000
,
00000110
00000000
00000000
00000000
,
00000000
00000100
00000000
00010000
,
00000000
00000000
00000000
00000000
,
00000010
00000000
00000100
00000000
,
00000010
00000000
00000100
00000000
,
00100000
00000000
01000000
00000000
,
00100000
00000000
01000000
00000000
,
00001000
00000000
00000001
00000000
,
00000010
00000000
00001000
00000000
,
00010000
00000000
10000000
00000000
,
00100000
00000000
00010000
00000000
,
00001000
00000000
00000100
00000000
,
00000010
00000000
00001000
00000000
,
00010000
00000000
01000000
00000000
,
00100000
00000000
00010000
00000000
,
00001000
00000000
00000001
00000000
,
00000010
00000000
00000100
00000000
,
00010000
00000000
10000000
00000000
,
00100000
00000000
01000000
00000000
,
10010000
00000000
00100000
00000000
,
10010000
00000000
00100000
00000000
,
00000000
00010000
00000000
00010000
,
00000000
00000000
00000000
00000000
,
00001001
00000000
00000100
00000000
,
00001001
00000000
00000100
00000000
,
00000000
00001000
00000000
00001000
,
00000000
00000000
00000000
00000000
,
00010000
00000000
00100000
00000000
,
01000000
00000000
10000000
00000000
,
10000000
00000000
00010000
00000000
,
10000000
00000000
00010000
00000000
,
00000000
00000000
00000000
00010000
00000000
00000000
00000000
00010000
,
00000000
00000000
00000100
00000000
,
00000001
00000000
00001000
00000000
,
00000001
00000000
00001000
00000000
,
00000001
00000000
00001000
00000000
,
00000001
00000000
00001000
00000000
,
00000100
00000000
00000000
00010000
00000000
00000000
00000000
01000000
,
00000000
00000000
00001000
00000000
,
00001001
00000000
00000000
00000000
,
00000110
00000000
00000000
00000000
,
00000000
00000000
00000100
00000000
00000000
00010000
00000000
00000000
,
00000000
00000000
00000000
00000000
00000000
00000000
00000000
10010000
,
00000000
00000000
00000000
00000000
00000000
00000000
00000000
01100000
,
00000000
00000000
00000000
00000000
,
00000000
01000000
00000000
00000000
00000000
00000000
00001000
00000000
,
00000000
00000000
00000000
00000000
,
00000010
00000000
00000100
00000000
,
00000010
00000000
00000100
00000000
,
00000010
00000000
00000100
00000000
,
00000010
00000000
00000000
00010000
00000000
00000000
00000000
01000000
,
00000000
00000000
00000000
00100000
00000000
00000000
00000000
01000000
,
00000000
00000000
00000000
00100000
00000000
00000000
00000000
01000000
,
00000000
00000000
00000000
00100000
00000000
00000000
00000000
01000000
,
00000000
00000000
00000000
00100000
00000000
00000000
00000000
00000000
;

//---------------dance-double - ----------------
#NOTES:
     dance-double:
     :
     Easy:
     4:
     :
00000000
00000000
00000000
00000000
,
00000000
00000000
00000000
00000000
,
00000000
00000000
00000000
00000000
,
20020000
00000000
00000000
30030000
,
02200000
00000000
00000000
03300000
,
00000000
01000000
00010000
00001000
,
00000200
00000000
00000000
00000300
,
00002002
00000000
00000000
00003003
,
00000220
00000000
00000000
00000330
,
00000000
00000100
00001000
00010000
,
00011000
00000000
00000000
00000000
,
00000010
00000001
00000100
00001000
,
00000010
00000001
00000100
00011000
,
00100000
10000000
01000000
00010000
,
00100000
10000000
01000000
00011000
,
00001000
00000010
00000001
00001000
,
00000010
00000001
00001000
00011000
,
00010000
00100000
10000000
00010000
,
00100000
10000000
00010000
00001000
,
00001000
00000010
00000100
00001000
,
00000010
00000100
00001000
00010000
,
00010000
00100000
01000000
00010000
,
00100000
01000000
00010000
00001000
,
00001000
00000010
00000001
00001000
,
00000010
00000001
00000100
00001000
,
00010000
00100000
10000000
00010000
,
00100000
10000000
01000000
00010000
,
10010000
00000000
00100000
00000000
,
10010000
00000000
00100000
00000000
,
00000000
00010000
00001000
00010000
,
00022000
00000000
00000000
00033000
,
00001001
00000000
00000100
00000000
,
00001001
00000000
00000100
00000000
,
00000000
00001000
00010000
00001000
,
00022000
00000000
00000000
00033000
,
00010000
00000000
00100000
00000000
,
01000000
00000000
10000000
00000000
,
10000000
01000000
00010000
01000000
,
10000000
01000000
00010000
00100000
,
10000000
00100000
00010000
01000000
,
00010000
00001000
00000100
00000000
,
00000001
00000010
00001000
00000010
,
00000001
00000010
00001000
00000010
,
00000001
00000100
00001000
00000100
,
00000001
00000010
00001000
00000000
,
00000100
00001000
00010000
00000000
,
01000000
00010000
00001000
00000000
,
00002002
00000000
00000000
00003003
,
00000220
00000000
00000000
00000330
,
00000000
00000100
00001000
00010000
,
02000000
00000000
00000000
03000000
,
20020000
00000000
00000000
30030000
,
02200000
00000000
00000000
03300000
,
00000000
01000000
00010000
00001000
,
00011000
00000000
00000000
00000000
,
00000010
00000001
00000100
00001000
,
00000010
00000001
00000100
00001000
,
00000010
00001000
00000100
00000001
,
00000010
00001000
00010000
00100000
,
01000000
10000000
00100000
00010000
,
01000000
10000000
00100000
00010000
,
01000000
00010000
00100000
10000000
,
01000000
00010000
00100000
10000000
;

//---------------dance-double - ----------------
#NOTES:
     dance-double:
     :
     Medium:
     6:
     :
00000000
00000000
00000000
00000000
,
00000000
00000000
00000000
00000000
,
00000000
00000000
00000000
00000000
,
00001000
00000000
00000000
00000110
00000000
00001000
00000100
00001000
,
00000100
00000000
00000000
00011000
00000000
00000000
00000000
00000000
,
00000000
10010000
00000000
00010000
00100000
00100000
01000000
01000000
,
10000000
00000000
00000000
00000000
00000000
10000000
01000000
10000000
,
01000000
00000000
00000000
00010000
00000000
00001000
00000100
00001000
,
00000100
00000000
00000000
00000001
00000000
00000000
00000000
00000000
,
00000000
00000010
00000000
00001000
00000010
00001000
00000010
00001000
,
00000020
00000000
00000000
00000030
,
00002000
00000000
00000000
00003000
,
00020000
00000000
00000000
00030000
,
00200000
00000000
00000000
00300000
,
20000000
00000000
00000000
30000000
,
00100000
00010000
01000000
00000000
00100000
10000000
01000000
00000000
,
10000000
01000000
00010000
00000000
00010000
01000000
10000000
00000000
,
10000000
00100000
01000000
00000000
00010000
00100000
01000000
00000000
,
01000000
00010000
00001000
00000000
00010000
00001000
00000100
00000000
,
00000100
00000001
00000010
00000000
00000100
00000001
00000001
00000000
,
00000001
00000100
00000010
00000000
00001000
00010000
00010000
00000000
,
00001000
00010000
00100000
00000000
00010000
00001000
00001000
00000000
,
00010000
00001000
00000010
00000000
00001000
00010000
00010000
00000000
,
00002000
00000000
00000000
00003000
,
00000200
00000000
00000000
00000300
,
00000002
00000000
00000000
00000003
,
00000020
00000000
00000000
00000030
00000000
00000001
00000010
00000001
,
00000010
00000000
00000000
00001000
00000000
00010000
00100000
00010000
,
00100000
00000000
00000000
10000000
00000000
00000000
00000000
00000000
,
00000000
10000000
00000000
01000000
00010000
01000000
00010000
00001000
,
00010000
00000000
00000000
00000000
00000000
00010000
00001000
00010000
,
00001000
00000000
00000000
00000100
00000000
00000001
00000010
00000001
,
00000010
00000000
00000000
00000100
00000000
00000000
00000000
00000000
,
00000000
00001000
00000000
00000010
00001000
00000010
00001000
00000100
,
00001000
00000000
00000000
00000000
,
00000001
00000001
00001000
00001000
,
00010000
00010000
10000000
10000000
,
00100000
10000000
01000000
00010000
00000000
00000000
00010000
00000000
,
00001000
00000100
00000001
00000010
00000000
00000000
00000010
00000000
,
00000000
00000001
00000000
00000001
00001000
00001000
00000001
00000001
,
00000001
00000000
00000000
00000000
,
00000010
00000001
00000100
00001000
00000000
00000000
00010000
00000000
,
00010000
01000000
10000000
00100000
00000000
00000000
00100000
00000000
,
10010000
10000000
10000000
10000000
,
20000000
00000000
00000000
30000000
,
02000000
03000000
00020000
00030000
,
00002000
00000000
00003000
00000000
00000001
00000100
00000001
00000100
,
00000001
00000000
00000000
00000100
00000000
00000010
00000100
00000010
,
00000100
00000000
00000000
00000010
00000000
00000000
00000000
00000000
,
00000000
00010000
00000000
00001000
00010000
00001000
00010000
00001000
,
00010000
00000000
00000000
00000000
00000000
00001000
00010000
01000000
,
10000000
00000000
00000000
10000000
00000000
10000000
01000000
00010000
,
01000000
00000000
00000000
10000000
00000000
00000000
00000000
00000000
,
00000000
10000000
00000000
10000000
00100000
10000000
01000000
00010000
,
01000000
00000000
00000000
00000000
,
10000000
10000000
00010000
00010000
,
00001000
00001000
00000001
00000001
,
00000010
00001000
00000100
00000001
,
00000010
00001000
00000100
00000001
,
00000001
00000100
00000001
00000000
00001000
00000100
00001000
00000000
,
00001000
00010000
00001000
00000000
00010000
01000000
00010000
00000000
,
10000000
00100000
00010000
00001000
,
00000010
00000001
00001000
00000001
;

//---------------dance-double - ----------------
#NOTES:
     dance-double:
     :
     Hard:
     8:
     :
00000000
00000000
00000000
00000000
,
00000000
00000000
00000000
00000000
,
00000000
00000000
00000000
00000000
,
00011000
00000000
00000000
00000000
00000000
00010000
00001000
00010000
,
00011000
00000000
00000000
00000000
00000000
00100000
01000000
10000000
,
11000000
01010000
00011000
00001100
,
00000101
00000000
00000000
00000000
00000000
00000010
00000001
00001000
,
00000001
00000000
00000000
00000000
00000000
00000000
00000000
00000000
00001001
00000000
00000000
00000000
00000000
00000000
00000000
00000100
00000000
00000000
00001000
00000000
00000000
00000100
00000000
00000000
,
00001000
00000000
00000000
00000000
00011000
00000000
00000000
00000000
00000000
00000000
00000000
00000000
,
00000000
10000000
00000000
00100000
01000000
10000000
01000000
00100000
,
02000000
00000000
00000000
03000000
,
01000000
00000000
00000000
00000000
00100000
00000000
00000000
00000000
00010000
00000000
00000000
00001000
00010000
00000000
00001000
00000000
,
00000100
00000000
00000000
00000000
00001000
00000000
00000000
00000000
00000100
00000000
00000000
00000001
00000100
00000000
00000000
00000000
,
00001000
00000000
00000000
00000000
00000100
00000000
00000000
00000000
00001000
00000000
00000000
00010000
01000000
00000000
00010000
00000000
,
01000000
00000000
00000000
00000000
10000000
00000000
00000000
00000000
01000000
00000000
00000000
00100000
01000000
00000000
00000000
00000000
,
10000000
00100000
00010000
00001000
00010000
00001000
00000100
00000010
,
00001000
00000100
00001000
00000100
00000010
00000001
00000100
00001000
,
00010000
00001000
00000100
00001000
00010000
01000000
00100000
00010000
,
01000000
00100000
00010000
00001000
00010000
00001000
00010000
00001000
,
00011000
00000000
00000000
00000000
00100000
01000000
00010000
01000000
,
01010000
00000000
00000000
00000000
00010000
00001000
00010000
00001000
,
00011000
00000000
00000000
00000000
00001000
00000100
00001000
00000100
,
00001100
00000000
00000000
00000101
00000000
00000000
00000011
00000000
,
00000000
00000000
00000000
00000000
00000010
00000001
00000010
00000001
,
00000011
00000000
00000000
00000000
00001000
00000100
00001000
00000100
,
00001100
00000000
00000000
00000000
00010000
00001000
00010000
00001000
,
00011000
00000000
00000000
00000000
00000000
00100000
10000000
01000000
,
00010000
00000000
00000000
00000000
00000000
00000000
00000000
00000000
00010000
00000000
00000000
00000000
00000000
00000000
00000000
00010000
00000000
00000000
00001000
00000000
00000000
00000100
00000000
00000000
,
00000001
00000000
00000000
00000000
00000200
00000000
00000000
00000000
00000000
00000000
00000000
00000000
,
00000000
00001300
00000000
00010000
01000000
10000000
01000000
00100000
,
01000000
00000000
00000000
00000000
00000000
01000000
00010000
00001000
,
00000100
00000000
00000000
00000000
00000000
00000000
00000000
00000000
00000100
00000000
00000000
00000000
00000000
00000000
00000000
00000100
00000000
00000000
00001000
00000000
00000000
00010000
00000000
00000000
,
01000000
00000000
00000000
00000000
02000000
00000000
00000000
00000000
00000000
00000000
00000000
00000000
,
00000000
03100000
00000000
00010000
01000000
10000000
01000000
00010000
,
00200000
00000000
00000000
00300000
,
00010000
10000000
01000000
00010000
01000000
00010000
00001000
00010000
,
00001000
00000100
00000001
00000100
00000001
00000100
00000010
00000000
,
00001000
00000100
00000001
00000001
00000000
00000000
00001001
00000000
,
00000001
00000100
00001000
00001000
00000000
00000000
00011000
00000000
,
00000000
00010000
00000000
00010000
01000000
00100000
00010000
01000000
,
20000000
00000000
00000000
30000000
,
01000000
00010000
01000000
00010000
00000000
00000000
10010000
00000000
,
01000000
00010000
01000000
00010000
00000000
00000000
00011000
00000000
,
00011000
00000000
00000000
00000000
00010000
00001000
00010000
00000000
00001000
00000000
00000100
00000000
00000001
00000000
00000020
00000000
,
00000000
00000000
00000000
00000030
,
00001000
00010000
00001000
00010000
,
01000000
00000000
11000000
00000000
00000000
10000000
01000000
10000000
,
11000000
00000000
00000000
00000000
00000000
00000000
00000000
00000000
01000000
00000000
00000000
00000000
00000000
00000000
00000000
00100000
00000000
00000000
01000000
00000000
00000000
00100000
00000000
00000000
,
01100000
00000000
00000000
00000000
00010000
00000000
00000000
00000000
00000000
00000000
00000000
00000000
,
00000000
00000100
00000000
00000010
00000001
00000100
00001000
00000100
,
00001100
00000000
00000000
00000000
00000000
00010000
00001000
00010000
,
00011000
00000000
00000000
00000000
00000000
00000000
00000000
00000000
00010000
00000000
00000000
00000000
00000000
00000000
00000000
01000000
00000000
00000000
00010000
00000000
00000000
01000000
00000000
00000000
,
01010000
00000000
00000000
00000000
01000000
00000000
00000000
00000000
00000000
00000000
00000000
00000000
,
00000000
00100000
00000000
00100000
00010000
10000000
00010000
01000000
,
20000000
00000000
00000000
30000000
,
01000000
00000000
00100000
00010000
01000000
00010000
10010000
00000000
,
10010000
00000000
01000000
00010000
01000000
00010000
01010000
00000000
,
01010000
00000000
00010000
00001000
00010000
00001000
00011000
00000000
,
00011000
00000000
00001000
00000100
00001000
00000100
00001100
00000000
,
00001100
00000000
00000100
00000001
00000100
00000001
00000101
00000000
,
00000101
00000000
00000001
00000010
00000001
00000010
00000011
00000001
,
00001000
00000001
00001000
00000010
00001000
00000010
00001010
00000100
,
00001000
00000100
00001000
00010000
01000000
01010000
00000000
00000000
;
