#TITLE:Jam On It;
#ARTIST:Newcleus;
#BANNER:Jam On It.png;
#BACKGROUND:Jam On It-bg.png;
#MUSIC:Jam On It.ogg;
#SAMPLESTART:17.39;
#SAMPLELENGTH:15;
#DISPLAYBPM:116;
#BPMS:0=115.77;

//---------------dance-single - ----------------
#NOTES:
     dance-single:
     :
     Beginner:
     1:
     :
0000
0000
0000
0000
,
0000
0000
0000
0000
,
0000
0000
0000
0000
,
1000
0000
0001
0000
,
0000
0000
0100
0000
,
0001
0000
1000
0000
,
0000
0000
0010
0000
,
0100
0000
0010
0000
,
0000
0000
1000
0000
,
0001
0000
0001
0000
,
1000
0000
1000
0000
,
0010
0000
0100
0000
,
0010
0000
0010
0000
,
1000
0000
0001
0000
,
0100
0000
0010
0000
,
1000
0000
0100
0000
,
0001
0000
0001
0000
,
0001
0000
1000
0000
,
0100
0000
0110
0000
,
0001
0000
0100
0000
,
0001
0000
1001
0000
,
1000
0000
0100
0000
,
1000
0000
0110
0000
,
0010
0000
0001
0000
,
0010
0000
1001
0000
,
0000
1000
0000
1000
,
0000
0001
0000
0001
,
0000
0100
0000
0100
,
0000
0010
0000
0010
,
0000
1000
0000
0010
,
0000
0001
0000
0010
,
0000
1000
0000
0010
,
0000
0001
0000
0010
,
0000
1000
0000
1000
,
0000
0001
0000
0001
,
0000
0001
0000
0001
,
0000
0010
0000
0100
,
0000
1000
0000
0010
,
0000
1000
0000
0010
,
0000
0100
0000
0001
,
0000
0100
0000
0001
,
0000
1000
0000
0001
,
0000
0001
0000
1000
,
0000
1000
0000
0001
,
0000
0100
0000
0001
,
0000
0001
0000
0100
,
0000
0010
0000
1000
,
0000
1000
0000
0010
,
0000
0010
0000
0010
;

//---------------dance-single - ----------------
#NOTES:
     dance-single:
     :
     Easy:
     2:
     :
0000
0000
0000
0000
,
0000
0000
0000
0000
,
0000
0000
0000
0000
,
1000
0000
0001
0000
,
0000
0000
0100
0100
,
0001
0000
1000
0000
,
0000
0000
0010
0010
,
0100
0000
0010
0000
,
0000
0000
1000
1000
,
0001
0100
0001
0100
,
1000
0100
1000
0100
,
0010
0000
0100
0000
,
0010
0100
0010
0100
,
1000
1001
0001
1001
,
0100
0100
0010
0010
,
1000
0010
0100
0001
,
0001
0100
0001
0100
,
0002
0003
2000
3000
,
0100
0010
0110
0000
,
0002
0003
0200
0300
,
0001
1000
1001
0000
,
2000
3000
0200
0300
,
1000
0100
1100
0000
,
0020
0030
0002
0003
,
0010
0001
0011
0000
,
0000
1000
0000
1000
,
0000
0001
0000
0001
,
0000
0100
0000
0100
,
0000
0010
0000
0010
,
0000
1000
0000
0010
,
0000
0001
0000
0010
,
0000
1000
0000
0010
,
0000
0001
0000
0010
,
1000
1000
0010
1000
,
0001
0001
0100
0001
,
1000
0001
1000
0001
,
0010
0010
0100
0100
,
0000
1000
0000
0010
,
0000
1000
0000
0010
,
0000
0100
0000
0001
,
0000
0100
0000
0001
,
0000
1000
0000
0001
,
0000
0001
0000
1000
,
0000
1000
0000
0001
,
0000
0100
0000
0001
,
0000
0001
0000
0100
,
0000
0010
0000
1000
,
0000
1000
0000
0010
,
0000
0010
0000
0010
,
0020
0000
0000
0030
;

//---------------dance-single - ----------------
#NOTES:
     dance-single:
     :
     Medium:
     5:
     :
0000
0000
0000
0000
,
0000
0000
0000
0000
,
0000
0000
0000
0000
,
2000
0000
3001
0000
,
0010
0000
0100
0100
,
0100
0020
0030
0200
,
0300
0002
0003
2000
,
3000
0200
0300
0020
,
0030
1001
0000
1001
,
1000
0100
0001
0100
,
1000
0010
0001
0010
,
1000
0010
1000
0001
,
0100
0001
1000
0001
,
1000
2000
3001
0002
,
0103
0200
0310
0020
,
1030
2000
3001
0002
,
1003
0010
0100
0001
,
1000
0100
0010
0001
,
0100
1000
0100
0001
,
1000
0100
0001
0100
,
1000
1100
0010
0011
,
0100
0101
0010
1010
,
1000
1001
0001
0110
,
1000
1100
0001
0101
,
0001
0011
0010
1010
,
1000
0010
0000
2000
0000
0000
3000
0000
,
1000
0100
0000
2000
0000
0000
3000
0000
,
0001
0010
0000
0002
0000
0000
0003
0000
,
0001
0100
0000
0002
0000
0000
0003
0000
,
0100
1100
0001
1001
,
0010
1010
0100
1100
,
0100
0101
1000
1001
,
0010
0011
0100
0101
,
1000
0000
0000
0001
0100
0001
0000
0000
,
1000
0010
1000
0001
,
0100
0001
1000
0100
,
1000
0001
0010
0001
,
0001
0000
0000
1000
0100
1000
0000
0000
,
0001
0010
0001
1000
,
0100
1000
0001
0100
,
0001
0000
1000
0000
0010
0000
0000
1000
,
0010
1000
0000
0001
0100
0001
0000
0000
,
1000
0000
0000
0100
1000
0100
0000
0000
,
2000
3100
0200
0310
,
0020
0031
0002
0103
,
0200
0000
0000
0300
,
0010
1000
0001
0200
,
0320
0030
1000
1100
,
0001
0101
1001
0110
,
2002
0000
0000
3003
;

//---------------dance-single - ----------------
#NOTES:
     dance-single:
     :
     Hard:
     6:
     :
0000
0000
0000
0000
,
0000
0000
0000
0000
,
0000
0000
0000
0000
,
1000
0010
0001
0100
,
1000
0000
0000
1001
,
0000
0110
0000
0110
,
0000
1001
0000
0010
,
0001
0100
1000
1001
,
0000
0000
0000
0000
0000
0000
0000
0010
0000
0010
0100
0000
1000
0000
0001
0000
,
0100
1000
0100
0110
,
0000
0000
0000
0000
0000
0000
0000
1000
0000
1000
0001
0000
0100
0000
0001
0000
,
0100
1000
0001
0110
,
0000
0000
0000
0000
0000
0000
0000
0100
0000
0100
0001
0000
0100
0000
0010
0000
,
0001
0100
1000
1100
,
0000
0000
0000
0000
0000
0000
0000
1000
0000
1000
0001
0000
0010
0000
0100
0000
,
1000
0100
0010
1001
,
0000
0000
0000
0000
0000
0000
0000
0001
0000
0001
1000
0000
0100
0000
0010
0000
,
0100
1000
0100
0000
0010
0001
0100
0000
,
0010
1000
0100
0000
0010
0001
1000
0000
,
0010
1000
0001
0000
1000
0001
0100
0000
,
0001
1000
0100
1000
0001
0000
0000
0000
,
0010
0100
0000
0100
1000
0000
1000
0001
0000
0001
0100
0000
0100
0000
0000
0000
,
0001
0100
0000
0100
0010
0000
0010
1000
0000
1000
0001
0000
0001
0000
0000
0000
,
0010
0001
0000
0001
0010
0000
0010
0100
0000
0100
1000
0000
1000
0000
0000
0000
,
0010
0100
0000
0100
0001
0000
0001
0100
0000
0100
0010
0000
0010
0000
0000
0000
,
0001
1000
0100
0000
1000
0001
0100
0000
,
0010
0000
0100
0000
1000
0000
0100
0000
0010
0000
0100
0010
0000
0000
0100
0000
,
0001
0000
0100
0000
1000
0000
0100
0000
0001
0000
0100
0001
0000
0000
0000
0000
,
0010
0000
0001
0000
0100
0000
1000
0000
0100
0000
0001
0100
0000
0000
1000
0000
,
0100
0000
0010
0000
0100
0000
1000
0000
0010
0100
0000
0000
0010
0000
0001
0000
,
1000
0000
0000
1000
1100
0000
0000
0100
,
0101
0000
0000
0001
0011
0000
0000
0010
,
1010
0000
0000
1000
1001
0000
0000
0010
,
0001
0000
0100
0000
0000
0000
0100
0000
0001
0000
1000
0000
0000
1000
0001
0000
,
0100
0000
0001
0100
0001
0100
0001
0000
0010
0000
0100
0000
0000
0000
0000
0000
,
0010
0100
1000
0000
1000
0100
0001
0000
,
0010
0000
0001
0000
1001
0000
0000
0001
,
1000
0000
0001
0000
0000
0000
1000
0000
0100
0000
1000
0000
0000
1000
0100
0000
,
0010
0000
0100
0010
0100
0010
0100
0000
1000
0000
0001
0000
0000
0000
0000
0000
,
0010
0001
0010
0000
0100
1000
0100
0000
,
0010
0000
0001
0000
0110
0000
0000
0010
,
0001
1000
0000
1000
0001
0100
0000
0100
,
0001
0100
0000
0010
1000
0010
0000
0001
,
0202
0303
2200
3300
,
0220
0330
2002
3003
,
1000
0001
1000
0110
,
0000
0000
0000
0000
0000
0000
0000
0001
0000
0100
0001
0000
0010
0000
0100
0000
,
0010
0001
1000
1001
,
0000
0000
0000
0000
0000
0000
0000
1000
0000
0001
1000
0000
0001
0000
0100
0000
,
2002
0000
0000
3003
;

//---------------dance-double - ----------------
#NOTES:
     dance-double:
     :
     Beginner:
     2:
     :
00000000
00000000
00000000
00000000
,
00000000
00000000
00000000
00000000
,
00000000
00000000
00000000
00000000
,
00000000
00000000
00000000
00000000
,
00000000
00000000
00000000
00000000
,
00000000
00100000
00000000
10000000
,
00000000
01000000
00000000
00010000
,
00000000
00001000
00000000
00000100
,
00000000
00000001
00000000
00000010
,
00000000
00000001
00000000
00000001
,
00000000
00001000
00000000
00001000
,
00000000
00000100
00000000
00000100
,
00000000
00001000
00000000
00001000
,
00000000
00010000
00000000
00010000
,
00000000
01000000
00000000
01000000
,
00000000
00010000
00000000
00010000
,
00000000
10000000
00000000
10000000
,
00000000
01000000
00000000
01000000
,
00000000
10000000
00000000
10000000
,
00000000
00010000
00000000
00000000
,
00001000
00000000
00001000
00000000
,
00000010
00000000
00000000
00000100
,
00000000
00000001
00000000
00000001
,
00000000
00001000
00000000
00000000
,
00010000
00000000
00010000
00000000
,
00000000
10010000
00000000
10010000
,
00000000
10010000
00000000
10010000
,
00000000
00100000
00000000
00010000
,
00000000
00000100
00000000
00000000
,
00000010
00000000
00000000
00000110
,
00000000
00001000
00000000
00011000
,
00000000
00010000
00000000
00011000
,
00000000
00100000
00000000
01100000
,
00000000
00000000
00010000
00000000
,
01000000
00000000
10000000
00000000
,
10000000
00000000
00010000
00000000
,
00001000
00000000
00000000
00000010
,
00000000
00000000
00001000
00000000
,
00000100
00000000
00000001
00000000
,
00000100
00000000
00001000
00000000
,
00010000
00000000
00000000
00100000
,
00000000
00000000
10000000
00000000
,
10000000
00000000
00010000
00000000
,
00010000
00000000
10000000
00000000
,
00010000
00000000
10000000
00000000
,
00010000
00000000
10000000
00000000
,
10000000
00000000
00010000
00000000
,
00010000
00000000
10000000
00000000
,
00010000
00000000
10000000
00000000
,
10010000
00000000
00000000
00000000
;

//---------------dance-double - ----------------
#NOTES:
     dance-double:
     :
     Easy:
     2:
     :
00000000
00000000
00000000
00000000
,
00000000
00000000
00000000
00000000
,
00000000
00000000
00000000
00000000
,
00000000
00000000
00000000
00000000
,
00000000
00000000
00000000
00000000
,
00000000
00100000
00000000
10000000
,
00000000
01000000
00000000
00010000
,
00000000
00001000
00000000
00000100
,
00000000
00000001
00000000
00000010
,
00000000
00000001
00000010
00000001
,
00000000
00001000
00000010
00001000
,
00000000
00000100
00001000
00000100
,
00000000
00001000
00010000
00001000
,
00000000
00010000
00001000
00010000
,
00000000
01000000
00010000
01000000
,
00000000
00010000
00100000
00010000
,
00000000
10000000
00100000
10000000
,
00100000
01000000
00000000
01000000
,
00010000
10000000
00000000
10000000
,
01000000
00010000
00001000
00000000
,
00001000
00010000
00001000
00000000
,
00000010
00000100
00000000
00000100
,
00001000
00000001
00000000
00000001
,
00000100
00001000
00010000
00000000
,
00010000
00001000
00010000
00000000
,
00000000
10010000
10000000
10010000
,
00000000
10010000
00010000
10010000
,
00000000
00100000
01000000
00010000
,
00001000
00000100
00000010
00000000
,
00000010
00000010
00000000
00000110
,
00001000
00001000
00000000
00011000
,
00010000
00010000
00000000
00011000
,
00100000
00100000
00000000
01100000
,
00100000
00000000
00010000
00000000
,
01000000
00000000
10000000
00000000
,
10000000
00000000
00010000
00010000
,
00001000
00001000
00000000
00000010
,
00000010
00000000
00001000
00000000
,
00000100
00000000
00000001
00000000
,
00000100
00000000
00001000
00001000
,
00010000
00010000
00000000
00100000
,
00010000
00000000
10000000
00010000
,
10000000
00000000
00010000
10000000
,
00010000
00100000
10000000
01000000
,
00010000
00100000
10000000
01000000
,
00010000
00000000
10000000
00010000
,
10000000
00000000
00010000
10000000
,
00010000
00100000
10000000
01000000
,
00010000
00100000
10000000
01000000
,
20020000
00000000
00000000
30030000
;

//---------------dance-double - ----------------
#NOTES:
     dance-double:
     :
     Medium:
     5:
     :
00000000
00000000
00000000
00000000
,
00000000
00000000
00000000
00000000
,
00000000
00000000
00000000
00000000
,
00000000
00000000
00000000
00000000
,
00000000
00000000
00000000
00000000
,
00100000
10010000
01000000
10010000
,
00010000
00011000
00001000
00011000
,
00000010
00001001
00000100
00001001
,
00001000
00011000
00010000
00011000
,
00100000
00010000
00001000
00000000
00010000
00001000
00000100
00000000
,
00000100
00001000
00010000
00000000
00010000
00001000
00010000
00000000
,
01000000
00010000
00001000
00000000
00010000
00001000
00000010
00000000
,
00000010
00001000
00010000
00000000
00010000
00001000
00010000
00000000
,
00100000
00000000
01100000
00000000
10000000
10000000
10000000
00000000
,
00010000
00000000
10010000
00000000
01000000
01000000
01000000
00000000
,
00010000
00000000
00011000
00000000
00001000
00001000
00001000
00000000
,
00001000
00000000
00001001
00000000
00000100
00000100
00000100
00000000
,
00000002
00001000
00001003
00000000
00002000
00000001
00003001
00000000
,
00000002
00000100
00000103
00000000
00000200
00001000
00001300
00000000
,
00002000
00010000
00013000
00000000
00020000
00001000
00031000
00000000
,
02000000
00010000
03010000
00000000
20000000
01000000
31000000
00000000
,
20000000
00010000
30010000
00000000
00020000
10000000
10030000
00000000
,
20000000
01000000
31000000
00000000
02000000
00010000
03010000
00000000
,
00020000
00001000
00031000
00000000
00002000
00010000
00013000
00000000
,
00000200
00001000
00001300
00000000
00000002
00000100
00000103
00000000
,
00001001
00000000
00000110
00000000
00000001
00000001
00000001
00000000
,
00000110
00000000
00001001
00000000
00000100
00000100
00000100
00000000
,
00001000
00000000
00010000
00000000
00011000
00011000
00011000
00000000
,
00001000
00000000
00010000
00000000
00100000
00100000
00100000
00000000
,
10010000
00000000
01100000
00000000
10000000
10000000
10000000
00000000
,
01100000
00000000
10010000
00000000
01000000
01000000
01000000
00000000
,
00010000
00000000
00001000
00000000
00011000
00011000
00011000
00000000
,
00010000
00000000
00001000
00000000
00000100
00000100
00000100
00000000
,
00000001
00000100
00001000
00000000
00000001
00000010
00001000
00000000
,
00000010
00000001
00000100
00000000
00000010
00001000
00000100
00000000
,
00001000
00000010
00000100
00000000
00000010
00000100
00001000
00000000
,
00000100
00001000
00010000
00000000
00001000
00010000
01000000
00000000
,
10000000
01000000
00010000
00000000
10000000
00100000
00010000
00000000
,
00100000
10000000
01000000
00000000
00100000
00010000
01000000
00000000
,
00010000
00100000
01000000
00000000
00100000
01000000
00010000
00000000
,
01000000
00010000
00001000
00000000
00010000
00001000
00000100
00000000
,
00000100
00000010
00001000
00000000
00001000
00000001
00000010
00000000
,
00000010
00000100
00000001
00000000
00000001
00001000
00000100
00000000
,
00000010
00001000
00010000
00000000
00001000
00010000
01000000
00000000
,
01000000
10000000
00100000
00000000
00100000
10000000
00010000
00000000
,
01000000
00100000
00010000
00000000
00010000
10000000
00100000
00000000
,
00100000
01000000
10000000
00000000
10000000
00010000
01000000
00000000
,
00100000
00010000
00001000
00000000
00010000
00001000
00000100
00000000
,
00000100
00000001
00000010
00000000
00000010
00000001
00001000
00000000
,
00000220
00000000
00000000
00000330
;

//---------------dance-double - ----------------
#NOTES:
     dance-double:
     :
     Hard:
     7:
     :
00000000
00000000
00000000
00000000
,
00000000
00000000
00000000
00000000
,
00000000
00000000
00000000
00000000
,
00000000
00000000
00000000
00000000
,
00000000
00000000
00000000
00000000
,
00000000
10010000
00000000
00100000
,
00000000
00011000
00000000
00000010
,
00000000
00001001
00000000
00000010
,
00000000
00011000
00000000
00100000
,
00100000
00100000
10010000
01000000
00100000
01000000
10010000
00000000
,
10000000
10000000
01100000
00010000
10000000
00010000
01100000
00000000
,
00010000
00010000
00101000
00010000
00001000
00010000
00010010
00000000
,
00001000
00001000
00010010
00001000
00010000
00001000
00101000
00000000
,
00001000
00000010
00000011
00000001
00000100
00001000
00011000
00000000
,
00100000
00010000
00011000
00001000
00000010
00001000
00011000
00000000
,
00010000
00100000
10100000
10000000
01000000
00010000
00011000
00000000
,
00000100
00001000
00011000
00010000
01000000
00010000
00011000
00000000
,
00010000
00000000
00000000
00000000
00100000
00000000
00000000
10000000
00000000
00010000
01000000
00000000
00100000
00000000
10000000
00000000
,
00010000
10000000
00000000
00000000
01000000
00000000
00000000
10000000
00000000
00010000
00100000
00000000
01000000
00000000
10000000
00000000
,
10000000
00000000
00000000
00000000
00100000
00000000
00000000
01000000
00000000
00100000
10000000
00000000
00010000
00000000
01000000
00000000
,
00100000
01000000
00000000
00000000
00010000
00000000
00000000
01000000
00000000
00100000
00010000
00000000
00001000
00000000
00000100
00000000
,
00001000
00000000
00000000
00000000
00000100
00000000
00000000
00000001
00000000
00001000
00000010
00000000
00000100
00000000
00000001
00000000
,
00001000
00000001
00000000
00000000
00000010
00000000
00000000
00000001
00000000
00001000
00000100
00000000
00000010
00000000
00000001
00000000
,
00000001
00000000
00000000
00000000
00000100
00000000
00000000
00000010
00000000
00000100
00000001
00000000
00001000
00000000
00000010
00000000
,
00000100
00000010
00000000
00000000
00001000
00000000
00000000
00000010
00000000
00000100
00001000
00000000
00010000
00000000
01000000
00000000
,
00010000
01000000
01010000
01000000
00010000
00001000
00011000
00000000
,
00000010
00001000
00001010
00000001
00000100
00000010
00000110
00000000
,
00001000
00000100
00001100
00000100
00001000
00010000
00011000
00000000
,
00100000
00010000
00110000
10000000
01000000
00100000
01100000
00000000
,
01000000
00010000
00001000
00010000
00001000
00100000
00010000
00000000
,
00100000
00001000
00010000
00001000
00010000
00000010
00001000
00000000
,
00000010
00010000
00001000
00010000
00001000
01000000
00010000
00000000
,
01000000
00001000
00010000
00001000
00010000
00000100
00001000
00000000
,
00001000
00000010
00000001
00000100
00001000
00000010
00000001
00000000
,
00001000
00000000
00000001
00001000
00000000
00001000
00000001
00000000
00000100
00000000
00000010
00000000
00000110
00000000
00000000
00000000
,
00000100
00001000
00010000
00001000
00010000
00001000
00010000
00000000
,
00010000
00100000
01000000
00010000
00100000
01000000
00010000
00000000
,
00010000
01000000
10000000
00100000
00010000
01000000
10000000
00000000
,
00010000
00000000
10000000
00010000
00000000
00010000
10000000
00000000
00100000
00000000
01000000
00000000
01100000
00000000
00000000
00000000
,
00100000
00010000
00001000
00010000
00001000
00010000
00001000
00000000
,
00001000
00000100
00000010
00001000
00000100
00000010
00001000
00000010
,
00000001
00001000
00000010
00000100
00001000
00000001
00000100
00000010
,
00000001
00001000
00000010
00000100
00001000
00000001
00000100
00000010
,
00000001
00000100
00001000
00010000
01000000
10000000
00100000
00000000
,
00100000
10000000
01000000
00010000
00100000
10000000
01000000
00000000
,
10000000
00010000
00100000
01000000
00010000
10000000
01000000
00100000
,
10000000
00010000
00100000
01000000
00010000
10000000
01000000
00100000
,
10000000
01000000
00010000
00001000
00000100
00000001
00000010
00000000
,
00000010
00000001
00000100
00001000
00000010
00000001
00000100
00000000
,
00002002
00000000
00000000
00003003
;
