
//----- song ID: neur -----//
#TITLE:In My Eyes (Neuromix);
#ARTIST:Neuropa;
#MUSIC:In My Eyes (Neuromix).ogg;
#BANNER:In My Eyes (Neuromix).png;
#BACKGROUND:In My Eyes (Neuromix)-bg.png;
#CDTITLE:./CDTITLES/Song Pack 8.png;
#SAMPLESTART:35.457;
#SAMPLELENGTH:15;
#BPMS:0=142;
#DISPLAYBPM:141;
#NOTES:
     dance-single:
     :
     Beginner:
     1:
     :
0000
0000
0000
0000
,
0000
0000
0000
0000
,
0000
0000
0000
0000
,
0000
0000
0000
0000
,
0000
0000
0000
0000
,
0100
0000
0000
0000
,
0001
0000
0000
0000
,
1000
0000
0000
0000
,
0010
0000
0000
0000
,
1000
0000
0001
0000
,
0001
0000
1000
0000
,
0010
0000
1000
0000
,
0010
0000
0100
0000
,
0001
0000
0010
0000
,
0001
0000
1000
0000
,
0100
0000
0100
0000
,
0100
0000
0100
0000
,
0010
0000
0100
0000
,
1000
0000
1000
0000
,
0100
0000
0100
0000
,
0001
0000
0001
0000
,
1001
0000
0000
0000
,
0001
0000
1000
0000
,
0110
0000
0000
0000
,
0000
0000
0000
0000
,
0110
0000
0000
0000
,
0100
0000
0100
0000
,
1000
0000
0000
0000
,
0001
0000
0000
0000
,
0110
0000
0000
0000
,
1000
0000
0001
0000
,
1001
0000
0000
0000
,
0000
0000
0000
0000
,
1001
0000
0000
0000
,
0001
0000
0100
0000
,
0001
0000
0000
0000
,
1000
0000
0000
0000
,
0010
0000
0001
0000
,
0010
0000
0100
0000
,
0010
0000
0100
0000
,
0010
0000
0100
0000
,
0100
0000
0001
0000
,
0100
0000
0001
0000
,
0010
0000
0100
0000
,
0010
0000
0100
0000
,
0100
0000
0010
0000
,
0001
0000
1000
0000
,
1000
0000
0010
0000
,
0100
0000
0100
0000
,
0110
0000
0000
0000
,
0000
0000
0000
0000
,
0001
0000
0001
0000
,
0100
0000
0110
0000
,
1000
0000
1000
0000
,
0010
0000
0110
0000
,
1000
0000
0001
0000
,
0100
0000
0001
0000
,
1000
0000
0100
0000
,
0010
0000
0100
0000
,
1000
0000
0100
0000
,
0001
0000
1000
0000
,
0010
0000
0001
0000
,
0001
0000
1000
0000
,
1000
0000
0100
0000
,
0100
0000
1000
0000
,
1000
0000
0001
0000
,
0001
0000
1000
0000
,
0110
0000
0000
0000
;
#NOTES:
     dance-single:
     :
     Easy:
     3:
     :
0000
0000
0000
0000
,
0000
0000
0000
0000
,
0000
0000
0000
0000
,
0000
0000
0000
0000
,
0000
0000
0000
0000
,
0200
0000
0000
0300
,
0002
0000
0000
0003
,
2000
0000
0000
3000
,
0020
0000
0000
0030
,
1000
1000
0001
1000
,
0001
0001
1000
0001
,
0010
0001
1000
0100
,
0010
0001
0100
0100
,
0001
1000
0010
0100
,
0001
0001
1000
1000
,
0100
0001
0100
0001
,
0100
1000
0100
1000
,
0010
0010
0100
0010
,
1000
0001
1000
0001
,
0100
0010
0100
0100
,
0001
1000
0001
1000
,
2002
0000
0000
3003
,
0001
0001
1000
1000
,
0220
0000
0000
0330
,
0000
0000
0000
0000
,
0220
0000
0000
0330
,
0100
0010
0100
0010
,
2000
0000
0000
3000
,
0002
0000
0000
0003
,
0220
0000
0000
0330
,
1000
1000
0001
0001
,
2002
0000
0000
3003
,
0000
0000
0000
0000
,
2002
0000
0000
3003
,
0001
0010
0100
1000
,
0002
0000
0000
0003
,
2000
0000
0000
3000
,
0010
1000
0001
0100
,
0010
1000
0100
1000
,
0010
1000
0100
0001
,
0010
1000
0100
0001
,
0100
1000
0001
0010
,
0100
0010
0001
0010
,
0010
0001
0100
1000
,
0010
0001
0100
1000
,
0100
0100
0010
0100
,
0001
0001
1000
1000
,
1000
0100
0010
0001
,
0100
1000
0100
1001
,
0220
0000
0000
0000
,
0000
0000
0000
0330
,
0001
1000
0001
1000
,
0100
0010
0220
0330
,
1000
0001
1000
0001
,
0010
0100
0220
0330
,
1000
1000
0001
0001
,
0100
0100
0001
0001
,
1000
1000
0100
0100
,
0010
0010
0100
0100
,
2000
0000
3100
0010
,
0002
0000
1003
0100
,
0020
0000
0031
0100
,
0002
0000
1003
0100
,
2000
0000
3100
0010
,
0200
0000
1300
0001
,
2000
0000
3001
1000
,
0002
0000
1003
0100
,
0220
0000
0000
0330
;
#NOTES:
     dance-single:
     :
     Medium:
     5:
     :
0000
0000
0000
0000
,
0000
0000
0000
0000
,
0000
0000
0000
0000
,
0000
0000
0000
0000
,
0000
0000
0000
0000
,
1001
0000
0000
0100
0000
1000
0001
2000
,
0000
0000
0000
3000
,
1001
0000
0000
0100
0000
0000
1100
0000
,
0202
0000
0000
0303
0000
0100
0010
0200
,
0000
0000
0000
0300
0000
0000
0100
0000
,
1001
0100
1000
0100
,
0101
0010
1000
0010
,
1010
0010
1000
0001
,
0010
0001
1000
0000
0100
1000
0001
0000
,
0110
0010
1001
0001
,
0100
0001
1000
0000
0010
1000
0001
0000
,
1100
0100
0011
0001
,
1000
0100
0001
0000
0001
0100
0001
0000
,
1100
0100
0110
0010
,
0001
0100
1000
0000
1000
0100
1000
0000
,
0101
0001
0110
0100
,
2002
0000
0000
3003
0000
1000
0000
0001
,
1000
0000
1000
0001
0000
1000
0000
2002
,
0000
0000
0000
3003
,
0000
0000
0000
0000
,
2002
0000
0000
0000
0000
0000
0000
3003
0000
0000
0100
0000
0000
0000
0100
0000
,
0010
0000
0010
0100
0000
0010
0000
0200
,
0000
0000
0000
0300
,
0020
0000
0000
0030
,
2002
0000
0000
3003
0000
0001
0000
1000
,
0010
0000
0010
1000
0000
0001
0000
2002
,
0000
0000
0000
3003
,
0000
0000
0000
0000
,
0220
0000
0000
0000
0000
0000
0000
0330
0000
0000
1000
0000
0000
0000
0100
0000
,
0001
0000
0001
0100
0000
1000
0000
2000
,
0000
0000
0000
3000
,
0002
0000
0000
0003
,
1000
0100
1000
0000
1000
0000
0100
0000
,
0010
0100
0010
0000
0001
0000
0100
0000
,
0010
0100
0010
0000
1000
0001
1000
0000
,
0001
0100
0001
0000
1000
0000
0001
0000
,
1000
0010
1000
0000
1000
0000
0010
0000
,
0100
0010
0100
0000
0001
0000
0010
0000
,
0100
0010
0100
0000
1000
0001
1000
0000
,
0001
0010
0001
0000
1000
0000
0001
0000
,
0100
0010
0100
0000
1001
0000
0110
0000
,
0010
0001
0010
0000
1100
0000
0101
0000
,
1000
0100
1000
0000
1001
0000
0101
0000
,
0010
0001
0010
0000
1000
0100
1000
0000
,
0220
0000
0000
0000
,
0000
0000
0000
0330
,
1000
0001
0101
1100
,
0100
0010
0220
0330
,
0010
1000
1010
0101
,
1000
0001
2002
3003
,
2000
3100
0200
0310
,
0020
0031
0002
1003
,
2000
3001
0002
0013
,
0020
1030
2000
3010
,
0010
0001
0100
0000
0010
1000
0100
0000
,
1100
0001
0101
1000
,
0001
1000
0100
0000
1000
0001
0100
0000
,
1001
0001
1001
1000
,
0100
0010
0001
0000
0100
0010
1000
0000
,
1010
0001
0011
1000
,
1000
0100
0001
0000
0001
0100
1000
0000
,
1001
0110
0101
1100
,
2002
0000
0000
3003
;
#NOTES:
     dance-single:
     :
     Hard:
     8:
     :
0000
0000
0000
0000
,
0000
0000
0000
0000
,
0000
0000
0000
0000
,
0000
0000
0000
0000
,
0000
0000
0000
0000
,
0200
0000
0000
1300
0000
1100
0000
0010
,
0022
0000
0000
0033
,
0002
0000
0000
0103
0000
0110
0000
0010
,
2002
0000
0000
3003
,
1001
0100
0010
0001
0010
0100
0010
0001
,
0000
1001
0100
0010
1000
0100
0010
0100
,
0000
1100
0100
0010
0001
1000
0100
1000
,
0000
1010
0010
1000
0001
0010
0001
0100
,
0000
1000
0100
1000
0000
0100
0001
0100
,
0000
0010
0100
0010
0000
0001
1000
0001
,
0000
0010
0001
0010
0000
0100
1000
0100
,
2000
3200
0320
0032
,
0003
0010
0001
0010
0000
0001
1000
0001
,
0000
0100
0010
0100
0000
0100
1000
0100
,
0000
0100
0001
0100
0000
0010
0100
0010
,
0200
0320
2030
3002
,
0020
0000
0000
0033
0000
0001
0000
0010
,
0100
0000
0100
0010
0000
0001
0000
2002
,
0000
0000
0000
3003
,
2000
0000
0000
0000
3002
0000
0000
0000
0203
0000
0000
0000
0320
0000
0000
0030
,
2002
0000
0000
0000
0000
0000
0000
3003
0000
0000
0100
0000
0000
0000
1000
0000
,
0001
0000
0001
1000
0000
0010
0000
0020
,
0000
0000
0000
0000
,
2000
0000
0000
3030
,
0202
0000
0000
0000
0000
0000
0000
0303
0000
0000
1000
0000
0000
0000
0001
0000
,
0010
0000
0010
0001
0000
1000
0000
2002
,
0000
0000
0000
3003
,
0020
0000
0000
0000
0032
0000
0000
0003
0200
0000
0000
0000
2300
0000
0000
3000
,
0220
0000
0000
0000
0000
0000
0000
0330
0000
0000
0100
0000
0000
0000
0100
0000
,
0010
0000
0010
0100
0000
0100
0000
0002
,
0000
0000
0000
0000
,
2000
0000
0000
3003
,
0000
0000
0010
0000
1000
0000
0100
0000
1000
0000
0100
0010
0000
0010
0100
0000
,
0000
0000
0010
0000
0001
0000
0100
0000
0001
0000
0100
0010
0000
0010
0100
0000
,
0000
0000
0010
0000
0100
0000
1000
0000
0100
0000
1000
0100
0000
0100
1000
0000
,
0000
0000
0100
0000
0001
0000
0010
0000
0001
0000
0010
0001
0000
0001
0010
0000
,
0000
0000
0100
0000
1000
0000
0001
0000
1000
0000
0100
0010
0000
0010
0001
0000
,
0000
0000
0100
0000
0001
0000
1000
0000
0001
0000
0100
0010
0000
0010
1000
0000
,
0000
0000
0001
0000
0010
0000
0100
0000
0010
0000
0100
1000
0000
1000
0001
0000
,
0000
0000
1000
0000
0010
0000
0100
0000
0010
0000
0100
0001
0000
0001
1000
0000
,
1001
0000
0000
0000
1000
0000
0000
1000
0001
0000
0100
0000
0100
0000
0000
0000
,
1001
0000
0000
0000
0001
0000
0000
0001
1000
0000
0100
0000
0100
0000
0000
0000
,
0110
0000
0000
0000
0010
0000
0000
0010
0100
0000
1000
0000
1000
0000
0000
0000
,
0110
0000
0000
0000
0100
0000
0000
0100
0010
0000
0001
0000
0001
0000
0000
0000
,
2002
0000
0000
0000
,
0000
0000
0000
3003
,
0010
0001
0010
0000
0010
1000
0010
0000
,
0001
0000
1000
0000
0001
0000
0000
0100
0001
0000
0000
0000
0000
0000
0000
0000
,
1000
0001
1000
0000
0001
1000
0001
0000
,
1000
0000
0010
0000
1000
0000
0000
0010
1000
0000
0000
0000
0000
0000
0000
0000
,
1000
0001
0100
0010
1000
0001
0010
0100
,
1000
0001
1000
0001
0100
0010
1000
0000
,
0001
1000
0001
1000
0100
0010
0001
0000
,
2000
0000
0000
0000
3002
0000
0000
0000
0203
0000
0000
0000
0320
0000
0000
0030
,
2000
0100
0000
0000
3100
0000
0000
0020
0000
0000
0001
0000
0000
0031
0000
0000
,
2000
0000
0000
0010
0000
0000
3010
0000
0000
1000
0000
0000
1001
0000
0000
0101
,
0000
0000
0200
0000
0000
0010
0000
0000
0310
0000
0000
2000
0000
0000
0001
0000
,
0000
3001
0000
0000
0200
0000
0000
0010
0000
0000
0310
0000
0000
1001
0000
0000
,
0000
0000
1010
0000
1001
0000
0000
1100
0000
0000
1000
0000
0000
0001
0000
0000
,
0000
0000
0011
0000
0000
1001
0000
0000
0101
0000
0000
0000
2000
0000
0000
0001
,
0000
0000
3001
0000
0000
0200
0000
0000
0010
0000
0000
0310
0000
0000
2000
0000
,
0000
0100
0000
0000
3100
0000
0000
0020
0000
0000
0001
0000
0000
0031
0000
0000
,
2002
0000
0000
3003
;
#NOTES:
     dance-double:
     :
     Beginner:
     1:
     :
00000000
00000000
00000000
00000000
,
00000000
00000000
00000000
00000000
,
00000000
00000000
00000000
00000000
,
00000000
00000000
00000000
00000000
,
00000000
00000000
00000000
00000000
,
00001000
00000000
00000000
00000000
,
00010000
00000000
00000000
00000000
,
00001000
00000000
00000000
00000000
,
00010000
00000000
00000000
00000000
,
00001000
00000000
00000100
00000000
,
00000010
00000000
00000001
00000000
,
00001000
00000000
00001000
00000000
,
01000000
00000000
01000000
00000000
,
10000000
00000000
01000000
00000000
,
00100000
00000000
10000000
00000000
,
00100000
00000000
00100000
00000000
,
01000000
00000000
01000000
00000000
,
01000000
00000000
01000000
00000000
,
00001000
00000000
00001000
00000000
,
00000001
00000000
00000001
00000000
,
00000100
00000000
00000100
00000000
,
00000110
00000000
00000000
00000000
,
00000010
00000000
00000100
00000000
,
00011000
00000000
00000000
00000000
,
00000000
00000000
00000000
00000000
,
01100000
00000000
00000000
00000000
,
00100000
00000000
01000000
00000000
,
00001000
00000000
00000000
00000000
,
00010000
00000000
00000000
00000000
,
00011000
00000000
00000000
00000000
,
00001000
00000000
00010000
00000000
,
01100000
00000000
00000000
00000000
,
00000000
00000000
00000000
00000000
,
01100000
00000000
00000000
00000000
,
10000000
00000000
00100000
00000000
,
00010000
00000000
00000000
00000000
,
00100000
00000000
00000000
00000000
,
00010000
00000000
01000000
00000000
,
01000000
00000000
00001000
00000000
,
00001000
00000000
00001000
00000000
,
00000001
00000000
00000001
00000000
,
00000010
00000000
00000010
00000000
,
00001000
00000000
00001000
00000000
,
00001000
00000000
00001000
00000000
,
01000000
00000000
01000000
00000000
,
01000000
00000000
01000000
00000000
,
01000000
00000000
01000000
00000000
,
00010000
00000000
00010000
00000000
,
00100000
00000000
00100000
00000000
,
10010000
00000000
00000000
00000000
,
00000000
00000000
00000000
00000000
,
10010000
00000000
00010000
00000000
,
01100000
00000000
01000000
00000000
,
10010000
00000000
00010000
00000000
,
00011000
00000000
00000100
00000000
,
00000100
00000000
00000001
00000000
,
00001000
00000000
00000100
00000000
,
00010000
00000000
00001000
00000000
,
01000000
00000000
00010000
00000000
,
10000000
00000000
00100000
00000000
,
00010000
00000000
00001000
00000000
,
00001000
00000000
00000100
00000000
,
00000001
00000000
00001000
00000000
,
00001000
00000000
00000100
00000000
,
00000001
00000000
00000100
00000000
,
00010000
00000000
01000000
00000000
,
00100000
00000000
01000000
00000000
,
10010000
00000000
00000000
00000000
;
#NOTES:
     dance-double:
     :
     Easy:
     2:
     :
00000000
00000000
00000000
00000000
,
00000000
00000000
00000000
00000000
,
00000000
00000000
00000000
00000000
,
00000000
00000000
00000000
00000000
,
00000000
00000000
00000000
00000000
,
00002000
00000000
00000000
00003000
,
00020000
00000000
00000000
00030000
,
00002000
00000000
00000000
00003000
,
00020000
00000000
00000000
00030000
,
00001000
00001000
00000100
00000001
,
00000010
00000010
00000001
00000100
,
00001000
00000100
00001000
00010000
,
01000000
00010000
01000000
01000000
,
10000000
10000000
01000000
01000000
,
00100000
00100000
10000000
10000000
,
00100000
00010000
00100000
00010000
,
01000000
10000000
01000000
10000000
,
01000000
00100000
01000000
00010000
,
00001000
00010000
00001000
00000100
,
00000001
00000100
00000001
00000100
,
00000100
00000010
00000100
00000100
,
00000220
00000000
00000000
00000330
,
00000010
00000001
00000100
00001000
,
00022000
00000000
00000000
00033000
,
00000000
00000000
00000000
00000000
,
02200000
00000000
00000000
03300000
,
00100000
10000000
01000000
00010000
,
00002000
00000000
00000000
00003000
,
00020000
00000000
00000000
00030000
,
00022000
00000000
00000000
00033000
,
00001000
00001000
00010000
01000000
,
02020000
00000000
00000000
03030000
,
00000000
00000000
00000000
00000000
,
02200000
00000000
00000000
03300000
,
10000000
01000000
00100000
00010000
,
00020000
00000000
00000000
00030000
,
00200000
00000000
00000000
00300000
,
00010000
10000000
01000000
00010000
,
01000000
00010000
00001000
00010000
,
00001000
00000100
00001000
00000100
,
00000001
00000100
00000001
00000100
,
00000010
00000100
00000010
00000100
,
00001000
00000100
00001000
00000100
,
00001000
00010000
00001000
00010000
,
01000000
00010000
01000000
00010000
,
01000000
00100000
01000000
00100000
,
01000000
10000000
01000000
10000000
,
00010000
10000000
00010000
10000000
,
00100000
01000000
00100000
01100000
,
20020000
00000000
00000000
00000000
,
00000000
00000000
00000000
30030000
,
10010000
10000000
00010000
10000000
,
01100000
00100000
01000000
00100000
,
10010000
01000000
00010000
00001000
,
00011000
00001000
00000100
00000001
,
00000200
00000001
00000001
00000301
,
00002000
00000100
00000100
00003100
,
00020000
00001000
00001000
00031000
,
02000000
00010000
00010000
03010000
,
20000000
00000000
30100000
01000000
,
00020000
00000000
00031000
00000100
,
00002000
00000000
00003100
00000010
,
00000002
00000000
00001003
00000100
,
00002000
00000000
00003100
00000010
,
00000002
00000000
00000103
00001000
,
00020000
00000000
01030000
10000000
,
00200000
00000000
01300000
10000000
,
20020000
00000000
00000000
30030000
;
#NOTES:
     dance-double:
     :
     Medium:
     6:
     :
00000000
00000000
00000000
00000000
,
00000000
00000000
00000000
00000000
,
00000000
00000000
00000000
00000000
,
00000000
00000000
00000000
00000000
,
00000000
00000000
00000000
00000000
,
00011000
00000000
00000000
00001000
00000000
00010000
00000000
00010000
,
00022000
00000000
00000000
00033000
,
00011000
00000000
00000000
00001000
00000000
00000100
00000000
00001000
,
00002200
00000000
00000000
00003300
,
00000100
00000100
00000001
00000000
00001000
00001000
00000100
00000000
,
00010000
00010000
00001000
00000000
00001000
00001000
00010000
00000000
,
00001000
00001000
01000000
00000000
00010000
00010000
10000000
00000000
,
01000000
01000000
00100000
00000000
00100000
00100000
01000000
00000000
,
10000000
01000000
00100000
01000000
,
00000000
00010000
00001000
00010000
00000000
00001000
00010000
00001000
,
00000100
00000001
00000010
00000100
,
00000000
00000010
00000001
00000010
00000000
00000100
00001000
00000100
,
00000010
00001000
00010000
01000000
,
00000000
10000000
01000000
10000000
00000000
00010000
00100000
00010000
,
10000000
01000000
10000000
00100000
,
10000000
00100000
01000000
00010000
00001000
00000000
00010000
00000000
,
00022000
00000000
00000000
00033000
00000000
00001000
00000000
00001000
,
00000100
00000000
00000100
00001000
00000000
00000100
00000000
00002200
,
00000000
00000000
00000000
00003300
,
00002000
00003100
00000200
00000310
,
00000220
00000000
00000000
00000330
00000000
00000010
00000000
00001000
,
00000001
00000000
00000001
00001000
00000000
00000010
00000000
00000200
,
00000000
00000000
00000000
00000300
,
00002000
00000000
00000000
00003000
,
00022000
00000000
00000000
00033000
00000000
00010000
00000000
00010000
,
01000000
00000000
01000000
00010000
00000000
01000000
00000000
20020000
,
00000000
00000000
00000000
30030000
,
00200000
10300000
20000000
31000000
,
02200000
00000000
00000000
03300000
00000000
00100000
00000000
00010000
,
10000000
00000000
10000000
00010000
00000000
01000000
00000000
00020000
,
00000000
00000000
00000000
00030000
,
00002000
00000000
00000000
00003000
,
00000000
00000001
00000010
00000001
00000000
00000010
00000001
00000010
,
00000000
00000100
00000010
00000100
00000000
00000110
00000000
00001001
,
00000000
00000100
00001000
00000100
00000000
00001000
00000100
00001000
,
00000000
00010000
00001000
00010000
00000000
00011000
00000000
01001000
,
00000000
00010000
01000000
00010000
00000000
01000000
00010000
01000000
,
00000000
00100000
01000000
00100000
00000000
11000000
00000000
01010000
,
00000000
10000000
01000000
10000000
00000000
01000000
10000000
01000000
,
00000000
00100000
00010000
00100000
00000000
01100000
00000000
10010000
,
00000000
01000000
00010000
01000000
00000000
01000000
00010000
00001000
,
00000000
00000100
00001000
00000100
00000000
00001100
00000000
00000101
,
00000000
00000100
00000010
00000100
00000000
00000010
00000100
00000010
,
00000000
00001000
00000100
00000001
00000000
00000110
00000000
00001001
,
00002002
00000000
00000000
00000000
,
00000000
00000000
00000000
00003003
,
00001000
00000001
00001000
00000001
00000000
00001001
00000000
00000100
,
00001000
00010000
00001000
00010000
00000000
00000000
00000000
00000000
,
01000000
00100000
01000000
00100000
00000000
01100000
00000000
00100000
,
10000000
00010000
10000000
00010000
00000000
00000000
00000000
00000000
,
00010000
00001000
00010000
00001000
00000000
00011000
00000000
00001000
,
00000100
00000010
00000100
00000010
00000000
00000000
00000000
00000000
,
00001000
00000001
00001000
00000001
00000000
00001001
00000000
00000010
,
00000020
00001000
00000100
00001030
,
00001000
00000001
00000100
00001000
00000000
00001000
00000000
00010000
,
00000000
00010000
00000000
01000000
10000000
00000000
10010000
00000000
,
01000000
00010000
00100000
00010000
00000000
10000000
00000000
10000000
,
00000000
01000000
00000000
01000000
00100000
00000000
01100000
00000000
,
00100000
01000000
00010000
00001000
00000000
00001000
00000000
00000100
,
00000000
00000100
00000000
00000001
00001000
00000000
00001001
00000000
,
00000010
00000001
00000100
00001000
00000000
00001000
00000000
00010000
,
00000000
00010000
00000000
00001000
00010000
00000000
00011000
00000000
,
00022000
00000000
00000000
00033000
;
#NOTES:
     dance-double:
     :
     Hard:
     8:
     :
00000000
00000000
00000000
00000000
,
00000000
00000000
00000000
00000000
,
00000000
00000000
00000000
00000000
,
00000000
00000000
00000000
00000000
,
00000000
00000000
00000000
00000000
,
00001001
00000000
00000000
00000001
00000000
00000100
00001000
00010000
,
02000000
00000000
00000000
03000000
,
10010000
00000000
00000000
10000000
00000000
00100000
10000000
01000000
,
20000000
00100000
00010000
31000000
,
00100000
01000000
00100000
00010000
00001000
00000000
00000000
00001000
,
00000000
00000001
00000100
00000010
00001000
00000100
00000000
00010000
,
00000000
00010000
00001000
01000000
00010000
10000000
00000000
10000000
,
00000000
00010000
00100000
01000000
00010000
00001000
00010000
00001000
,
00000100
00000010
00000100
00000001
,
00000010
00000001
00000100
00000000
00000100
00000001
00000010
00000000
,
00000100
00000010
00000001
00000010
,
00000010
00001000
00010000
00000000
00001000
00010000
01000000
00000000
,
10000000
00010000
01000000
00100000
,
00100000
10000000
01000000
00000000
01000000
10000000
00100000
00000000
,
01000000
10000000
01000000
00100000
,
00100000
00010000
00001000
00000000
00010000
00001000
00000100
00000000
,
00022000
00000000
00000000
00033000
00000000
00010000
00000000
00001000
,
00010000
00000000
00010000
00001000
00000000
00010000
00000000
00022000
,
00000000
00000000
00000000
00000000
00033000
00000000
00000000
00000000
00020000
00000000
00000000
00000100
00000000
00000000
00030100
00000000
,
00002000
00000000
00000000
00000010
00000000
00000000
00003010
00000000
00000200
00000000
00000000
00000001
00000000
00000000
00000301
00000000
,
00000022
00000000
00000000
00000033
00000000
00001000
00000000
00000001
,
00000100
00000000
00000100
00000001
00000000
00001000
00000000
00000200
,
00000000
00000010
00000000
00001300
,
00020000
00100000
00000000
01030000
,
02020000
00000000
00000000
00000000
00000000
00000000
00000000
03030000
00000000
00000000
10000000
00000000
00000000
00000000
00010000
00000000
,
00100000
00000000
00100000
00010000
00000000
10000000
00000000
20020000
,
00000000
00000000
00000000
00000000
30030000
00000000
00000000
00000000
02000000
00000000
00000000
00100000
00000000
00000000
03100000
00000000
,
00020000
00000000
00000000
01000000
00000000
00000000
01030000
00000000
00200000
00000000
00000000
10000000
00000000
00000000
10300000
00000000
,
22000000
00000000
00000000
33000000
00000000
00010000
00000000
01000000
,
00100000
00000000
00100000
01000000
00000000
01000000
00000000
00020000
,
00000000
00100000
00000000
00031000
,
00000200
00000010
00000000
00001300
,
00000010
00000100
00001000
00000000
00000100
00001000
00010000
00000000
,
00001000
00010000
00100000
00000000
00010000
00100000
10000000
00000000
,
00100000
10000000
00010000
00000000
10000000
00010000
01000000
00000000
,
00010000
01000000
00100000
00000000
01000000
00100000
10000000
00000000
,
10000000
00100000
01000000
00000000
00100000
01000000
00010000
00000000
,
01000000
00010000
10000000
00000000
00010000
10000000
00100000
00000000
,
10000000
00100000
00010000
00000000
00100000
00010000
00001000
00000000
,
00010000
00001000
00000100
00000000
00001000
00000100
00000010
00000000
,
00000010
00000100
00000010
00000100
00001000
00010000
00001000
00010000
,
00100000
01000000
00100000
01000000
00010000
10000000
01000000
00000000
,
00100000
01000000
00100000
01000000
00010000
00001000
00010000
00001000
,
00000010
00000100
00000010
00000100
00001000
00000001
00000100
00000000
,
00002002
00000000
00000000
00000000
,
00000000
00000000
00000000
00003003
,
00000010
00001000
00000100
00010000
00001000
00010000
00000100
00000010
,
00001000
00010000
00001000
00010000
01000000
10000000
00010000
00000000
,
00100000
00010000
01000000
00001000
00010000
00001000
01000000
00100000
,
00010000
00001000
00010000
00001000
00000100
00000001
00001000
00000000
,
00001000
00000001
00001000
00000001
00000100
00000010
00000100
00000000
,
00001000
00010000
00001000
00010000
01000000
00100000
01000000
00000000
,
10000000
01000000
00100000
00010000
01000000
00100000
00010000
00000000
,
20000000
32000000
03020000
00230000
,
01300000
10000000
00000000
00000000
00100000
00000000
00000000
01000000
00000000
00000000
00100000
00000000
00000000
00100000
00000000
00000000
,
00010000
00000000
00000000
00001000
00000000
00000000
00010000
00000000
00000000
00001000
00000000
00000000
00000100
00000000
00000000
00000001
,
00000000
00000000
00000010
00000000
00000000
00001000
00000000
00000000
00010000
00000000
00000000
00001000
00000000
00000000
00010000
00000000
,
00000000
00001000
00000000
00000000
00000010
00000000
00000000
00000001
00000000
00000000
00000100
00000000
00000000
00001000
00000000
00000000
,
00000000
00000000
00011000
00000000
00011000
00000000
00000000
00010000
00000000
00000000
01000000
00000000
00000000
00100000
00000000
00000000
,
00000000
00000000
00100000
00000000
00000000
01000000
00000000
00000000
10000000
00000000
00000000
00000000
01000000
00000000
00000000
00100000
,
00000000
00000000
00010000
00000000
00000000
00001000
00000000
00000000
00000010
00000000
00000000
00001000
00000000
00000000
00000001
00000000
,
00000000
00001000
00000000
00000000
00000100
00000000
00000000
00001000
00000000
00000000
00010000
00000000
00000000
00001000
00000000
00000000
,
00022000
00000000
00000000
00033000
;
