#TITLE:I'm In Heaven (Radio Version);
#ARTIST:Jason Nevins Presents Holly James;
#BANNER:I'm In Heaven (Radio Version).png;
#BACKGROUND:I'm In Heaven (Radio Version)-bg.png;
#CDTITLE:./CDTITLES/DANCE DANCE REVOLUTION ULTRAMIX 2.PNG;
#MUSIC:I'm In Heaven (Radio Version).ogg;
#SAMPLESTART:9.6;
#SAMPLELENGTH:15;
#DISPLAYBPM:125;
#BPMS:0=124.85;

//---------------dance-single - ----------------
#NOTES:
     dance-single:
     :
     Beginner:
     1:
     :
0000
0000
0000
0000
,
0000
0000
0000
0000
,
0000
0000
0000
0000
,
0000
0000
0000
0000
,
0000
0000
0000
0000
,
1000
0000
1000
0000
,
0100
0000
0100
0000
,
1000
0000
0001
0000
,
0010
0000
0001
0000
,
0001
0000
0000
0000
,
1000
0000
0000
0000
,
0100
0000
0000
0000
,
1000
0000
0000
0000
,
0001
0000
0001
0000
,
0010
0000
0010
0000
,
0100
0000
0100
0000
,
1000
0000
1000
0000
,
0001
0000
0000
0010
,
0000
0001
0000
0100
,
0000
1000
0000
1000
,
0000
0100
0000
0001
,
0000
1000
0000
1000
,
0000
0100
0000
0001
,
0000
0100
0000
1000
,
0000
0100
0000
0100
,
0000
0000
0000
0010
,
0000
0000
0000
0001
,
0000
1000
0000
0100
,
0000
0010
0000
0010
,
0000
0000
0010
0000
,
0100
0000
0001
0000
,
0100
0000
0001
0000
,
1000
0000
1000
0000
,
0000
0010
0000
0010
,
0000
1000
0000
1000
,
0000
0001
0000
0001
,
0000
0010
0000
0010
,
0000
1000
0000
0100
,
0000
1000
0000
0001
,
0000
0010
0000
0010
,
0000
0100
0000
0100
,
0000
1000
0000
0100
,
0000
1000
0000
1000
,
0000
0001
0000
0001
,
0000
0100
0000
0100
,
0000
0010
0000
1000
,
0000
1000
0000
1000
,
0000
0010
0000
0010
;

//---------------dance-single - ----------------
#NOTES:
     dance-single:
     :
     Easy:
     3:
     :
0000
0000
0000
0000
,
0000
0000
0000
0000
,
0000
0000
0000
0000
,
0000
0000
0000
0000
,
0000
0000
0000
0000
,
1000
0010
1000
0001
,
0100
0001
0100
0010
,
1000
1000
0001
0001
,
0010
0100
0001
1000
,
0002
0000
0000
0003
,
2000
0000
0000
3000
,
0200
0000
0000
0300
,
2000
0000
0000
3000
,
0001
0000
0001
0000
,
0010
0000
0010
0000
,
0100
0000
0100
0000
,
1000
0000
1000
0000
,
0001
1000
0000
0010
,
0100
0001
0000
0100
,
0010
1000
0000
1000
,
0010
0100
0000
0001
,
0001
1000
0000
1000
,
0010
0100
0000
0001
,
1000
0100
0000
1000
,
0010
0100
0000
0100
,
2000
0000
0000
3010
,
0200
0000
0000
0301
,
0001
1000
0001
0100
,
0010
0010
0010
0010
,
2000
3000
0020
0030
,
0200
0300
0002
0003
,
0100
0100
0001
1000
,
2000
3000
2000
3000
,
0000
0010
0000
0010
,
0000
1000
0000
1000
,
0000
0001
0000
0001
,
0000
0010
0000
0010
,
0000
1000
0000
0100
,
0000
1000
0000
0001
,
0000
0010
0000
0010
,
0000
0100
0000
0100
,
1000
1000
0001
0100
,
0020
1000
0000
1030
,
0001
0001
1000
0001
,
0000
0100
0000
0100
,
0001
0010
0100
1000
,
0020
1000
0000
1030
,
0000
0010
0000
0010
,
2002
0000
0000
3003
;

//---------------dance-single - ----------------
#NOTES:
     dance-single:
     :
     Medium:
     4:
     :
0000
0000
0000
0000
,
0000
0000
0000
0000
,
0000
0000
0000
0000
,
0000
0000
0000
0000
,
0000
0000
0000
0000
,
0010
0000
0001
0000
0010
0000
1000
0010
,
0100
0000
0010
0000
1000
0000
0100
1000
,
0010
0000
0100
0000
0010
0000
0001
1000
,
0010
1000
2000
3002
,
2003
0000
0000
3010
0000
0000
0000
0000
,
0200
0000
0000
0301
0000
0000
0000
0000
,
0200
0000
0000
0310
0000
0000
0000
0000
,
0002
0000
0000
1003
0000
0000
0000
0000
,
0020
0000
0000
0031
0000
0000
0000
0001
,
0020
0000
0000
0130
0000
0000
0000
0000
,
0002
0000
0000
1003
0000
0000
0000
0100
,
0020
0000
0000
1030
0000
0000
0000
0000
,
1100
0000
0101
0000
0010
1000
0100
0000
,
0010
0001
0100
0000
0100
0001
0010
0000
,
0011
0000
1001
0000
0010
0001
0100
0000
,
0010
1000
0100
0000
0100
1000
0010
0000
,
1001
0000
0110
0000
0010
0100
0010
0000
,
1000
0001
0100
0000
0100
0010
1000
0000
,
0100
0000
0010
0000
0001
0010
0100
0000
,
1000
0010
0100
0000
0010
0010
0010
0010
,
1000
1000
1001
0100
,
1100
1000
1010
0001
,
1100
1000
0110
0010
,
1100
0010
0101
1000
,
0010
1000
0000
0001
0100
0000
0100
0000
,
0010
0001
0000
1000
0100
0000
0100
0000
,
0010
1000
0000
0001
1000
0000
0100
0000
,
0010
0001
0000
1000
0001
0000
0100
0000
,
0002
0000
0000
0203
0000
0000
0310
0000
,
2000
0000
0000
3200
0000
0000
0310
0000
,
0002
0000
0000
0203
0000
0000
0310
0000
,
0220
0000
0330
2002
0000
0000
3003
0000
,
1000
0100
0001
0000
0001
0100
1000
0000
,
0001
0010
0100
0000
1000
0010
0100
0000
,
0001
1000
0100
0000
1000
0001
0100
0000
,
0100
0001
0100
0000
0110
0000
1001
0000
,
0100
0010
0100
0110
,
1000
0001
1000
1100
,
0010
0001
0010
0011
,
0100
1000
0100
1010
,
0002
0000
0000
1003
0000
0000
0000
0000
,
0020
0000
0000
1030
0000
0000
0100
0002
,
0000
0003
0101
1010
,
2002
0000
0000
3003
;

//---------------dance-single - ----------------
#NOTES:
     dance-single:
     :
     Hard:
     5:
     :
0000
0000
0000
0000
,
0000
0000
0000
0000
,
0000
0000
0000
0000
,
0000
0000
0000
0000
,
0000
0000
0000
0000
,
0010
1000
0001
0000
0010
0001
1000
0000
,
1000
0001
1000
0100
1000
0001
0100
0000
,
0010
0100
1000
0000
0010
0100
0001
0000
,
1000
0001
1000
0000
0110
0000
1001
0000
,
0002
0000
0000
0020
0000
0000
0033
0000
,
0200
0000
0000
0002
0000
0000
0303
0000
,
0200
0000
0000
0020
0000
0000
0330
0000
,
0002
0000
0000
2000
0000
0000
3003
0000
,
0020
0000
0000
0002
0000
0000
0033
0001
,
0020
0000
0000
0200
0000
0000
0330
0000
,
0002
0000
0000
2000
0000
0000
3003
0100
,
0020
0000
0000
2000
0000
0000
3030
0000
,
1100
0000
0101
0000
0010
1000
0100
0000
,
0010
0001
0100
1000
0100
0001
0010
0000
,
0011
0000
1001
0000
0001
1000
0010
0000
,
0010
1000
0100
1000
0010
0100
0001
0000
,
1001
0000
0110
0000
0010
0100
0010
0000
,
1000
0001
0100
1000
0100
0010
1000
0000
,
1100
0000
0011
0000
0001
0010
0100
0000
,
1000
0100
1000
0100
0001
0100
0010
0100
,
0010
1000
1001
0110
,
1100
1001
1010
0101
,
1000
0001
1000
0000
0010
0100
0010
0000
,
1000
0010
0100
0001
0100
0010
1000
0000
,
0010
1000
0001
0100
0000
0010
0100
0000
,
0010
1000
0001
0010
0000
0001
1000
0000
,
0010
1000
0010
1000
0000
0001
0100
0000
,
1000
0001
1000
0001
0000
0010
0100
0000
,
0002
0000
0103
0201
0000
0000
0310
0000
,
2000
0000
3100
0210
0000
0000
0310
0000
,
0002
0000
0103
0120
0000
0000
0130
0000
,
0020
0000
1030
2002
0000
3003
0110
0000
,
1000
0100
0001
0100
0000
0100
1000
0100
,
0001
0100
0001
0100
0000
0000
0100
1000
,
0001
0000
1000
0100
0000
0000
0010
1000
,
0100
0001
0100
1000
0000
0000
1001
0000
,
0010
0001
1000
0001
0000
0000
0110
0000
,
1000
0100
0010
0001
0000
0000
0110
0000
,
1000
0100
0000
0100
1000
0000
0011
0000
,
0010
0100
0000
0100
0010
0000
1010
0000
,
0002
0000
0000
2000
0000
0000
3003
0000
,
0020
0000
0000
1000
0030
0000
0100
2000
,
0000
0000
0000
3000
,
2002
0000
0000
3003
;

//---------------dance-double - ----------------
#NOTES:
     dance-double:
     :
     Beginner:
     1:
     :
00000000
00000000
00000000
00000000
,
00000000
00000000
00000000
00000000
,
00000000
00000000
00000000
00000000
,
00000000
00000000
00000000
00000000
,
00000000
00000000
00000000
00000000
,
00100000
00000000
00001000
00000000
,
00010000
00000000
00000010
00000000
,
00001000
00000000
00000001
00000000
,
00001000
00000000
00001001
00000000
,
00001000
00000000
00000000
00000000
,
00000010
00000000
00000000
00000000
,
00010000
00000000
00000000
00000000
,
00001000
00000000
00000000
00000000
,
00100000
00000000
00100000
00000000
,
01000000
00000000
01000000
00000000
,
00010000
00000000
00010000
00000000
,
00001000
00000000
00001000
00000000
,
00001001
00000000
00001000
00000000
,
00000010
00000000
00000010
00000000
,
00000110
00000000
00000001
00000000
,
00000100
00000000
00010000
00000000
,
00011000
00000000
00100000
00000000
,
00010000
00000000
10000000
00000000
,
10010000
00000000
01100000
00000000
,
10010000
00000000
00000000
00000000
,
00100000
00000000
00100000
00000000
,
00010000
00000000
00001000
00000000
,
00000010
00000000
00000100
00000000
,
00000010
00000000
00000001
00000000
,
00000100
00000000
00000010
00000000
,
00010000
00000000
00001000
00000000
,
00000100
00000000
00001000
00000000
,
01000000
00000000
00010000
00000000
,
00001000
00000000
00000000
00001000
,
00000000
00100000
00000000
00010000
,
00000000
00000010
00000000
00000001
,
00000000
00000010
00000000
00010000
,
00000000
00010000
00000000
00001000
,
00000000
00010000
00000000
10000000
,
00000000
01000000
00000000
10000000
,
00000000
00000000
10010000
00000000
,
01000000
00000000
00010000
00000000
,
00001000
00000000
00000010
00000000
,
00000001
00000000
00000001
00000000
,
00000100
00000000
00001000
00000000
,
00010000
00000000
00100000
00000000
,
10000000
00000000
00010000
00000000
,
10000000
00000000
00010000
00000000
,
10010000
00000000
00000000
00000000
;

//---------------dance-double - ----------------
#NOTES:
     dance-double:
     :
     Easy:
     3:
     :
00000000
00000000
00000000
00000000
,
00000000
00000000
00000000
00000000
,
00000000
00000000
00000000
00000000
,
00000000
00000000
00000000
00000000
,
00000000
00000000
00000000
00000000
,
00100000
00000000
00001000
00000000
,
00010000
00000000
00000010
00000000
,
00001000
00000000
00000001
00000000
,
00001000
00001000
00001001
00001001
,
00002000
00000000
00000000
00000000
00000000
00003000
00000000
00000000
,
00000020
00000000
00000000
00000000
00000000
00000030
00000000
00000000
,
00020000
00000000
00000000
00000000
00000000
00030000
00000000
00000000
,
00002000
00000000
00000000
00000000
00000000
00003000
00000000
00000000
,
00100000
00000000
00100000
00000000
,
01000000
00000000
01000000
00000000
,
00010000
00000000
00010000
00000000
,
00001000
00000000
00001000
00000000
,
00001001
00000000
00001000
00000000
,
00000010
00000100
00000010
00000010
,
00000110
00000000
00000001
00000000
,
00000100
00001000
00010000
00001000
,
00011000
00000000
00100000
00000000
,
00010000
00010000
10000000
10000000
,
10010000
00000000
01100000
00000000
,
20020000
00000000
00000000
30030000
,
00100000
00100000
00100000
00100000
,
00010000
00010000
00001000
00001000
,
00000010
00000001
00000100
00001000
,
00000010
00000010
00000001
00001001
,
00000100
00000000
00000010
00000000
,
00010000
00000000
00001000
00000000
,
00000100
00000000
00001000
00000000
,
01000000
00000000
00010000
00000000
,
00001000
00000010
00000000
00001000
,
00010000
00100000
00000000
00010000
,
00001000
00000010
00000000
00000001
,
00000100
00000010
00000000
00010000
,
00001000
00010000
00000000
00001000
,
00100000
00010000
00000000
10000000
,
00010000
01000000
00000000
10000000
,
00010000
00000000
10010000
10010000
,
01000000
00000000
00010000
00000000
,
00001000
00000000
00000010
00000000
,
00000001
00000000
00000001
00000000
,
00000100
00000000
00001000
00000000
,
00010000
00000000
00100000
00000000
,
10000000
00000000
00010000
00000000
,
10000000
10000000
00010000
00010000
,
20020000
00000000
00000000
30030000
;

//---------------dance-double - ----------------
#NOTES:
     dance-double:
     :
     Medium:
     4:
     :
00000000
00000000
00000000
00000000
,
00000000
00000000
00000000
00000000
,
00000000
00000000
00000000
00000000
,
00000000
00000000
00000000
00000000
,
00000000
00000000
00000000
00000000
,
10010000
01000000
00000000
01000000
,
00000000
00100000
10000000
01000000
,
00010000
00001000
00000000
00001000
,
00000000
00000010
00001001
00001001
,
00000200
00001000
00000000
00001300
,
00002000
00000001
00000000
00003001
,
00000002
00000100
00000000
00000103
,
00000200
00001000
00000000
00001300
,
00002000
00010000
00000000
00013000
,
00020000
01000000
00000000
01030000
,
02000000
00100000
00000000
03100000
,
00200000
10000000
00000000
10300000
,
00020000
10030000
20000000
30010000
,
00100000
00010000
01000000
10000000
,
00020000
10030000
20000000
30010000
,
01000000
00010000
00001000
00000100
,
00002000
00003001
00000002
00001003
,
00000010
00001000
00000100
00000001
,
00002000
00003001
00000002
00001003
,
00000100
00001000
00010000
01000000
,
01100000
00010000
00000000
10000000
,
00000000
01000000
00010000
00001000
,
00000110
00001000
00000000
00000001
,
00000000
00000100
00001000
00011000
,
00000010
00000001
00000100
00001000
,
00010000
01000000
10000000
00100000
,
00010000
00001000
00000010
00000001
,
00000100
00001000
00010000
00011000
,
00002000
00000100
00000000
00000100
,
00000000
00010000
00000000
00013000
,
00020000
01000000
00000000
01000000
,
00000000
00001000
00000000
00031000
,
00002000
00013000
00200000
00301000
,
00002000
00013000
00020000
00031000
,
00000020
00001030
00020000
00031000
,
00001000
00010000
00011000
00011000
,
00100000
10000000
01000000
00010000
,
00001000
00000100
00000001
00000010
,
00001000
00010000
00100000
10000000
,
01000000
00010000
00001000
00011000
,
00010000
00001000
00000010
00000001
,
00000100
00001000
00010000
01000000
,
10000000
00100000
00010000
00001000
,
00022000
00000000
00000000
00033000
;

//---------------dance-double - ----------------
#NOTES:
     dance-double:
     :
     Hard:
     5:
     :
00000000
00000000
00000000
00000000
,
00000000
00000000
00000000
00000000
,
00000000
00000000
00000000
00000000
,
00000000
00000000
00000000
00000000
,
00000000
00000000
00000000
00000000
,
01000000
00001000
00010000
00000100
00000100
00000000
00001000
00000000
,
00000100
00010000
00001000
01000000
01000000
00000000
00010000
00000000
,
00100000
01000000
10000000
00000000
00010000
00000000
10010000
00000000
,
10000000
00010000
01100000
01100000
,
20010000
00000000
00000000
00200000
00000000
00000000
30300000
00000000
,
02000000
00000000
00000000
00020000
00000000
00000000
03030000
00000000
,
00200000
00000000
00000000
00002000
00000000
00000000
00303000
00000000
,
00020000
00000000
00000000
00000200
00000000
00000000
00030300
00000000
,
00000020
00000000
00000000
00000002
00000000
00000000
00000033
00000001
,
00000200
00000000
00000000
00000020
00000000
00000000
00000330
00000000
,
00020000
00000000
00000000
00002000
00000000
00000000
00033000
01000000
,
00200000
00000000
00000000
20000000
00000000
00000000
30300000
00000000
,
01000000
00010000
00001000
00000100
,
00000010
00001000
00000001
00000000
00000010
00001000
00010000
00000000
,
01000000
10000000
00100000
00010000
,
00100000
10000000
01000000
00000000
00010000
00001000
00000100
00000010
,
00000100
00001000
00010000
01000000
,
00100000
00010000
10000000
00000000
00100000
00010000
00001000
00000000
,
00000100
00000001
00000010
00001000
,
00000010
00000001
00000010
00000001
00001000
00000100
00001000
00000001
,
00000100
00001000
00010000
00011000
,
00001000
01000000
00100000
01100000
,
00100000
00010000
01000000
00000000
00100000
10000000
01000000
00000000
,
00100000
00010000
01000000
10000000
01000000
00001000
00010000
00000000
,
00001000
00010000
00001000
00010000
00000000
00100000
10000000
00000000
,
01000000
00100000
01000000
00100000
00000000
00001000
00010000
00000000
,
00000100
00000000
00000001
00000000
00000100
00001000
00001100
00000000
,
00010000
00000000
00001000
00000000
01000000
00010000
01010000
00000000
,
20000000
00000000
01000000
02000000
33000000
00000000
00110000
00000000
,
00020000
00000000
01000000
02000000
03030000
00000000
10100000
00000000
,
20000000
00000000
00010000
00020000
30030000
00000000
01100000
00000000
,
00200000
00000000
01000000
02000000
03300000
00000000
10010000
00000000
,
01000000
00010000
00001000
00000000
00010000
00000000
00011000
00000000
,
00000100
00001000
00010000
00000000
00001000
00000000
00011000
00000000
,
00100000
00010000
00001000
00000000
00010000
00000000
00011000
00000000
,
00000010
00001000
00010000
00000000
00011000
00000000
00011000
00000000
,
00001000
00010000
01000000
10000000
00000000
00000000
00100000
00000000
,
00010000
00001000
00000100
00000001
00000000
00000000
00000010
00000000
,
00001000
00010000
00000000
00010000
00001000
00000000
00011000
00000000
,
00010000
00001000
00000000
00001000
00010000
00000000
00011000
00000000
,
00200000
00000000
00000000
02000000
00000000
00000000
03300000
00000000
,
20000000
00000000
00000000
30100000
00000000
00000000
01000000
00200000
,
00000000
00000000
00000000
00300000
,
20020000
00000000
00000000
30030000
;
