#TITLE:Hit 'n' Slap;
#ARTIST:Asletics;
#BANNER:Hit 'n' Slap.png;
#BACKGROUND:Hit 'n' Slap-bg.png;
#MUSIC:Hit 'n' Slap.ogg;
#SAMPLESTART:49.8;
#SAMPLELENGTH:15;
#BPMS:0=94.118,16=103;
#BGCHANGES:4.75=Hit 'n' Slap.avi=1=1=0=0,135.75=Hit 'n' Slap-bg.png=1=0=0=1;

//---------------dance-single - ----------------
#NOTES:
     dance-single:
     :
     Beginner:
     1:
     :
0000
0000
0000
0000
,
0000
0000
0000
0000
,
0000
0000
0000
0000
,
0000
0000
0000
0000
,
0100
0000
0000
0000
,
1000
0000
0100
0000
,
0100
0000
0001
0000
,
1000
0000
0010
0000
,
0001
0000
0001
0000
,
0100
0000
0001
0000
,
0100
0000
1000
0000
,
0001
0000
1000
0000
,
0010
0000
0100
0000
,
0010
0000
0001
0000
,
1000
0000
0100
0000
,
0010
0000
0001
0000
,
0100
0000
0010
0000
,
1000
0000
0000
0000
,
0001
0000
0000
0000
,
0010
0000
0000
0000
,
0100
0000
0000
0000
,
1000
0000
0010
0000
,
0001
0000
0001
0000
,
1000
0000
1000
0000
,
0002
0000
0000
0003
,
0001
0000
0100
0000
,
1000
0000
0001
0000
,
0010
0000
1000
0000
,
0010
0000
0001
0000
,
0100
0000
1000
0000
,
0100
0000
1000
0000
,
0001
0000
0100
0000
,
0010
0000
0001
0000
,
0010
0000
0100
0000
,
1001
0000
0000
0000
;

//---------------dance-single - ----------------
#NOTES:
     dance-single:
     :
     Easy:
     2:
     :
0000
0000
0000
0000
,
0000
0000
0000
0000
,
0000
0000
0000
0000
,
0000
0000
0000
0000
,
0010
0000
0000
0000
,
0001
0000
0010
0000
,
0010
0000
1000
0000
,
0001
0000
0100
0000
,
1000
0000
1000
0000
,
0010
0000
0010
0000
,
0010
0000
0001
0000
,
0001
1000
0001
1000
,
0010
0000
0010
0010
,
1000
0001
0000
0010
,
0001
1000
0000
0100
,
1000
0010
0001
0001
,
1000
1000
0010
0100
,
0001
0000
0000
0000
,
1000
0000
0000
0000
,
0010
0000
0000
0000
,
0001
0000
0000
1001
,
0010
0000
0010
0000
,
1000
0000
1000
0000
,
0001
0000
0001
0000
,
2000
0000
0000
3000
,
1000
0100
0001
0100
,
1000
1000
0001
0001
,
0010
1000
0010
0001
,
0010
0000
0010
0000
,
1001
0000
1000
0000
,
0100
0000
0002
0000
,
0103
0010
0100
0010
,
1000
1000
0001
0001
,
1000
0001
1000
0001
,
1001
0000
0000
0000
;

//---------------dance-single - ----------------
#NOTES:
     dance-single:
     :
     Medium:
     4:
     :
0000
0000
0000
0000
,
0000
0000
0000
0000
,
0000
0000
0000
0000
,
0000
0000
0000
0000
,
1001
0000
1001
0000
0100
0010
0100
0000
,
0010
0000
2000
0000
3010
0200
0000
0000
,
0301
0000
0000
0000
1000
0200
0000
0000
,
0310
0000
0000
0000
1000
0002
0000
0003
,
0010
0001
0010
0000
0001
0100
0010
0000
,
0110
0000
0110
0000
0010
0001
0100
0000
,
1000
0100
0001
1000
,
0011
0000
0011
0000
0010
0001
1000
0000
,
0100
0001
0100
1000
,
1100
0000
1100
0000
0010
0001
1000
0000
,
1000
0001
1000
0010
,
1010
0000
1010
0000
0010
1000
0100
0000
,
0100
1000
0100
0000
0010
0000
0010
0000
,
0011
0000
1100
0000
0010
1000
0001
0000
,
0100
0010
0001
0000
0010
0000
1000
0000
,
1001
0000
0110
0000
1000
0100
0010
0000
,
0010
0001
1000
0000
0001
0000
1000
0000
,
0001
0100
0001
0000
1000
0100
1000
0000
,
0100
0000
1001
0000
0100
0001
0100
0000
,
0010
1000
0010
0000
0001
0100
0001
0000
,
1000
0000
0011
0000
0010
0001
0100
0000
,
1010
0000
0101
0000
1000
0001
1000
0000
,
0010
0001
1000
0000
0001
1000
0100
0000
,
0011
0000
1100
0000
0001
1000
0100
0000
,
0001
0100
0010
0000
0100
1000
0100
0000
,
0101
0000
1010
0000
0010
1000
0100
0000
,
1000
0001
0010
0000
0010
0100
1000
0000
,
0011
0000
1100
0000
1000
0100
0001
0000
,
0001
0100
0010
0000
0100
1000
0010
0000
,
0110
0000
1001
0000
0001
1000
0001
1000
,
1001
0000
0000
0000
;

//---------------dance-single - ----------------
#NOTES:
     dance-single:
     :
     Hard:
     6:
     :
0000
0000
0000
0000
,
0000
0000
0000
0000
,
0000
0000
0000
0000
,
0000
0000
0000
0000
,
1100
0000
0101
0000
0100
0001
0100
1000
,
0100
0000
1001
0000
0010
0100
0000
0000
,
0110
0000
0000
0000
0100
0010
0000
0000
,
0011
0000
0000
0000
1000
0001
0000
0000
,
0010
0001
0010
0100
1000
0100
0010
1000
,
0010
0000
0110
0000
0010
0001
0100
0000
,
1000
0100
1000
0010
0001
0100
1000
0000
,
1100
0000
0101
0000
0010
0001
1000
0000
,
0001
1000
0001
0100
0010
0100
0001
0010
,
0001
0000
1001
0000
0010
0001
1000
0000
,
1000
0100
0001
0100
1000
0100
0010
0000
,
0001
0010
0001
1000
0010
1000
0100
0001
,
0100
1000
0100
1000
0010
0001
0010
0000
,
0010
0100
1000
0100
0010
1000
0001
0000
,
0100
0010
0001
0100
0010
0100
1000
0000
,
0001
0010
0100
1000
0100
0010
0001
0000
,
0010
0001
1000
0100
0001
0000
1001
0000
,
0001
0100
1000
0000
1000
0100
0001
0000
,
0110
0000
1100
0000
0100
0001
0100
0000
,
0010
1000
0010
0100
0001
0100
0001
0000
,
1000
0100
0010
0000
0010
0001
0100
0000
,
1010
0000
0101
0000
1000
0001
1000
0000
,
0010
0001
1000
0001
0100
1000
0100
0000
,
0010
0001
1000
0100
0001
0100
0010
0100
,
1000
0100
0010
0001
0100
1000
0100
0000
,
0001
0010
0100
0001
0100
1000
0100
0000
,
1000
0001
0010
0100
0010
0100
1000
0000
,
0001
1000
0010
0100
0010
0100
0001
0000
,
0010
1000
0010
1000
0100
1000
0010
0001
,
0010
0100
1000
0100
0010
0100
0010
0100
,
1001
0000
0000
0000
;

//---------------dance-double - ----------------
#NOTES:
     dance-double:
     :
     Beginner:
     1:
     :
00000000
00000000
00000000
00000000
,
00000000
00000000
00000000
00000000
,
00000000
00000000
00000000
00000000
,
00000000
00000000
00000000
00000000
,
00100000
00000000
00010000
00000000
,
00010000
00000000
00001000
00000000
,
00001001
00000000
00000001
00000000
,
00000110
00000000
00000100
00000000
,
00000010
00000000
00001000
00000000
,
00001000
00000000
00010000
00000000
,
10010000
00000000
10000000
00000000
,
01100000
00000000
00100000
00000000
,
01000000
00000000
00010000
00000000
,
00010000
00000000
01000000
00000000
,
00100000
00000000
00001000
00000000
,
00000100
00000000
00000001
00000000
,
00000010
00000000
00001000
00000000
,
00000000
01000000
00000000
10000000
,
00000000
00010000
00000000
01000000
,
00000000
00010000
00000000
10000000
,
00000000
01000000
00000000
10010000
,
00000000
00000000
01000000
00000000
,
00011000
00000000
00000100
00000000
,
00011000
00000000
01000000
00000000
,
10010000
00000000
00000000
00000000
,
01000000
00000000
00010000
00000000
,
01000000
00000000
00001000
00000000
,
00000100
00000000
00000001
00000000
,
00000001
00000000
00001000
00000000
,
00000010
00000000
00010000
00000000
,
10000000
00000000
00010000
00000000
,
00100000
00000000
00010000
00000000
,
00001000
00000000
00000100
00000000
,
00000100
00000000
00000001
00000000
,
00001001
00000000
00000000
00000000
;

//---------------dance-double - ----------------
#NOTES:
     dance-double:
     :
     Easy:
     4:
     :
00000000
00000000
00000000
00000000
,
00000000
00000000
00000000
00000000
,
00000000
00000000
00000000
00000000
,
00000000
00000000
00000000
00000000
,
00100000
00000000
00000000
00000000
00010000
10000000
00010000
10000000
,
00010000
00000000
01000000
00000000
00001000
00001000
00000000
00000000
,
00001001
00000000
00000000
00000000
00000001
00000001
00000000
00000000
,
00000110
00000000
00000000
00000000
00000100
00000100
00000000
00000000
,
00000010
00000000
00000000
00000000
00001000
00000001
00001000
00000001
,
00001000
00000000
00000100
00000000
00010000
00010000
00000000
00000000
,
10010000
00000000
00000000
00000000
10000000
10000000
00000000
00000000
,
01100000
00000000
00000000
00000000
00100000
00100000
00000000
00000000
,
01000000
00000000
00000000
00000000
00010000
10000000
00010000
10000000
,
00010000
00100000
01000000
10000000
,
00100000
01000000
00001000
00010000
,
00000100
00000010
00000001
00000100
,
00000010
00010000
00001000
00010000
,
00000000
01000000
00000000
10000000
,
00000000
00010000
00000000
01000000
,
00000000
00010000
00000000
10000000
,
00000000
01000000
00000000
10010000
,
10010000
00000000
00000000
00000000
01000000
01000000
00000000
00000000
,
00011000
00000000
00000000
00000000
00000100
00000100
00000000
00000000
,
00011000
00000000
00000000
00000000
01000000
01000000
00000000
00000000
,
20020000
00000000
30030000
00000000
,
01000000
00100000
00010000
10000000
,
01000000
00010000
00001000
00000010
,
00000100
00001000
00000001
00000100
,
00000001
00000100
00001000
00000000
00001000
00000100
00000001
00000000
,
00000010
00001000
00010000
00100000
,
10000000
01000000
00010000
00000000
00010000
01000000
10000000
00000000
,
00100000
10000000
00010000
01000000
,
00001000
00010000
00000100
00000010
,
00000100
00000010
00000100
00001000
00000001
00001000
00000001
00000100
,
00001001
00000000
00000000
00000000
;

//---------------dance-double - ----------------
#NOTES:
     dance-double:
     :
     Medium:
     6:
     :
00000000
00000000
00000000
00000000
,
00000000
00000000
00000000
00000000
,
00000000
00000000
00000000
00000000
,
00000000
00000000
00000000
00000000
,
00000000
00000000
00000000
00000000
00001001
00001001
00001001
00001001
,
00001001
00000000
00001000
00000000
00000001
00000001
00001000
00000000
,
00000100
00000000
00001000
00000000
00000100
00000100
00001000
00001000
,
00000010
00000000
00001000
00000000
00000010
00000010
00001000
00000000
,
00000001
00001000
00001000
00000000
00000010
00000010
00000110
00000110
,
00000110
00000000
00010000
00000000
00001000
00001000
00010000
00000000
,
00000010
00000000
00010000
00000000
00000010
00000010
00010000
00000000
,
00000100
00000000
00010000
00000000
00000100
00000100
00010000
00000000
,
00001000
00000000
00010000
00000000
00001000
00001000
00011000
00011000
,
00011000
00000000
00110000
00000000
10000000
10000000
10100000
00000000
,
01000000
00000000
11000000
00000000
00010000
00010000
01010000
00000000
,
10000000
00000000
10010000
00000000
00100000
00100000
01100000
00000000
,
10000000
00000000
10100000
00000000
00010000
00010000
01010000
00000000
,
10000000
00000000
11000000
00000000
00010000
00010000
00011000
00000000
,
00001000
00000000
00001100
00000000
00000001
00000001
00001001
00000000
,
00000001
00000000
00000011
00000000
00001000
00001000
00011000
00000000
,
00010000
00000000
00110000
00000000
10000000
10000000
20020000
00000000
,
30030000
10010000
00100000
01100000
,
00010000
00011000
00000010
00000110
,
00000100
00000110
00000100
00001001
,
00022000
00000000
00000000
00033000
,
00001000
00000000
00000110
00000000
00000001
00001000
00001001
00000000
,
00000001
00000000
00000110
00000000
00001000
00000001
00001001
00000000
,
00001000
00000000
00011000
00000000
00010000
00010000
00011000
00000000
,
00010000
00000000
00011000
00000000
00001000
00001000
00011000
00011000
,
00011000
00000000
01100000
00000000
10000000
00010000
10010000
00000000
,
10000000
00000000
01100000
00000000
00010000
10010000
10000000
10010000
,
00010000
00000000
00011000
00000000
00001000
00001000
00011000
00000000
,
00011000
00010000
00011000
00001000
00011000
00010000
00011000
00001000
,
00010000
00010000
00001000
00001000
00010000
00001000
00001000
00010000
,
00011000
00000000
00000000
00000000
;

//---------------dance-double - ----------------
#NOTES:
     dance-double:
     :
     Hard:
     8:
     :
00000000
00000000
00000000
00000000
,
00000000
00000000
00000000
00000000
,
00000000
00000000
00000000
00000000
,
00000000
00000000
00000000
00000000
,
00000000
00000000
00000000
00000000
00001001
00001001
00000101
00000101
,
00001001
00000000
00001100
00000000
00001000
00010000
00011000
00000000
,
00010000
00000000
10010000
00000000
00100000
10000000
10100000
00000000
,
01000000
00100000
01100000
00000000
10000000
00010000
10010000
00000000
,
01000000
00010000
01010000
00000000
10010000
10010000
10100000
10100000
,
10010000
00000000
00110000
00000000
00010000
00001000
00011000
00000000
,
00001000
00000000
00001001
00000000
00000100
00000001
00000101
00000000
,
00000010
00000100
00000110
00000000
00000001
00001000
00001001
00000000
,
00000010
00001000
00001010
00000000
00001001
00001001
00000101
00000101
,
00001001
00000000
00000100
00001000
00000100
00000000
00000010
00000000
00000001
00000000
00001000
00000000
00000010
00000000
00000100
00000000
,
00000001
00000000
00000000
00000000
00000100
00000000
00001000
00000000
00010000
00001000
00010000
00001000
00010000
00000000
01000000
00000000
,
10000000
00000000
00100000
01000000
00100000
00000000
00010000
00000000
00100000
00000000
10000000
00000000
01000000
00000000
00100000
00000000
,
00010000
00000000
00000000
00000000
10000000
00000000
01000000
00000000
00100000
00010000
00100000
00010000
00100000
00000000
01000000
00000000
,
10000000
00000000
01000000
00000000
00010000
00000000
00001000
00000000
00000100
00000000
00000001
00000010
00000001
00000000
00000010
00000000
,
00000100
00000000
00001000
00000000
00000100
00000000
00000001
00000000
00000100
00000000
00001000
00000010
00001000
00000000
00000001
00000000
,
00000100
00000000
00000001
00000000
00000010
00000000
00000100
00000000
00000010
00000000
00000001
00001000
00000001
00000000
00000100
00000000
,
00001000
00000000
00010000
00000000
00100000
00000000
00010000
00000000
00001000
00000000
00010000
00000000
01000000
10000000
01000000
00000000
,
00100000
00010000
01000000
00001000
00100000
00001000
00010000
00000100
,
00010000
00000010
00001000
00000100
00010000
00001000
00100000
00010000
,
01000000
00001000
00100000
00001000
00010000
00000100
00010000
00001000
,
00022000
00000000
00000000
00033000
,
00010000
00000000
01000000
00100000
01000000
00000000
00010000
00000000
01000000
00000000
10000000
00100000
10000000
00000000
00010000
00000000
,
01000000
00000000
00100000
10000000
00100000
00000000
01000000
00000000
00010000
10000000
00010000
00000000
10000000
00000000
01000000
00000000
,
00010000
00000000
00001000
00010000
00001000
00000000
00010000
00000000
00001000
00000000
00000100
00000001
00000100
00000000
00000001
00000000
,
00000010
00000000
00001000
00000010
00001000
00000000
00010000
00000000
00001000
00010000
00001000
00010000
00001000
00000000
00000000
00000000
,
01010000
00010000
01010000
01000000
01100000
10100000
10010000
00000000
,
10100000
00000000
00100000
00000000
01100000
00000000
01000000
00000000
00010000
00100000
00010000
10000000
01000000
10000000
00010000
01000000
,
00010000
00000000
00011000
00001000
00001100
00000100
00001001
00000000
,
00000100
00000010
00000100
00000010
00001000
00000001
00001000
00000001
00001000
00000010
00001000
00000010
00001000
00000001
00000100
00000001
,
00000100
00001000
00010000
00001000
00011000
00011000
00011000
00011000
,
00011000
00000000
00000000
00000000
;
