#TITLE:Feel the Light;
#ARTIST:TOMOSUKE;
#BANNER:Feel the Light.png;
#BACKGROUND:Feel the Light-bg.png;
#CDTITLE:./CDTITLES/Song Pack 12.PNG;
#MUSIC:Feel the Light.ogg;
#SAMPLESTART:16.605;
#SAMPLELENGTH:15;
#DISPLAYBPM:130;
#BPMS:0=130;

//---------------dance-single - ----------------
#NOTES:
     dance-single:
     :
     Beginner:
     1:
     :
0000
0000
0000
0000
,
0000
0000
0000
0000
,
0000
0000
0000
0000
,
0000
0000
0000
0000
,
0000
0000
0000
0000
,
0010
0000
1000
0000
,
0010
0000
0001
0000
,
0100
0000
1000
0000
,
0100
0000
0001
0000
,
0010
0000
0000
0000
,
0001
0000
0000
0000
,
0100
0000
0000
0000
,
0001
0000
0000
0000
,
0010
0000
0000
0001
,
0000
0010
0000
1000
,
0000
0010
0000
0100
,
0000
0100
0000
0010
,
0000
0000
0000
0000
,
0000
0000
0000
1000
,
0000
0000
0000
0000
,
1000
0000
0001
0000
,
0010
0000
0000
0000
,
0000
0000
0000
0100
,
0000
0000
0000
0000
,
0001
0000
1000
0000
,
0010
0000
0010
0000
,
0001
0000
0001
0000
,
0100
0000
0100
0000
,
0001
0000
0001
0000
,
0010
0000
0010
0000
,
0001
0000
0001
0000
,
0100
0000
0100
0000
,
0001
0000
0001
0000
,
1001
0000
0000
0000
,
0110
0000
0000
0100
,
0000
0100
0000
0000
,
0110
0000
0000
0001
,
0000
0001
0000
0000
,
1001
0000
0000
1000
,
0000
1000
0000
0000
,
1001
0000
1001
0000
,
0100
0000
0100
0000
,
0010
0000
0010
0000
,
0001
0000
0001
0000
,
1000
0000
1000
0000
,
0010
0000
0010
0000
,
0100
0000
0100
0000
,
0001
0000
0001
0000
,
1000
0000
1000
0000
;

//---------------dance-single - ----------------
#NOTES:
     dance-single:
     :
     Easy:
     3:
     :
0000
0000
0000
0000
,
0000
0000
0000
0000
,
0000
0000
0000
0000
,
0000
0000
0000
0000
,
0000
0000
0000
0000
,
0010
0010
1000
0001
,
0010
0010
0001
1000
,
0100
0100
1000
0001
,
0100
0100
0001
1000
,
0010
0200
0300
0000
,
0001
2000
3000
0000
,
0100
0020
0030
0000
,
0001
2000
3000
0000
,
0010
0200
0300
0001
,
0100
0020
0030
1000
,
0001
0020
0030
0100
,
1000
0200
0300
0010
,
0002
0000
0000
0000
,
0000
0000
0003
2000
,
0002
0000
0000
3003
,
1000
1000
0001
0001
,
0020
0000
0000
0000
,
0000
0000
0030
0200
,
0020
0000
0000
0330
,
0001
0001
1000
1000
,
0010
0100
0010
0100
,
0001
1000
0001
1000
,
0100
0010
0100
0010
,
0001
0100
0001
0100
,
0010
1000
0010
1000
,
0001
1000
0001
1000
,
0100
0010
0100
0010
,
0001
0010
0001
1000
,
1001
0000
0000
0000
,
1100
0000
0000
0100
,
0010
0100
0000
0000
,
0101
0000
0000
0001
,
1000
0001
0000
0000
,
1010
0000
0000
1000
,
0001
1000
0000
0000
,
0011
0000
2002
3003
,
0100
0000
0100
0000
,
0010
0000
0010
0000
,
0001
0000
0001
0000
,
1000
0000
1000
0000
,
0010
0000
0010
0000
,
0100
0000
0100
0000
,
0001
0000
0001
0000
,
1000
0000
1000
0000
;

//---------------dance-single - ----------------
#NOTES:
     dance-single:
     :
     Medium:
     4:
     :
0000
0000
0000
0000
,
0000
0000
0000
0000
,
0000
0000
0000
0000
,
0000
0000
0000
0000
,
0000
0000
0000
0000
,
0010
0010
1000
1001
,
0001
0010
0100
1100
,
1000
0010
0100
0101
,
0001
1000
0010
1010
,
2000
0100
0001
3100
,
0020
0001
0100
0031
,
0200
0001
0010
0301
,
0020
1000
0100
1030
,
0001
1000
0001
0010
,
0100
0010
0100
1000
,
0020
0100
0000
0130
,
0002
1000
0000
1003
,
0110
0001
0100
1000
,
0100
0010
1000
0010
,
0001
0010
1000
0100
,
0010
1000
0010
0001
,
0100
0010
1000
0001
,
0010
0100
1000
0010
,
0100
0001
1000
0100
,
0010
0001
1000
0001
,
1001
0100
0010
1000
,
0001
0010
0100
1100
,
1000
0001
0100
0010
,
0001
1000
0100
0110
,
0010
1000
0100
0010
,
0001
1000
0001
0100
,
1000
0100
1000
0001
,
0100
0001
0100
0001
,
1001
0000
0100
0000
0000
0010
0000
0100
,
1000
0001
0101
0100
,
0001
0000
0011
0000
0000
0100
0000
1000
,
0001
0100
0101
0001
,
1000
0000
1001
0000
0000
0010
0000
0001
,
1000
0010
0101
0100
,
0010
0000
1010
0000
0000
0100
0000
0001
,
0010
0100
2002
3003
,
1001
0001
0010
0001
,
0010
0100
1000
0100
,
1000
0010
0100
0010
,
0100
0001
0100
0001
,
1000
0100
0001
0100
,
1000
0010
0001
0010
,
1000
0100
0001
0010
,
1000
0100
0001
0010
;

//---------------dance-single - ----------------
#NOTES:
     dance-single:
     :
     Hard:
     6:
     :
0000
0000
0000
0000
,
0000
0000
0000
0000
,
0000
0000
0000
0000
,
0000
0000
0000
0000
,
0000
0000
0000
0000
,
1000
0000
1000
0000
0000
0001
0000
0100
0000
0010
0000
0000
1000
0000
0000
0000
,
0001
0000
0001
0000
0000
1000
0000
0100
0000
0010
0000
0000
0001
0000
0000
0000
,
0010
0000
0010
0000
0000
0100
0000
1000
0000
0001
0000
0000
0100
0000
0000
0000
,
0010
0000
0010
0000
0000
0100
0000
0001
0000
1000
0000
0000
0100
0000
0000
0000
,
0020
0000
0000
0001
0000
0000
0001
0000
0000
0031
0000
0000
0001
0000
0100
0000
,
0020
0000
0000
1000
0000
0000
1000
0000
0000
1030
0000
0000
1000
0000
0100
0000
,
0020
0000
0000
0000
0030
0000
0001
0000
1000
0000
0000
0010
0000
0000
1000
0000
,
0001
0000
0000
0000
0000
0000
0010
0000
0100
0000
0000
1000
0000
0000
0100
0000
,
0020
0000
0000
0100
0000
0000
0100
0000
0000
0130
0000
0000
0100
0000
1000
0000
,
0020
0000
0000
0100
0000
0000
0100
0000
0000
0130
0000
0000
0100
0000
0001
0000
,
2000
0000
0000
0000
3000
0000
0010
0000
0100
0000
0000
0001
0000
0000
0100
0000
,
0010
0000
0000
0000
0000
0000
0010
0000
0100
0000
0000
1000
0000
0000
0100
0000
,
0010
0000
1000
0000
0000
0001
0000
0100
0000
0001
0000
0000
1000
0000
0000
0000
,
0100
0000
1000
0000
0000
0001
0000
0010
0000
0001
0000
0000
1000
0000
0000
0000
,
0001
0000
0100
0000
0000
0010
0000
1000
0000
0010
0000
0000
0100
0000
0000
0000
,
0001
0000
1000
0000
0000
0100
0000
0010
0000
0100
0000
0000
1000
0000
0000
0000
,
0010
0000
0100
0000
0000
0001
0000
1000
0000
0001
0000
0000
0100
0000
0000
0000
,
0010
0000
1000
0000
0000
0001
0000
0010
0000
0001
0000
0000
1000
0000
0000
0000
,
0010
0000
0100
0000
0000
0001
0000
0010
0000
0001
0000
0000
0100
0000
0000
0000
,
0010
0000
1000
0000
0000
0001
0000
1000
0000
0001
0000
0000
1000
0000
0000
0000
,
0020
0000
0000
0130
0000
0000
0000
0000
0200
0000
0000
0310
0000
0000
0000
0000
,
2000
0000
0000
3001
0000
0000
0000
0020
0000
0000
0001
0000
0000
0130
0000
0000
,
2000
0000
0000
3100
0000
0000
0000
0000
0002
0000
0000
0103
0000
0000
0000
0000
,
0020
0000
0000
0130
0000
0000
0000
0002
0000
0000
0010
0000
0000
1003
0000
0000
,
0200
0000
0000
0310
0000
0000
0000
0000
0002
0000
0000
0103
0000
0000
0000
0000
,
0020
0000
0000
1030
0000
0000
0000
0200
0000
0000
0010
0000
0000
1300
0000
0000
,
0002
0000
0000
1003
0000
0000
0000
0000
0020
0000
0000
0130
0000
0000
0000
0000
,
0002
0000
0000
1003
0000
0000
0000
0200
0000
0000
0010
0000
0000
0301
0000
0000
,
0100
0000
1001
0000
0000
0010
0000
0100
,
0010
0000
0100
0010
0000
0000
2000
0000
,
3001
0000
1001
0000
0000
1000
0000
0001
,
0100
0000
0001
0100
0000
0000
0020
0000
,
0130
0000
0110
0000
0000
0001
0000
1000
,
0100
0000
1000
0100
0000
0000
0020
0000
,
0031
0000
0011
0000
0000
0100
0000
0001
,
1000
0100
1001
0000
,
0100
0000
0001
0000
0000
1000
0000
0010
0000
1000
0000
0000
0001
0000
0010
0000
,
0100
0000
1000
0000
0000
0001
0000
0100
0000
1000
0000
0000
0100
0000
0001
0000
,
1000
0000
0010
0000
0000
0100
0000
0001
0000
0100
0000
0000
0010
0000
1000
0000
,
0100
0000
0010
0000
0000
0001
0000
1000
0000
0001
0000
0000
0100
0000
0010
0000
,
1000
0000
0100
0000
0000
1000
0000
0001
0000
1000
0000
0000
0010
0000
0100
0000
,
0001
0000
1000
0000
0000
0100
0000
0010
0000
0100
0000
0000
0010
0000
0001
0000
,
1000
0000
0010
0000
0000
0100
0000
0001
0000
0100
0000
0000
0010
0000
1000
0000
,
0001
0000
0100
0000
0000
0010
0000
0100
0000
0010
0000
0000
1000
0000
0001
0000
;

//---------------dance-double - ----------------
#NOTES:
     dance-double:
     :
     Beginner:
     1:
     :
00000000
00000000
00000000
00000000
,
00000000
00000000
00000000
00000000
,
00000000
00000000
00000000
00000000
,
00000000
00000000
00000000
00000000
,
00000000
00000000
00000000
00000000
,
00100000
00000000
10000000
00000000
,
10000000
00000000
01000000
00000000
,
01000000
00000000
00010000
00000000
,
00010000
00000000
00000100
00000000
,
00000100
00000000
00000000
00000000
,
00000001
00000000
00000000
00000000
,
00000010
00000000
00000000
00000000
,
00001000
00000000
00000000
00000000
,
00100000
00000000
00000000
00010000
,
00000000
00100000
00000000
10000000
,
00000000
00100000
00000000
01000000
,
00000000
00001000
00000000
00000100
,
00000000
00000000
00000000
00000000
,
00000000
00000000
00000000
00000100
,
00000000
00000000
00000000
00000000
,
00001000
00000000
00010000
00000000
,
00100000
00000000
00000000
00000000
,
00000000
00000000
00000000
01000000
,
00000000
00000000
00000000
00000000
,
00010000
00000000
10000000
00000000
,
00100000
00000000
00100000
00000000
,
00010000
00000000
00010000
00000000
,
00001000
00000000
00001000
00000000
,
00000100
00000000
00000100
00000000
,
00000001
00000000
00000001
00000000
,
00000001
00000000
00000001
00000000
,
00000010
00000000
00000010
00000000
,
00000100
00000000
00000100
00000000
,
00011000
00000000
00000000
00000000
,
01100000
00000000
00000000
00100000
,
00000000
00100000
00000000
00000000
,
01100000
00000000
00000000
00010000
,
00000000
00010000
00000000
00000000
,
00011000
00000000
00000000
00001000
,
00000000
00001000
00000000
00000000
,
00000110
00000000
00001001
00000000
,
00000100
00000000
00000100
00000000
,
00001000
00000000
00001000
00000000
,
00010000
00000000
00010000
00000000
,
01000000
00000000
01000000
00000000
,
00100000
00000000
00100000
00000000
,
00010000
00000000
00010000
00000000
,
10000000
00000000
10000000
00000000
,
01000000
00000000
01000000
00000000
;

//---------------dance-double - ----------------
#NOTES:
     dance-double:
     :
     Easy:
     3:
     :
00000000
00000000
00000000
00000000
,
00000000
00000000
00000000
00000000
,
00000000
00000000
00000000
00000000
,
00000000
00000000
00000000
00000000
,
00000000
00000000
00000000
00000000
,
00100000
00000000
10000000
00100000
,
10000000
00000000
01000000
00010000
,
01000000
00000000
00010000
00001000
,
00010000
00000000
00000100
00001000
,
00000100
00000020
00000030
00000000
,
00000001
00002000
00003000
00000000
,
00000010
00000200
00000300
00000000
,
00001000
00020000
00030000
00000000
,
00100000
02000000
03000000
00010000
,
01000000
00200000
00300000
10000000
,
00010000
00200000
00300000
01000000
,
00010000
00002000
00003000
00000100
,
00000002
00000000
00000000
00000000
,
00000000
00000000
00000003
00000200
,
00002000
00000000
00000000
00003300
,
00001000
00001000
00010000
00010000
,
00200000
00000000
00000000
00000000
,
00000000
00000000
00300000
02000000
,
00020000
00000000
00000000
03030000
,
00010000
00010000
10000000
10000000
,
00100000
01000000
00100000
01000000
,
00010000
00100000
00010000
00100000
,
00001000
00010000
00001000
00010000
,
00000100
00001000
00000100
00001000
,
00000001
00000010
00000001
00000010
,
00000001
00000100
00000001
00000100
,
00000010
00001000
00000010
00001000
,
00000100
00010000
00000100
00010000
,
00011000
00000000
00000000
00000000
,
01010000
00000000
00000000
00100000
,
10000000
00100000
00000000
00000000
,
01010000
00000000
00000000
00010000
,
00001000
00010000
00000000
00000000
,
00011000
00000000
00000000
00001000
,
00000100
00001000
00000000
00000000
,
00000101
00000000
00002002
00003003
,
00000100
00000000
00000100
00000000
,
00001000
00000000
00001000
00000000
,
00010000
00000000
00010000
00000000
,
01000000
00000000
01000000
00000000
,
00100000
00000000
00100000
00000000
,
00010000
00000000
00010000
00000000
,
10000000
00000000
10000000
00000000
,
01000000
00000000
01000000
00000000
;

//---------------dance-double - ----------------
#NOTES:
     dance-double:
     :
     Medium:
     3:
     :
00000000
00000000
00000000
00000000
,
00000000
00000000
00000000
00000000
,
00000000
00000000
00000000
00000000
,
00000000
00000000
00000000
00000000
,
00000000
00000000
00000000
00000000
,
00000010
00000010
00001000
00000001
,
00000010
00000010
00001000
00010000
,
00100000
00100000
10000000
00010000
,
01000000
01000000
00100000
00010000
,
00002000
00010000
00000000
00013000
,
00000200
00000010
00000000
00000310
,
00000002
00000100
00000000
00000103
,
00000020
00001000
00000000
00001030
,
00000100
00010000
00001000
00100000
,
00010000
01000000
00100000
10000000
,
02000000
00010000
00000000
03010000
,
00002000
00010000
00000000
00013000
,
00011000
00001000
00000100
00001000
,
00000100
00000001
00000100
00000001
,
00000010
00000001
00000010
00000001
,
00000010
00001000
00000010
00001000
,
00010000
00100000
00010000
00100000
,
10000000
00100000
10000000
00100000
,
10000000
01000000
10000000
01000000
,
00010000
01000000
00010000
00001000
,
00011000
00000100
00000010
00001000
,
00010000
01000000
00100000
00010000
,
00001000
00000100
00000010
00001000
,
00010000
01000000
00100000
00010000
,
01000000
00010000
01000000
00001000
,
00010000
00001000
00010000
00000100
,
00001000
00000100
00001000
00000001
,
00000100
00000001
00000100
00000001
,
00001001
00000000
00001100
00000000
,
00011000
00000000
01010000
01000000
,
00010000
00100000
00110000
00000000
,
11000000
00000000
01010000
00010000
,
00001000
00010000
00011000
00000000
,
00001100
00000000
00000101
00000100
,
00000010
00001000
00001010
00000000
,
00011000
00000000
00022000
00033000
,
00011000
00010000
00100000
00010000
,
00100000
10000000
00100000
10000000
,
01000000
10000000
01000000
10000000
,
01000000
00010000
01000000
00010000
,
00001000
00000100
00001000
00000100
,
00000001
00000100
00000001
00000100
,
00000001
00000010
00000001
00000010
,
00001000
00000010
00001000
00010000
;

//---------------dance-double - ----------------
#NOTES:
     dance-double:
     :
     Hard:
     5:
     :
00000000
00000000
00000000
00000000
,
00000000
00000000
00000000
00000000
,
00000000
00000000
00000000
00000000
,
00000000
00000000
00000000
00000000
,
00000000
00000000
00000000
00000000
,
00100000
00100000
00100000
00000000
00010000
00000000
10000000
00000000
,
01000000
01000000
01000000
00000000
00010000
00000000
00001000
00000000
,
00000100
00000100
00000100
00000000
00000001
00000000
00001000
00000000
,
00000010
00000010
00000010
00000000
00000100
00000000
00001000
00000000
,
00020000
00000000
00000000
00001000
00000000
00000000
00001000
00000000
00000000
00001000
00000000
00000000
00031000
00000000
00010000
00000000
,
02000000
00000000
00000000
00100000
00000000
00000000
00100000
00000000
00000000
00100000
00000000
00000000
03100000
00000000
00010000
00000000
,
01000000
00000000
00000000
00000000
00000000
00000000
00100000
00000000
01000000
00000000
00000000
00010000
00000000
00000000
01000000
00000000
,
00100000
00000000
00000000
00000000
00000000
00000000
00010000
00000000
00001000
00000000
00000000
00100000
00000000
00000000
00001000
00000000
,
00020000
00000000
00000000
00001000
00000000
00000000
00001000
00000000
00000000
00001000
00000000
00000000
00031000
00000000
00000100
00000000
,
00000020
00000000
00000000
00000100
00000000
00000000
00000100
00000000
00000000
00000100
00000000
00000000
00000130
00000000
00000001
00000000
,
00000010
00000000
00000000
00000000
00000000
00000000
00000100
00000000
00001000
00000000
00000000
00000001
00000000
00000000
00001000
00000000
,
00000100
00000000
00000000
00000000
00000000
00000000
00010000
00000000
00001000
00000000
00000000
01000000
00000000
00000000
00001000
00000000
,
00010000
00000000
00100000
00000000
00000000
10000000
00000000
00100000
00000000
10000000
00000000
00000000
00010000
00000000
00000000
00000000
,
00100000
00000000
01000000
00000000
00000000
10000000
00000000
01000000
00000000
00010000
00000000
00000000
00001000
00000000
00000000
00000000
,
00010000
00000000
00000100
00000000
00000000
00001000
00000000
00000010
00000000
00001000
00000000
00000000
00000001
00000000
00000000
00000000
,
00001000
00000000
00000100
00000000
00000000
00010000
00000000
00001000
00000000
00010000
00000000
00000000
00001000
00000000
00000000
00000000
,
00010000
00000000
01000000
00000000
00000000
00100000
00000000
01000000
00000000
00100000
00000000
00000000
00010000
00000000
00000000
00000000
,
10000000
00000000
00100000
00000000
00000000
01000000
00000000
00010000
00000000
01000000
00000000
00000000
00100000
00000000
00000000
00000000
,
00010000
00000000
00001000
00000000
00000000
00010000
00000000
00000100
00000000
00010000
00000000
00000000
00001000
00000000
00000000
00000000
,
00000100
00000000
00000010
00000000
00000000
00001000
00000000
00000001
00000000
00001000
00000000
00000000
00000001
00000000
00000000
00000000
,
00000020
00001030
00000002
00000103
,
00002000
00000000
00000000
00000000
00013000
00000000
00000000
01000000
00000000
00000000
00100000
00000000
00000000
00010000
00000000
00000000
,
20000000
31000000
00200000
00310000
,
00002000
00000000
00000000
00000000
00013000
00000000
00000000
00001000
00000000
00000000
00000100
00000000
00000000
00000010
00000000
00000000
,
00002000
00003100
00020000
00031000
,
00200000
00000000
00000000
00000000
00310000
00000000
00000000
00100000
00000000
00000000
01000000
00000000
00000000
10000000
00000000
00000000
,
00200000
01300000
00020000
00130000
,
00002000
00000000
00000000
00000000
00013000
00000000
00000000
00000100
00000000
00000000
00001000
00000000
00000000
00000010
00000000
00000000
,
00000100
00000000
00000110
00000000
00000000
00000001
00000000
00001000
,
00000100
00000000
00001000
00000100
00000000
00000000
00020000
00000000
,
00031000
00000000
00011000
00000000
00000000
00100000
00000000
00010000
,
01000000
00000000
00010000
01000000
00000000
00000000
00200000
00000000
,
10300000
00000000
10100000
00000000
00000000
00010000
00000000
00100000
,
01000000
00000000
00100000
01000000
00000000
00000000
00020000
00000000
,
00031000
00000000
00011000
00000000
00000000
00000100
00000000
00000001
,
00000010
00000100
00001001
00000000
,
00000010
00000000
00000100
00000000
00000000
00000001
00000000
00000100
00000000
00000001
00000000
00000000
00001000
00000000
00000000
00000000
,
00000100
00000000
00000010
00000000
00000000
00000001
00000000
00000010
00000000
00001000
00000000
00000000
00010000
00000000
00000000
00000000
,
00001000
00000000
00100000
00000000
00000000
00010000
00000000
01000000
00000000
00010000
00000000
00000000
10000000
00000000
00000000
00000000
,
00010000
00000000
00100000
00000000
00000000
00001000
00000000
00010000
00000000
00001000
00000000
00000000
00010000
00000000
00000000
00000000
,
00001000
00000000
00000010
00000000
00000000
00000100
00000000
00000010
00000000
00000100
00000000
00000000
00001000
00000000
00000000
00000000
,
00000001
00000000
00000100
00000000
00000000
00000010
00000000
00001000
00000000
00000010
00000000
00000000
00000100
00000000
00000000
00000000
,
00001000
00000000
00010000
00000000
00000000
00001000
00000000
00100000
00000000
00001000
00000000
00000000
00010000
00000000
00000000
00000000
,
00100000
00000000
01000000
00000000
00000000
00010000
00000000
10000000
00000000
00010000
00000000
00000000
10000000
00000000
00000000
00000000
;
