#TITLE:EyeSpy;
#ARTIST:or-if-is;
#BANNER:EyeSpy.png;
#BACKGROUND:EyeSpy-bg.png;
#CDTITLE:./CDTITLES/DANCE DANCE REVOLUTION ULTRAMIX 2.PNG;
#MUSIC:EyeSpy.ogg;
#SAMPLESTART:78.686;
#SAMPLELENGTH:15;
#BPMS:0=119;

//---------------dance-single - ----------------
#NOTES:
     dance-single:
     :
     Beginner:
     2:
     :
0000
0000
0000
0000
,
0000
0000
0000
0000
,
0000
0000
0000
0000
,
0000
0000
0000
0000
,
0110
0000
0000
0100
,
0000
0000
0000
0100
,
0000
0000
0000
0100
,
0000
0000
0000
0100
,
0000
0000
0000
0001
,
0000
0000
0000
0001
,
0000
0000
0000
0001
,
0000
0000
0010
0000
,
0101
0000
0000
0001
,
0000
0100
0000
0001
,
0000
0100
0000
0001
,
0000
0100
0000
0000
,
1100
0000
0000
1000
,
0000
0100
0000
1000
,
0000
0100
0000
1000
,
0000
0100
0000
0110
,
0000
0000
0000
0100
,
0000
0000
0000
0100
,
0000
0000
0000
0100
,
0000
0000
0000
0110
,
0000
0000
0000
0010
,
0000
0000
0000
0010
,
0000
0000
0000
0010
,
0000
0000
0000
1001
,
0000
0000
0000
1000
,
0000
0000
0000
0001
,
0000
0000
0000
1000
,
0000
0000
0000
0001
,
0000
1000
0000
1000
,
0000
0001
0000
0001
,
0000
0010
0000
0010
,
0000
0100
0000
0100
,
0000
0001
0000
0001
,
0000
0010
0000
0010
,
0000
0100
0000
0100
,
0000
0001
0000
0001
,
0000
0001
0000
0001
,
0000
0100
0000
0100
,
0000
0100
0000
0100
,
0000
0001
0000
0001
,
0000
0001
0000
0000
,
0001
0000
0100
0000
,
0010
0000
0100
0000
,
0010
0000
0100
0000
,
1001
0000
0010
0000
,
1001
0000
0010
0000
,
1001
0000
0100
0000
,
1001
0000
0100
0000
,
0110
0000
0010
0000
,
0110
0000
0010
0000
,
0100
0000
0000
0000
;

//---------------dance-single - ----------------
#NOTES:
     dance-single:
     :
     Easy:
     3:
     :
0000
0000
0000
0000
,
0000
0000
0000
0000
,
0000
0000
0000
0000
,
0000
0000
0000
0000
,
1100
0000
0000
0100
,
1000
0000
0000
0100
,
1000
0000
0000
0100
,
1000
0000
0000
0100
,
0101
0000
0000
0001
,
0100
0000
0000
0001
,
0100
0000
0000
0001
,
1000
0000
0010
0000
,
0101
0100
0000
0001
,
0100
0100
0000
0001
,
0100
0100
0000
0001
,
0100
0100
0000
0000
,
1100
0100
0000
1000
,
0100
0100
0000
1000
,
0100
0100
0000
1000
,
0100
0100
0000
0110
,
0100
0000
0000
0100
,
0010
0000
0000
0100
,
0010
0000
0000
0100
,
0010
0000
0000
0110
,
0010
0000
0000
0010
,
0100
0000
0000
0010
,
0100
0000
0000
0010
,
0100
0000
0000
1001
,
0100
0000
0000
1000
,
0001
0000
0000
0001
,
1000
0000
0000
1000
,
0001
0000
0000
0001
,
1000
1000
1000
1000
,
0001
0001
0001
0001
,
0010
0010
0010
0010
,
0100
0100
0100
0100
,
0010
0001
0010
0001
,
1000
0010
1000
0010
,
1000
0100
1000
0100
,
0010
0001
0010
0001
,
1000
0001
1000
0001
,
0010
0100
0010
0100
,
1000
0100
1000
0100
,
0010
0001
0010
0001
,
1000
0001
0100
0000
,
0001
1000
0100
0000
,
0010
0001
0100
0000
,
0010
1000
0100
0000
,
1001
1000
0010
1000
,
1001
0001
0010
0001
,
1001
0001
0100
0001
,
1001
1000
0100
1000
,
1100
0010
0010
0010
,
0101
0010
0010
0010
,
0200
0000
0000
0300
;

//---------------dance-single - ----------------
#NOTES:
     dance-single:
     :
     Medium:
     5:
     :
0000
0000
0000
0000
,
0000
0000
0000
0000
,
0000
0000
0000
0000
,
0000
0000
0000
0000
,
1000
0000
0001
1000
0000
0001
0100
0000
,
0001
0000
1000
0001
0000
1000
0100
0000
,
1000
0000
0001
1000
0000
0001
0100
0000
,
0001
0000
1000
0001
0000
1000
0100
0000
,
1001
0000
0000
0101
0000
0000
0010
0000
,
1001
0000
0000
1100
0000
0000
0010
0000
,
0110
0000
0000
1001
0000
0000
0110
0000
,
1001
0000
1001
0000
,
0100
0010
0100
0000
1000
0000
0001
0000
,
0100
0010
0100
0000
0001
0000
0010
0000
,
0010
0001
0010
0000
0001
0000
0100
0000
,
0010
1000
0010
0000
1000
0000
0100
0000
,
1001
0000
0001
0100
0000
0100
0001
0000
,
1001
0000
1000
0100
0000
0100
1000
0000
,
0110
0000
0010
0100
0000
0100
0010
0000
,
2002
0000
0000
3003
,
0020
0100
0100
0130
,
2000
0001
0001
3001
,
2000
3010
0200
0301
,
0001
0010
0100
0000
1000
0010
0100
0000
,
0020
0100
0100
0130
,
0002
1000
1000
1003
,
0002
0013
0200
1300
,
1000
0010
0100
0000
0001
0010
0100
0000
,
2002
3003
0110
0000
,
2002
3003
0110
0000
,
0001
1000
0001
1000
,
0010
0100
0010
0100
,
0001
1000
0001
0000
0010
0100
0010
0000
,
0001
0100
0001
0000
1000
0010
1000
0000
,
0010
0000
0000
1001
0000
0100
0000
0000
,
1000
0000
0000
0110
0000
0001
0000
1000
,
0100
0001
0000
0110
0000
1000
0000
0000
,
0010
0000
0000
1001
0000
0100
0000
0000
,
0001
0000
0000
0110
0000
1000
0000
0000
,
0020
0030
0200
0300
,
0010
0010
0001
0000
0000
0001
0100
0000
,
0100
0100
0010
0000
0000
0010
1000
0000
,
1000
1000
0100
0000
0000
0100
0010
0000
,
0010
0010
0001
0000
0000
0001
0100
0000
,
0001
0001
0100
0000
0000
0010
1000
0000
,
1000
1000
0100
0000
0000
0010
0001
0000
,
0001
0100
1000
0000
0000
0100
0001
0000
,
1000
0100
0001
0000
0000
0100
1000
0000
,
1001
0000
0100
0000
0010
0001
0100
0000
,
1001
0000
0100
0000
0010
1000
0100
0000
,
0110
0000
1000
0000
0001
1000
0100
0000
,
0110
0000
0001
0000
1000
0001
0100
0000
,
1001
0000
0100
0001
1000
0001
0100
0000
,
1001
0000
0100
1000
0001
1000
0100
0000
,
0020
0000
0000
0030
;

//---------------dance-single - ----------------
#NOTES:
     dance-single:
     :
     Hard:
     8:
     :
0000
0000
0000
0000
,
0000
0000
0000
0000
,
0000
0000
0000
0000
,
0000
0000
0000
0000
,
1001
0000
0000
0100
0000
0100
0010
0000
,
0101
0000
0000
1000
0000
0010
0100
0000
,
0110
0000
0000
0001
0000
0100
0010
0000
,
1010
0000
0000
0001
0000
0100
1100
0000
,
0020
0030
0100
0100
,
0010
0000
0000
1000
0000
1000
0100
0000
,
1100
0000
0000
0010
0000
0001
1000
0000
,
0100
0000
0001
0100
0000
1000
0100
0000
0001
0010
0000
1000
0010
0000
0000
0000
,
0110
0000
1000
0010
1000
0000
0001
0100
0001
0000
0100
0000
0010
0000
0100
0000
,
0101
0000
0010
0100
0010
0000
0001
1000
0001
0000
1000
0000
0100
0000
0000
0000
,
0200
0300
1001
1001
,
0100
0000
0001
1000
0100
0000
0100
1000
0001
0000
0100
0000
0100
0000
0000
0000
,
0101
1100
0101
1100
,
1000
0000
0001
0100
0001
0000
0001
0010
0001
0000
1000
0000
1000
0000
0000
0000
,
0001
0000
0010
0010
0100
0000
0010
0010
0100
0000
0100
0000
0101
0000
0000
0000
,
0220
0000
0000
0330
,
1100
0000
0101
0000
1000
0100
0010
0100
,
1000
0000
0011
0000
0001
0010
0100
0010
,
0001
0000
1010
0000
1000
0010
0100
0010
,
1000
0000
1001
0000
0100
1000
0001
0100
,
0010
0000
1000
0000
0010
0100
0010
1000
,
0100
0000
1001
0000
1000
0001
1001
0000
,
0110
0000
0000
0010
0000
0100
0010
0000
,
1001
0000
0000
1000
0000
0001
1000
0000
,
0010
1000
0100
0000
0010
0001
0100
0000
0010
1000
0200
0000
0000
0000
0000
0000
,
0000
0000
0000
0300
,
2002
0000
0000
3003
,
0010
0000
0100
0000
0010
1000
0010
0000
0100
0000
0000
0000
1000
0000
0000
0000
,
0010
0100
0010
1000
0001
0100
0010
1000
,
0010
0001
0010
1000
0100
0001
0100
1000
,
0001
0100
0010
0100
0001
0100
0001
0100
,
0001
0100
0010
1000
0100
1000
0010
0000
,
0100
0001
0010
0100
1000
0010
1000
0010
,
0100
0001
0010
0100
0010
0001
0010
1000
,
0010
0001
0100
0010
0100
0001
1000
0010
,
0100
0001
0100
1000
0100
0001
0010
0000
,
0100
0000
1000
0000
0100
0000
0000
0010
0000
0001
0100
0000
0010
0000
0010
0000
,
1000
0000
0001
0000
1000
0000
0000
0100
0000
0010
0100
0000
0100
0000
0101
0000
,
1000
0000
0010
0000
0100
0000
0000
0001
0000
1000
0010
0000
1000
0000
0001
0000
,
0200
0301
0200
0310
,
0001
0000
0010
0000
0100
0000
0000
1000
0000
0010
0100
0000
0001
0000
0100
0000
,
0010
0000
1000
0000
0100
0000
0000
0010
0000
0100
0010
0000
0001
0000
0100
0000
,
0001
0000
0100
0000
0010
0000
0000
1000
0000
0100
1000
0000
0001
0000
0010
0000
,
0000
0000
0000
0000
,
0011
0000
0000
0000
0000
1000
0000
0100
,
0010
0000
0000
0000
0000
0000
0000
0001
0000
1000
0001
0000
0100
0000
0000
0000
,
0200
0000
0000
0000
,
0000
0300
0000
0000
,
1001
0000
0000
0000
0000
1010
0000
0100
,
0010
0000
0000
0000
,
0100
0101
0100
0110
;

//---------------dance-double - ----------------
#NOTES:
     dance-double:
     :
     Beginner:
     2:
     :
00000000
00000000
00000000
00000000
,
00000000
00000000
00000000
00000000
,
00000000
00000000
00000000
00000000
,
00000000
00000000
00000000
00000000
,
00100000
00000000
00000000
01100000
,
00000000
00000000
00000000
10010000
,
00000000
00000000
00000000
01100000
,
00000000
00000000
00000000
00011000
,
00000000
00000000
00000000
00000110
,
00000000
00000000
00000000
00000110
,
00000000
00000000
00000000
00001001
,
00000000
00000000
00000000
00000000
,
00000001
00000000
00000010
00000000
,
00000001
00000000
00001000
00000000
,
00001000
00000000
00100000
00000000
,
00010000
00000000
01000000
00000000
,
00100000
00000000
00100000
00000000
,
10000000
00000000
01000000
00000000
,
01000000
00000000
00010000
00000000
,
00010000
00000000
00000100
00000000
,
00000100
00000000
00000100
00000000
,
00000001
00000000
00000010
00000000
,
00000100
00000000
00001000
00000000
,
00001000
00000000
01000000
00000000
,
10000000
00000000
10000000
00000000
,
00010000
00000000
01000000
00000000
,
01000000
00000000
00010000
00000000
,
00001000
00000000
00000001
00000000
,
00001001
00000000
00000110
00000000
,
00000000
00000000
00000000
00000000
,
00000010
00000000
00000100
00000000
,
00000010
00000000
00000100
00000000
,
00001001
00000000
00000000
00000000
,
00001001
00000000
00000000
00000000
,
00000110
00000000
00000000
00000000
,
00011000
00000000
00000000
00000000
,
10010000
00000000
00000000
00000000
,
10010000
00000000
00000000
00000000
,
10010000
00000000
00000000
00000000
,
00011000
00000000
00011000
00000000
,
00001000
00000000
00000100
00000000
,
00000100
00000000
00000010
00000000
,
00000010
00000000
00000100
00000000
,
00000100
00000000
00001000
00000000
,
00010000
00000000
00100000
00000000
,
00100000
00000000
01000000
00000000
,
01000000
00000000
00100000
00000000
,
00100000
00000000
10000000
00000000
,
01000000
00000000
00010000
00000000
,
00010000
00000000
00000100
00000000
,
00010000
00000000
00001000
00000000
,
00010000
00000000
00000010
00000000
,
00010000
00000000
00010000
00000000
,
00100000
00000000
01000000
00000000
,
10010000
00000000
00000000
00000000
;

//---------------dance-double - ----------------
#NOTES:
     dance-double:
     :
     Easy:
     4:
     :
00000000
00000000
00000000
00000000
,
00000000
00000000
00000000
00000000
,
00000000
00000000
00000000
00000000
,
00000000
00000000
00000000
00000000
,
00100000
00000000
00000000
01000000
00000000
00000000
01100000
00000000
,
10000000
00000000
00000000
00010000
00000000
00000000
10010000
00000000
,
00100000
00000000
00000000
10000000
00000000
00000000
11000000
00000000
,
00100000
00000000
00000000
00010000
00000000
00000000
00011000
00000000
,
00010000
00000000
00000000
00001000
00000000
00000000
00001100
00000000
,
00000010
00000000
00000000
00000001
00000000
00000000
00000101
00000000
,
00000001
00000000
00000000
00001000
00000000
00000000
00001001
00000000
,
00000220
00000000
00000000
00000330
,
00000001
00000100
00000010
00001000
,
00000001
00000010
00001000
00010000
,
00001000
00010000
00100000
10000000
,
00010000
00100000
01000000
10000000
,
00100000
01000000
00100000
01000000
,
10000000
01000000
01000000
00000000
,
01000000
00001000
00010000
00001000
,
00010000
00000100
00000100
00000000
,
00000100
00000010
00000100
00000010
,
00000001
00000010
00000010
00000000
,
00000100
00010000
00001000
00010000
,
00001000
01000000
01000000
00000000
,
10000000
00010000
10000000
00100000
,
00010000
00001000
01000000
00010000
,
01000000
00001000
00010000
00000100
,
00001000
00000100
00000001
00000010
,
00002002
00003003
00000220
00000000
,
00000000
00000000
00000000
00000330
,
00000010
00001000
00000100
00000001
,
00000010
00001000
00000100
00000001
,
00001010
00000000
00000000
00000101
00000000
00000000
00000000
00000000
,
00000011
00000000
00000000
00001100
00000000
00000000
00000000
00000000
,
00001100
00000000
00000000
00011000
00000000
00000000
00000000
00000000
,
00011000
00000000
00000000
01010000
00000000
00000000
00000000
00000000
,
00110000
00000000
00000000
11000000
00000000
00000000
00000000
00000000
,
10100000
00000000
00000000
01010000
00000000
00000000
00000000
00000000
,
00110000
00000000
00000000
00011000
00000000
00000000
00000000
00000000
,
00022000
00033000
00022000
00033000
,
00001000
00000010
00000100
00000000
,
00000100
00000001
00000010
00000000
,
00000010
00001000
00000100
00000000
,
00000100
00000010
00001000
00000000
,
00010000
01000000
00100000
00000000
,
00100000
00010000
01000000
00000000
,
01000000
10000000
00100000
00000000
,
00100000
01000000
10000000
00000000
,
01000000
00001000
00010000
01000000
,
00010000
00001000
00000100
00001000
,
00010000
00000100
00001000
00000010
,
00010000
00001000
00000010
00001000
,
00010000
00100000
00010000
00001000
,
00100000
00010000
01000000
00000000
,
20020000
00000000
00000000
30030000
;

//---------------dance-double - ----------------
#NOTES:
     dance-double:
     :
     Medium:
     6:
     :
00000000
00000000
00000000
00000000
,
00000000
00000000
00000000
00000000
,
00000000
00000000
00000000
00000000
,
00000000
00000000
00000000
00000000
,
00001010
00000000
00000000
00000101
00000000
00000000
00000000
00000000
,
00000011
00000000
00000000
00001100
00000000
00000000
00000000
00000000
,
00011000
00000000
00000000
00011000
00000000
00000000
00000000
00000000
,
01010000
00000000
00000000
10100000
00000000
00000000
00000000
00000000
,
01010000
00000000
00000000
10100000
00000000
00000000
00000000
00000000
,
11000000
00000000
00000000
00110000
00000000
00000000
00000000
00000000
,
00011000
00000000
00000000
00011000
00000000
00000000
00000000
00000000
,
00022000
00000000
00000000
00033000
,
00001000
00000000
00000010
00000000
00001000
00001000
00001000
00000000
,
00010000
00000000
00100000
00000000
00010000
00010000
00010000
00000000
,
00001000
00000000
00000100
00000000
00001000
00001000
00001000
00000000
,
00010000
00000000
01000000
00000000
00010000
00010000
00010000
00000000
,
00001000
00000000
00000010
00000000
00000001
00000001
00000001
00000000
,
00000100
00000000
00001000
00000000
00010000
00010000
00010000
00000000
,
01000000
00000000
10000000
00000000
00100000
00100000
00100000
00000000
,
00020000
00000000
00000000
00030000
,
00100000
00000000
10000000
00010000
10000000
00000000
00100000
00000000
,
10000000
00000000
00010000
00100000
00010000
00000000
10000000
00000000
,
01000000
00000000
00010000
00001000
00010000
00000000
01000000
00000000
,
00010000
00000000
00001000
00000100
00001000
00000000
00010000
00000000
,
00001000
00000000
00000100
00000010
00000100
00000000
00001000
00000000
,
00000010
00000000
00001000
00000001
00001000
00000000
00000010
00000000
,
00000001
00000000
00000010
00000100
00000010
00000000
00000001
00000000
,
00000100
00000000
00000010
00001000
00000010
00000000
00000100
00000000
,
00000002
00000000
00000023
00000000
,
00002030
00000000
00003200
00000000
,
00000302
00000000
00000023
00000000
,
00002030
00000000
00003200
00000000
,
00000301
00000000
00001000
00000001
00000000
00000000
00001000
00000000
,
00000010
00000000
00000100
00000010
00000000
00000000
00000100
00000000
,
00000001
00000000
00000010
00000100
00000000
00000000
00001000
00000000
,
00000010
00000000
00001000
00000001
00000000
00000000
00000100
00000000
,
00001000
00000000
00010000
00001000
00000000
00000000
01000000
00000000
,
00010000
00000000
10000000
00100000
00000000
00000000
01000000
00000000
,
00010000
00000000
00100000
01000000
00000000
00000000
10000000
00000000
,
00010000
10000000
00100000
01000000
,
10000000
01000000
00100000
00010000
,
00001000
00000100
00000010
00000001
,
00000001
00000100
00000010
00001000
,
00000100
00010000
00001000
00100000
,
00010000
01000000
00100000
10000000
,
10000000
00100000
01000000
00010000
,
00100000
00001000
00010000
00000100
,
00001000
00000010
00000100
00000001
,
00000001
00000010
00000100
00001000
,
00010000
00100000
01000000
10000000
,
10000000
01000000
00100000
01000000
,
00100000
00010000
00100000
00010000
,
00001000
00010000
00001000
00000100
,
00001000
00000100
00000010
00000100
,
00000011
00000000
00000000
00000000
;

//---------------dance-double - ----------------
#NOTES:
     dance-double:
     :
     Hard:
     7:
     :
00000000
00000000
00000000
00000000
,
00000000
00000000
00000000
00000000
,
00000000
00000000
00000000
00000000
,
00000000
00000000
00000000
00000000
,
10000000
00100000
01000000
00000000
00100000
00010000
00100000
00000000
,
00010000
00001000
00000010
00000000
00001000
00000010
00001000
00000000
,
00000010
00000100
00000001
00000000
00000100
00001000
00010000
00000000
,
00001000
00010000
00001000
00000000
00010000
00100000
01000000
00010000
,
20000000
00000000
00000000
00020000
00000000
00000000
30000000
00000000
,
00002000
00030000
00000000
00000020
00003030
00000000
00000101
00000000
,
00001100
00000000
00000000
00000011
00000000
00000000
00000000
00000000
,
00000020
00002030
00023000
02030000
,
13000000
00100000
00010000
00000000
10000000
01000000
00010000
00000000
,
10000000
01000000
00010000
00000000
01000000
00010000
00001000
00000000
,
00010000
00001000
00000100
00000000
00001000
00000100
00000001
00000000
,
00001000
00000100
00000001
00000000
00001000
00000010
00000001
00000000
,
00000001
00000100
00001000
00010000
,
01000000
00010000
00001000
00000010
,
00001000
00010000
01000000
00010000
,
00022000
00000000
00000000
00033000
,
00100000
00010000
01000000
00000000
00100000
10000000
01000000
00000000
,
01000000
00010000
00001000
00000000
00000100
00001000
00010000
00000000
,
00000010
00001000
00000100
00000000
00000010
00000001
00000100
00000000
,
00000010
00000001
00000100
00001000
,
00010000
00001000
00010000
00000000
00010000
00000000
00100000
00000000
,
10000000
01000000
10000000
00000000
10000000
00000000
01000000
00000000
,
00010000
00001000
00010000
00000000
00010000
00000000
00001000
00000000
,
00010000
01000000
10000000
00100000
,
20000000
32000000
03020000
00032000
,
00003200
00000302
00000023
00002030
,
00023000
00230000
20300000
30200000
,
00320000
00032000
00003020
00002030
,
00013000
00100000
10000000
10010000
00000000
10000000
01000000
00010000
,
00010000
01000000
10000000
10010000
00000000
01000000
00010000
00001000
,
00010000
00001000
00000100
00000110
00000000
00000001
00000010
00001000
,
00000010
00000001
00000010
00001001
00000000
00000001
00000010
00001000
,
00001000
00000010
00000001
00001001
00000000
00000001
00000100
00001000
,
00001000
00000100
00000001
00001001
00000000
00000100
00001000
00010000
,
00001000
00010000
01000000
01100000
00000000
10000000
00100000
00010000
,
00100000
10000000
00100000
20020000
00000000
00000000
30030000
00000000
,
00100000
10000000
00010000
00000000
00100000
00010000
10000000
01000000
,
00010000
01000000
00010000
00000000
01000000
00010000
00001000
00000010
,
00000010
00000001
00001000
00000000
00000010
00001000
00000001
00000100
,
00001000
00000100
00001000
00000000
00000100
00001000
00010000
00100000
,
20000000
00000000
00010000
00000000
31000000
02000000
03010000
00020000
,
00001000
00000100
00001000
00030010
,
00002010
00000001
00000100
00000001
,
00000100
00000100
00000100
00000000
00000001
00000001
00003001
00000000
,
00000002
00000000
00001000
00000000
00000103
00000200
00001300
00002000
,
00010000
01000000
00010000
00103000
,
00120000
10000000
01000000
10000000
,
01000000
01000000
01000000
00000000
10000000
10000000
10030000
00000000
,
20000000
30200000
00320000
00032000
,
00003020
00000032
00000023
00001030
,
00022000
00000000
00000000
00033000
;
