#TITLE:Disco Break;
#ARTIST:Art of Hot;
#BANNER:Disco Break.png;
#BACKGROUND:Disco Break-bg.png;
#CDTITLE:./CDTITLES/DANCE DANCE REVOLUTION ULTRAMIX 2.PNG;
#MUSIC:Disco Break.ogg;
#SAMPLESTART:53.547;
#SAMPLELENGTH:15;
#DISPLAYBPM:130;
#BPMS:0=129.99;

//---------------dance-single - ----------------
#NOTES:
     dance-single:
     :
     Beginner:
     1:
     :
0000
0000
0000
0000
,
0000
0000
0000
0000
,
0000
0000
0000
0000
,
0000
0000
0000
0000
,
0000
0000
0000
0000
,
0010
0000
0100
0000
,
1000
0000
0001
0000
,
0100
0000
0010
0000
,
0001
0000
1000
0000
,
1001
0000
0010
0000
,
1000
0000
0001
0000
,
0100
0000
0010
0000
,
0010
0000
0100
0000
,
1000
0000
1000
0000
,
0001
0000
0001
0000
,
1000
0000
1000
0000
,
0001
0000
0001
0000
,
1001
0000
0010
0000
,
0010
0000
1000
0000
,
1000
0000
0001
0000
,
0001
0000
0100
0000
,
1001
0000
1000
0000
,
0100
0000
0001
0000
,
0001
0000
0010
0000
,
1000
0000
0010
0000
,
0001
0000
0100
0000
,
0100
0000
0010
0000
,
1000
0000
1000
0000
,
1000
0000
1000
0000
,
1001
0000
0001
0000
,
0000
1000
0000
1000
,
0000
0010
0000
0010
,
0000
0001
0000
0001
,
0000
0100
0000
0100
,
0000
0001
0000
0000
,
0010
0000
0000
0000
,
0100
0000
0001
0000
,
0100
0000
0001
0000
,
0100
0000
0000
1000
,
0000
0000
1000
0000
,
0001
0000
1000
0000
,
0100
0000
0100
0000
,
1000
0000
1000
0000
,
0010
0000
0010
0000
,
1000
0000
1000
0000
,
1001
0000
1000
0000
,
1000
0000
0010
0000
,
1000
0000
0000
0000
,
0001
0000
0100
0000
,
0100
0000
0010
0000
,
0010
0000
0010
0000
,
1000
0000
0010
0000
,
0001
0000
1000
0000
,
0010
0000
0100
0000
,
1000
0000
0001
0000
,
0010
0000
0100
0000
,
0001
0000
0100
0000
,
0100
0000
0000
0000
;

//---------------dance-single - ----------------
#NOTES:
     dance-single:
     :
     Easy:
     3:
     :
0000
0000
0000
0000
,
0000
0000
0000
0000
,
0000
0000
0000
0000
,
0000
0000
0000
0000
,
0000
0000
0000
0000
,
0010
0000
0100
0000
,
1000
0000
0001
0000
,
0100
0000
0010
0000
,
0001
0000
1000
0000
,
1001
0000
0020
0000
,
1030
0000
0002
0000
,
0103
0000
0010
0010
,
0010
0100
0100
0100
,
1000
0010
1000
0000
,
0001
0010
0001
0000
,
1000
0100
1000
0000
,
0001
0100
0001
0000
,
1001
0000
0010
0000
,
0010
0000
1000
0000
,
1000
0000
0001
0000
,
0001
0000
0100
0000
,
1001
0010
1000
0010
,
0100
0100
0001
0100
,
0001
0001
0010
0001
,
1000
1000
0010
1000
,
0001
0001
0100
0001
,
0100
0100
0010
0100
,
1000
0001
1000
0001
,
1000
0001
1000
0001
,
1001
0100
0001
0100
,
0000
1000
0100
1000
,
0000
0010
1000
0010
,
0000
0001
0010
0001
,
0000
0100
0001
0100
,
1000
0001
0200
0000
,
0310
0000
0000
0000
,
0100
1000
0001
0010
,
0100
1000
0001
0000
,
0100
0002
0000
1003
,
0001
0000
1000
0010
,
0001
0010
1000
0001
,
0100
0001
0100
0001
,
1000
0100
1000
0100
,
0010
0001
0010
0001
,
1000
0001
1000
0001
,
1001
0001
1000
0010
,
1000
0001
0010
0001
,
2000
0000
0000
3000
,
0001
1000
0100
0010
,
0100
1000
0010
0100
,
0010
0000
0010
0010
,
1000
0000
0010
0100
,
0001
0000
1000
0000
,
0010
0001
0100
0000
,
1000
0000
0001
0000
,
0010
1000
0100
0000
,
0001
0010
0100
0001
,
0200
0000
0000
0300
;

//---------------dance-single - ----------------
#NOTES:
     dance-single:
     :
     Medium:
     5:
     :
0000
0000
0000
0000
,
0000
0000
0000
0000
,
0000
0000
0000
0000
,
0000
0000
0000
0000
,
0000
0000
0000
0000
,
0010
0000
0001
0000
0100
0000
0100
0001
,
1000
0000
0001
0000
0100
0000
1000
0010
,
1000
0011
1000
0011
,
0001
0002
0000
0003
1000
2000
0000
3000
,
0100
0000
0010
0001
0000
0001
0002
0000
,
0003
1000
2000
0000
3000
0001
0002
0000
,
0013
0000
1000
0001
1000
0000
0010
0100
,
0001
0000
0001
2000
0000
3001
0100
0000
,
0110
0000
1001
0000
0001
0010
0000
0010
,
0001
0010
0000
0010
0001
0010
0000
0010
,
0001
0000
1000
0010
0000
0010
1000
0010
,
0000
0010
1000
0010
0000
0010
1000
0000
,
1001
0000
0000
0100
0000
0100
0000
0010
,
0000
1000
0000
0010
0000
0001
0000
0010
,
0000
1000
0000
0001
0000
1000
0000
0010
,
0000
1000
0000
0010
0000
0100
0000
0001
,
1000
0000
0010
0100
0000
0100
0000
0010
,
0000
1000
0000
0010
0000
0100
0000
0001
,
0000
0010
0000
0100
0000
0001
0000
0100
,
0000
1000
0000
0010
0000
1000
0000
0000
,
0010
1000
0001
0000
0010
0000
1000
0200
,
0000
0300
0001
0200
0000
0300
0001
0000
,
0010
1001
0010
1001
,
0010
1001
0100
1000
,
0001
0100
0001
0000
0001
0000
0100
0000
,
1000
0001
0100
0000
1000
0000
0010
0000
,
0110
0000
0010
0000
0001
0100
0010
0000
,
2000
3002
2003
3200
,
1300
0010
1000
0000
0010
0000
0100
0000
,
1000
0000
0001
0000
0200
0000
0300
0001
,
2000
3010
0001
1001
,
0100
0110
1000
1100
,
0001
0101
0010
0011
,
0010
0001
0200
0000
0000
0000
0000
0310
,
0002
0003
0100
0010
,
2000
3200
0320
0032
,
0003
0000
0001
0100
0000
0001
0000
1000
,
0000
1000
0000
0001
0100
0000
0100
0001
,
1000
2000
0000
0000
3001
0002
0000
0000
,
0000
0003
0000
0000
0100
0000
0000
0000
0010
0000
1000
0000
0010
0000
0000
0000
,
0101
0000
1000
0000
0001
0000
0001
0100
,
0001
0000
1000
0000
0001
1000
0001
0000
,
1000
0000
0001
0100
0001
0000
1000
0000
,
0001
0100
1000
0000
0010
0000
1000
0000
,
0010
0100
0010
0000
0100
0000
0010
0000
,
0110
0000
1001
0000
0010
0100
0010
0000
,
1000
0001
1000
0000
0010
0100
0010
0000
,
1000
0010
1000
0000
0100
0001
1000
0000
,
0100
0000
0001
1000
0000
0010
0000
0100
,
0000
0100
0000
0001
0100
0000
0100
0000
,
1000
0000
0001
0000
0010
0100
0000
1001
,
0000
0110
0000
0001
0100
1000
0000
0001
,
0200
0000
0000
0300
;

//---------------dance-single - ----------------
#NOTES:
     dance-single:
     :
     Hard:
     8:
     :
0000
0000
0000
0000
,
0000
0000
0000
0000
,
0000
0000
0000
0000
,
0000
0000
0000
0000
,
0000
0000
0000
0000
,
2000
3002
2003
3000
,
0110
1010
1001
0101
,
2000
3002
2003
3000
,
1000
0001
0010
0000
1000
0001
0100
0000
,
1000
0000
0000
0100
0010
0000
0002
0000
0000
0000
0000
0000
1003
0000
0000
0000
,
1100
0110
0011
1001
,
0001
0000
0000
0100
0010
0000
2000
0000
0000
0000
0000
0000
3001
0000
0000
0000
,
0101
0110
1010
1001
,
0010
0000
0000
0100
0001
0000
2000
0000
0100
0000
0000
0000
3100
0000
0000
0000
,
1000
0010
0100
0000
0001
0010
0100
0000
,
0010
0000
0000
0100
1000
0000
0002
0000
0100
0000
0000
0000
0103
0000
0000
0000
,
1000
0100
0010
0001
0100
0001
0010
0100
,
1000
0020
0000
1030
0000
0002
0000
0103
,
0000
0020
0000
1030
0001
0000
0000
0020
,
0000
0031
2000
0000
3001
0200
0000
0310
,
0000
2000
0000
3001
0100
0010
0000
0100
,
0001
0010
0001
1000
0001
0010
0001
1000
,
0001
0100
0001
0010
0001
0100
0001
0010
,
0100
1000
0100
0001
0100
1000
0100
0001
,
0100
0010
0100
1000
0100
0010
0100
1000
,
0010
0000
1000
0000
0000
0000
1000
0001
1000
0000
0000
0000
0001
1000
0001
0000
,
0000
0000
1001
0000
0000
0000
0010
0100
0010
0000
0000
0000
0100
0010
0100
0000
,
0001
1100
0001
1100
,
0001
0000
1100
0000
0001
0100
0010
0000
,
1001
0001
0100
0010
0001
0001
1000
0100
,
0001
0001
0100
0001
1000
1000
0100
0010
,
0001
0001
1000
0000
0010
0010
0100
0000
,
1001
0101
0110
1010
,
0010
1000
0010
1000
0100
1000
0100
0000
,
0010
0000
0000
0000
0001
0000
0000
0000
0100
0000
0000
0000
0100
0000
0001
2000
,
0000
0001
0010
3100
,
0010
0001
0100
1000
0100
0010
1000
0000
,
0010
0001
0010
0001
0100
0001
0100
0000
,
0010
0000
0001
0000
2000
0000
0000
0000
3000
0000
0000
0000
0100
0000
1000
0002
,
0000
1000
0010
0103
,
1001
1010
0110
0101
,
0010
0000
0100
0020
0000
1030
0000
0001
,
0000
0200
0000
0301
0010
0000
0100
0002
,
0000
0000
0103
0000
1000
0002
0000
0000
,
0000
0000
0003
0010
0100
1000
0000
0000
,
0110
0000
1001
0100
0010
0001
1000
0000
,
0101
0000
1010
0100
0001
0010
0100
0000
,
1001
0000
1100
0000
0011
0202
0000
0300
,
0000
0100
0003
0100
0010
0100
0000
1000
,
0010
0100
0001
0010
0100
0001
0100
1000
,
0010
0001
1000
0100
0001
1000
0001
0110
,
0000
0110
1000
0010
1000
0001
0100
0001
,
1000
0100
1000
0010
0100
0101
0000
0101
,
1000
0010
0100
0001
0100
0010
1000
0100
,
0001
0100
1000
0001
0011
0000
1100
1000
,
0100
0010
0100
1000
0001
1000
0010
0100
,
0001
1000
0100
0001
0100
0010
0001
0000
,
2002
0000
0000
3003
;

//---------------dance-double - ----------------
#NOTES:
     dance-double:
     :
     Beginner:
     1:
     :
00000000
00000000
00000000
00000000
,
00000000
00000000
00000000
00000000
,
00000000
00000000
00000000
00000000
,
00000000
00000000
00000000
00000000
,
00000000
00000000
00000000
00000000
,
00000000
00010000
00000000
10000000
,
00000000
00010000
00000000
10000000
,
00000000
00100000
00000000
01000000
,
00000000
00100000
00000000
01000000
,
00000000
00000000
00000000
00000000
,
00010000
00000000
00000000
00000000
,
00000010
00000000
00000000
00000000
,
00001000
00000000
00000000
00000000
,
10010000
00000000
00000000
00000000
,
00010000
00000000
00000000
00000000
,
00001001
00000000
00000000
00000000
,
00001000
00000000
00000000
00000000
,
00000001
00000000
00001000
00000000
,
00000001
00000000
00001000
00000000
,
00010000
00000000
00001000
00000000
,
00010000
00000000
00001000
00000000
,
00010000
00000000
10000000
00000000
,
00010000
00000000
10000000
00000000
,
00010000
00000000
00001000
00000000
,
00010000
00000000
00001000
00000000
,
00011000
00000000
00000000
00000000
,
00001000
00000000
00000000
00000000
,
00010000
00000000
00000000
00000000
,
00011000
00000000
00000000
00000000
,
00000000
00001000
00000000
00010000
,
00000000
00100000
00000000
01000000
,
00000000
00100000
00000000
01000000
,
00000000
00010000
00000000
00001000
,
00000000
00001000
00000000
00010000
,
00000000
00000100
00000000
00000010
,
00000000
00000100
00000000
00000010
,
00000000
00001000
00000000
00010000
,
00000000
00011000
00000000
00100000
,
00000000
01100000
00000000
01000000
,
00000000
00010000
00000000
10010000
,
00000000
00010000
00000000
00011000
,
00000000
00011000
00000000
00000100
,
00000000
00000110
00000000
00000010
,
00000000
00001000
00000000
00001001
,
00000000
00001000
00000000
00011000
,
00000000
00010000
00000000
10010000
,
00000000
10000000
00000000
10010000
,
00000000
00000000
00010000
00000000
,
00000000
00000000
00000000
00000000
,
00000000
01000000
00000000
00010000
,
00000000
00001000
00000000
00010000
,
00000000
00001000
00000000
00000100
,
00000000
00000001
00000000
00001000
,
00000000
00000001
00000000
00001000
,
00000000
00010000
00000000
00001000
,
00000000
00010000
00000000
10000000
,
00000000
00010000
00000000
00001000
;

//---------------dance-double - ----------------
#NOTES:
     dance-double:
     :
     Easy:
     2:
     :
00000000
00000000
00000000
00000000
,
00000000
00000000
00000000
00000000
,
00000000
00000000
00000000
00000000
,
00000000
00000000
00000000
00000000
,
00000000
00000000
00000000
00000000
,
00000000
00010000
00000000
10000000
,
00000000
00010000
00000000
10000000
,
00000000
00100000
00000000
01000000
,
00000000
00100000
00000000
01000000
,
00200000
00000000
00000000
00300000
,
00010000
00011000
00000000
00000000
,
00000020
00000000
00000000
00000030
,
00001000
00011000
00000000
00000000
,
20020000
00000000
00000000
30030000
,
00010000
00011000
00000000
00000000
,
00002002
00000000
00000000
00003003
,
00001000
00011000
00000000
00000000
,
00000002
00000003
00002000
00003000
,
00000002
00000003
00002000
00003000
,
00020000
00030000
00002000
00003000
,
00020000
00030000
00002000
00003000
,
00020000
00030000
20000000
30000000
,
00020000
00030000
20000000
30000000
,
00020000
00030000
00002000
00003000
,
00020000
00030000
00002000
00003000
,
00022000
00000000
00000000
00033000
,
00002000
00000000
00000000
00003000
,
00020000
00000000
00000000
00030000
,
00022000
00000000
00000000
00033000
,
00000000
00001000
00000000
00010000
,
00000000
00100000
00000000
01000000
,
00000000
00100000
00000000
01000000
,
00000000
00010000
00000000
00001000
,
00000000
00001000
00000000
00010000
,
00000000
00000100
00000000
00000010
,
00000000
00000100
00000000
00000010
,
00000000
00001000
00000000
00010000
,
00000000
00011000
00000000
00100000
,
00000000
01100000
00000000
01000000
,
00000000
00010000
00000000
10010000
,
00000000
00010000
00000000
00011000
,
00000000
00011000
00000000
00000100
,
00000000
00000110
00000000
00000010
,
00000000
00001000
00000000
00001001
,
00000000
00001000
00000000
00011000
,
00000000
00010000
00000000
10010000
,
00000000
10000000
00000000
10010000
,
20000000
00000000
00020000
00000000
,
00000000
00000000
00000000
30030000
,
00000000
01000000
00000000
00010000
,
00000000
00001000
00000000
00010000
,
00000000
00001000
00000000
00000100
,
00000000
00000001
00000000
00001000
,
00000000
00000001
00000000
00001000
,
00000000
00010000
00000000
00001000
,
00000000
00010000
00000000
10000000
,
00000000
00010000
00000000
00001000
,
00022000
00000000
00000000
00033000
;

//---------------dance-double - ----------------
#NOTES:
     dance-double:
     :
     Medium:
     4:
     :
00000000
00000000
00000000
00000000
,
00000000
00000000
00000000
00000000
,
00000000
00000000
00000000
00000000
,
00000000
00000000
00000000
00000000
,
00000000
00000000
00000000
00000000
,
00000000
00001000
00000000
00000001
,
00000000
00000010
00000000
00001000
,
00000000
00010000
00000000
01000000
,
00000000
10000000
00000000
00010000
,
00100000
00000000
00000000
10010000
00000000
00000000
00000000
00000000
,
10000000
10010000
00000000
00011000
,
00000010
00000000
00000000
00001001
00000000
00000000
00000000
00000000
,
00000001
00001001
00000000
00000000
,
00001000
00000000
00000000
00000110
00000000
00000000
00000000
00000000
,
00001000
00011000
00000000
00011000
,
00010000
00000000
00000000
01100000
00000000
00000000
00000000
00000000
,
00010000
00011000
00000000
00011000
,
00002000
00003000
00000020
00000030
,
00000200
00000300
00000002
00000003
,
00000020
00000030
00002000
00003000
,
00020000
00030000
00002000
00003000
,
00020000
00030000
00002000
00003000
,
00020000
00030000
00200000
00300000
,
20000000
30000000
02000000
03000000
,
00200000
00300000
00020000
00030000
,
00022000
00000000
00000000
00033000
,
00020000
00000000
00000000
00030000
,
00002000
00000000
00000000
00003000
,
00022000
00000000
00000000
00033000
,
00000000
00000010
00000000
00001000
,
00000000
00010000
00000000
01000000
,
00000000
00100000
00000000
00010000
,
00000000
00001000
00000000
00000100
,
00000001
00000100
00001000
00000000
,
00000100
00001000
00010000
00000000
,
00001000
00010000
01000000
00000000
,
00010000
01000000
10000000
00000000
,
10000000
00100000
00010000
00000000
,
00100000
00010000
00001000
00000000
,
00010000
00001000
00000010
00000000
,
00001000
00000010
00000001
00000000
,
00000001
00000101
00000000
00000100
,
00000100
00001100
00000000
00001000
,
00001000
00011000
00000000
00010000
,
00010000
01010000
00000000
01000000
,
01000000
11000000
00000000
10000000
,
10000000
10100000
00000000
00100000
,
00100000
00110000
00000000
00010000
,
00010000
00022000
00000000
00033000
,
00001000
00000010
00001000
00000000
,
00010000
00100000
00010000
00000000
,
00001000
00000100
00001000
00000000
,
00010000
01000000
00010000
00000000
,
00010000
00000010
00000000
00001000
,
00001000
00100000
00000000
00010000
,
00010000
00000100
00000000
00001000
,
00001000
01000000
00000000
00010000
,
00022000
00000000
00000000
00033000
;

//---------------dance-double - ----------------
#NOTES:
     dance-double:
     :
     Hard:
     5:
     :
00000000
00000000
00000000
00000000
,
00000000
00000000
00000000
00000000
,
00000000
00000000
00000000
00000000
,
00000000
00000000
00000000
00000000
,
00000000
00000000
00000000
00000000
,
00000001
00001000
00000001
00001000
,
00000001
00000100
00001000
00010000
,
00100000
00010000
00001000
00000100
,
00000100
00001000
00010000
00100000
,
00100000
00000000
01000000
10010000
00000000
00000000
01000000
00000000
,
00010000
00000000
00001000
00011000
00000000
00000000
00001000
00000000
,
00000010
00000000
00000100
00001001
00000000
00000000
00000100
00000000
,
00001000
00000000
00010000
00011000
00000000
00000000
00010000
00000000
,
00010000
01000000
00001000
00000100
,
00010000
00100000
00001000
00000010
,
00000001
00000100
00001000
00010000
,
01000000
10000000
01100000
10010000
,
00020000
00000000
02000000
00030000
,
00200000
03000000
20000000
00300000
,
02000000
30000000
00020000
03000000
,
00002000
00030000
00020000
00003000
,
00002000
00030000
00020000
00003000
,
00002000
00030000
00000200
00003000
,
00000002
00000300
00000020
00000003
,
00000200
00000030
00002000
00003300
,
00022000
00000000
00000000
00033000
,
00002000
00000000
00000000
00003000
,
00020000
00000000
00000000
00030000
,
00022000
00000000
00000000
00033000
,
00010000
01000000
00001000
00000100
,
00010000
00100000
00001000
00000010
,
00000001
00000100
00001000
00010000
,
01000000
10000000
01100000
10010000
,
00100000
10000000
00010000
01000000
,
10000000
01000000
00010000
01000000
,
00100000
10000000
01000000
00010000
,
00001000
00011000
00010000
00011000
,
00000010
00001000
00000001
00000100
,
00000001
00000100
00001000
00000100
,
00000010
00000001
00000100
00001000
,
00010000
00011000
00001000
00011000
,
00001000
00000000
00000010
00000000
00000000
00001000
00000010
00000000
,
00001000
00000000
00010000
00000000
00000000
00001000
00010000
00000000
,
00010000
00000000
00100000
00000000
00000000
00010000
00100000
00000000
,
00010000
00000000
00001000
00000000
00000000
00010000
00001000
00000000
,
00000000
00010000
00000000
10000000
,
00000000
10000000
00000000
00010000
,
00000000
00001000
00000000
00000001
,
00000000
00000001
00000000
00001000
,
00001000
00000010
00001000
00000101
,
00000001
00000010
00000001
00001100
,
00001000
00010000
00010000
00001000
,
00010000
00011000
00001000
00011000
,
00010000
00100000
00010000
11000000
,
10000000
00100000
10000000
01010000
,
00010000
00001000
00001000
00010000
,
00001000
00011000
00010000
00011000
,
00022000
00000000
00000000
00033000
;
