#TITLE:DIAMOND JEALOUSY;
#ARTIST:AKIRA YAMAOKA;
#BANNER:DIAMOND JEALOUSY.png;
#BACKGROUND:DIAMOND JEALOUSY-bg.png;
#CDTITLE:./CDTITLES/Song Pack 11.PNG;
#MUSIC:DIAMOND JEALOUSY.ogg;
#SAMPLESTART:6.32;
#SAMPLELENGTH:15;
#DISPLAYBPM:189;
#BPMS:0=190;

//---------------dance-single - ----------------
#NOTES:
     dance-single:
     :
     Beginner:
     1:
     :
0000
0000
0000
0000
,
0000
0000
0000
0000
,
0000
0000
0000
0000
,
0000
0000
0000
0000
,
0000
0000
0000
0000
,
1000
0000
0000
0000
,
1000
0000
0000
0000
,
1000
0000
0000
0000
,
0010
0000
0100
0000
,
0001
0000
0000
0000
,
0001
0000
0000
0000
,
1001
0000
0000
0000
,
0000
0000
0000
0000
,
0001
0000
0001
0000
,
0100
0000
0000
0000
,
0100
0000
0100
0000
,
0010
0000
0000
0000
,
1000
0000
1000
0000
,
0100
0000
0000
0000
,
0010
0000
0010
0000
,
0001
0000
0001
0000
,
1000
0000
0000
0000
,
0100
0000
0000
0000
,
0001
0000
0000
0000
,
0100
0000
0000
0000
,
1000
0000
0000
0000
,
0010
0000
0000
0000
,
0001
0000
0000
0000
,
0010
0000
0000
0000
,
1000
0000
0000
0000
,
0000
0000
1000
1000
,
0000
0000
0000
0000
,
0000
0000
0001
0001
,
0000
0000
0000
0000
,
0000
0000
0010
0010
,
0000
0000
0000
0000
,
0000
0000
0100
0100
,
0100
0000
0000
0010
,
0000
0000
0000
0000
,
0100
0000
0000
0010
,
0000
0000
0000
0000
,
0001
0000
0000
1000
,
0000
0000
0000
0000
,
0001
0000
0000
1000
,
0000
0000
0000
0000
,
0000
0001
0000
0001
,
0000
0000
0000
0000
,
0000
1000
0000
1000
,
0000
0000
0000
0000
,
0010
0000
1000
0000
,
0100
0000
0000
0000
,
0010
0000
0001
0000
,
0100
0000
0000
0000
,
0001
0000
1000
0000
,
0010
0000
0000
0000
,
0100
0000
0001
0000
,
1000
0000
0000
0000
,
0100
0000
1000
0000
,
0001
0000
0000
0000
,
0010
0000
0001
0000
,
1001
0000
0000
0000
,
0100
0000
0100
0000
,
0100
0000
0000
0000
,
0010
0000
0010
0000
,
0010
0000
0000
0000
,
1000
0000
0000
0000
,
0001
0000
0000
0000
,
1000
0000
0001
0000
,
1000
0000
0001
0000
;

//---------------dance-single - ----------------
#NOTES:
     dance-single:
     :
     Easy:
     4:
     :
0000
0000
0000
0000
,
0000
0000
0000
0000
,
0000
0000
0000
0000
,
0000
0000
0000
0000
,
0000
0000
0000
0000
,
0010
0100
1000
1000
,
0010
0100
0001
0001
,
1000
0001
1000
0001
,
0200
0000
0000
0000
0320
0000
0000
0030
0200
0000
0000
0000
0320
0000
0000
0000
,
0130
0001
1000
1000
,
0100
1000
0001
0001
,
1001
0000
0000
0110
0000
0000
1001
0000
,
0000
0110
0000
0000
1001
0000
0110
0000
,
0001
1000
0010
0100
,
0001
1000
0200
0320
,
0031
1000
0010
0100
,
0001
1000
0002
0203
,
0310
0100
0010
1000
,
0010
0100
0002
0023
,
0130
1000
0010
0100
,
0001
1000
0200
0310
,
1001
0000
0000
0100
0000
0000
1100
0000
,
0000
0001
0000
0000
0200
0000
0301
0000
,
1001
0000
0000
0100
0000
0000
0101
0000
,
0000
1000
0000
0000
0200
0000
0301
0000
,
0101
0000
0000
0010
0000
0000
1100
0000
,
0000
0010
0000
0000
2000
0000
3001
0000
,
1001
0000
0000
0100
0000
0000
0011
0000
,
0000
0100
0000
0000
1001
0000
0110
0000
,
0200
1300
0200
1300
,
0002
0103
0002
0103
,
0020
1030
0020
1030
,
0002
0013
0002
0013
,
1000
0010
0100
0001
,
1000
0100
0010
0011
,
0001
0010
0100
1000
,
0001
0100
0010
1010
,
1001
0000
0000
0010
0000
0000
0011
0000
,
0000
1000
0000
0000
0020
0000
1030
0000
,
1001
0000
0000
0010
0000
0000
1010
0000
,
0000
0001
0000
0000
0020
0000
1030
0000
,
1010
0000
0000
0100
0000
0000
0011
0000
,
0000
0100
0000
0000
0002
0000
1003
0000
,
1001
0000
0000
0010
0000
0000
1100
0000
,
0000
0010
0000
0000
1001
0000
0110
0000
,
0100
0100
0010
0010
,
1000
1000
1001
1001
,
0010
0010
0100
0100
,
0001
0001
1001
1001
,
1000
1000
0100
0100
,
0010
0010
0011
0011
,
0010
0010
0001
0001
,
1000
1000
1100
1100
,
0100
0010
0001
1000
,
0001
0100
0110
0110
,
0100
0001
1000
0001
,
0010
0100
1100
1100
,
0010
0100
0001
0100
,
0010
0001
0101
0101
,
0001
1000
0100
0010
,
2002
0000
3003
1001
,
0010
0001
0100
1000
,
0010
0100
0001
0010
,
0100
1000
0001
0001
,
0010
0010
0100
0100
,
1000
1001
0010
1000
,
0001
1001
0010
0001
,
0100
1001
0010
0100
,
0001
1001
1000
0220
,
0000
0330
0000
0000
;

//---------------dance-single - ----------------
#NOTES:
     dance-single:
     :
     Medium:
     5:
     :
0000
0000
0000
0000
,
0000
0000
0000
0000
,
0000
0000
0000
0000
,
0000
0000
0000
0000
,
0000
0000
0000
0000
,
0010
0001
0010
0000
0100
0000
1000
0000
,
0010
1000
0010
0000
0100
0000
0001
0000
,
0100
0010
0100
0000
0010
0000
1000
0000
,
0200
0320
0032
2003
,
3100
0001
0100
0000
1000
0000
0001
0000
,
0100
1000
0100
0000
0010
0000
1000
0000
,
2002
0000
0000
3003
0000
0000
0022
0000
0000
0033
0000
0000
0220
0000
0000
0330
,
0000
0000
2200
0000
0000
3300
0000
0000
1001
0000
0000
0000
0110
0000
0000
0000
,
0100
1000
0010
0100
,
0001
1000
1100
1010
,
0100
0001
1000
0010
,
0100
0001
0101
0011
,
1000
0100
0010
1000
,
0010
0001
0101
1010
,
0001
0100
1000
0010
,
0100
0001
0101
0011
,
1001
0000
0000
0011
0000
0000
1100
0000
,
0000
1001
0000
0000
0200
0000
1300
0000
,
1001
0000
0000
1010
0000
0000
1001
0000
,
0000
0011
0000
0000
2000
0000
3010
0000
,
0101
0000
0000
1010
0000
0000
1100
0000
,
0000
0011
0000
0000
0020
0000
0031
0000
,
1001
0000
0000
1100
0000
0000
0011
0000
,
0000
0101
0000
0000
0002
0000
0013
0000
,
0200
1300
0001
0200
,
0301
1000
0020
0130
,
0001
2000
3001
1000
,
0200
0310
0110
1001
,
1000
0010
0100
0001
,
1000
0100
0110
0011
,
0001
0010
0100
1000
,
0001
0100
0110
1010
,
2002
0000
3003
0010
0000
0000
2002
0000
,
3003
0100
0000
0000
1000
0000
0010
0000
,
2020
0000
3030
0001
0000
0000
0202
0000
,
0303
0001
0100
0010
,
2020
0000
3030
0001
0000
0000
2200
0000
,
3300
0001
0000
0000
0010
0000
0001
0000
,
0220
0000
0330
0001
0000
0000
2002
0000
,
3003
0100
1000
0001
,
0100
0100
0010
0010
,
1000
1000
1010
0101
,
0010
0010
0100
0100
,
0001
0001
0101
0011
,
1000
1000
0100
0100
,
0010
0010
0011
1001
,
0010
0010
1000
1000
,
0001
0001
0110
1010
,
0001
0010
1000
0001
,
0100
1000
0011
1001
,
1000
0010
0001
1000
,
0100
0001
1010
1001
,
0100
0010
1000
0010
,
0100
0001
0101
1100
,
0001
1000
0100
0110
,
2002
0000
3003
1001
,
0010
1001
0100
1010
,
0001
0110
0001
1010
,
0010
1001
0001
0011
,
0010
0110
0100
1100
,
1000
0011
0010
1100
,
0001
1001
0010
0110
,
0100
1001
0010
0110
,
1000
1001
0001
0220
,
0000
0330
0000
0000
;

//---------------dance-single - ----------------
#NOTES:
     dance-single:
     :
     Hard:
     8:
     :
0000
0000
0000
0000
,
0000
0000
0000
0000
,
0000
0000
0000
0000
,
0000
0000
0000
0000
,
0000
0000
0000
0000
,
0100
0010
0100
2000
0001
0000
3010
0000
,
0100
0010
0100
0002
1000
0000
0013
0000
,
0001
0010
0100
2000
0001
0000
3100
0000
,
0010
0001
0100
1000
0100
0001
0010
0100
,
0010
0001
1000
0020
0100
0000
0031
0000
,
0010
1000
0001
0020
0100
0000
1030
0000
,
0220
0000
0000
0330
0000
0000
2200
0000
0000
3300
0000
0000
0202
0000
0000
0303
,
0000
0000
2020
0000
0000
3030
0000
0000
0011
0000
0000
0000
1001
0000
0000
0000
,
0010
0000
1000
0000
0001
0100
1000
0000
,
0100
0001
0010
0000
1100
0000
0011
0000
,
0010
0000
0001
0000
1000
0100
0001
0000
,
0100
1000
0010
0000
0101
0000
1010
0000
,
0100
0000
0001
0000
1000
0010
0001
0000
,
0010
1000
0100
0000
0011
0000
1100
0000
,
0100
0000
1000
0000
0001
0010
1000
0000
,
0010
0001
0100
0000
1010
0000
0101
0000
,
1002
0000
0103
0010
0100
0000
1002
0000
,
0103
0010
0100
0000
0020
0000
0031
0000
,
1002
0000
0013
0100
0010
0000
1002
0000
,
0013
0100
0010
0000
0200
0000
1300
0000
,
0012
0000
0103
1000
0100
0000
1020
0000
,
0130
0001
0100
0000
0002
0000
1003
0000
,
1200
0000
0310
0001
0010
0000
0102
0000
,
0013
1000
0010
0000
2000
0000
3001
0000
,
0010
1000
0002
0000
0013
0000
0001
1000
,
0200
0310
0110
1001
,
0100
1000
0002
0000
0103
0000
0001
1000
,
0020
0130
0110
1001
,
0010
1000
0001
0000
0010
0001
1000
0000
,
0001
0100
0010
0000
1010
0000
0101
0000
,
0010
1000
0100
0000
0010
0001
0100
0000
,
0001
1000
0100
0000
1100
0000
0011
0000
,
2000
0000
3000
0002
0000
0013
0200
0000
,
0000
1300
0010
0100
0001
0010
0001
1000
,
0020
0000
0030
2000
0000
3001
0200
0000
,
0000
0301
1000
0100
0010
0001
0100
1000
,
0200
0000
0300
0002
0000
1003
0200
0000
,
0000
0310
0100
0001
0100
1000
0010
0100
,
0020
0000
0030
2000
0000
3001
0200
0000
,
0000
0301
0100
0010
1000
0001
0010
0000
,
1002
0100
0103
1002
,
0100
0103
0101
1100
,
0120
0001
0130
0120
,
1000
0030
0011
1010
,
1002
0010
0013
1002
,
0010
0013
1010
0011
,
0120
1000
0030
0120
,
0001
0130
1100
0101
,
1002
0100
0013
1002
,
0100
0013
1010
0101
,
0120
1000
0031
0120
,
1000
0031
0101
1010
,
1002
0010
0103
1002
,
0010
0103
0101
1010
,
0120
0001
1030
0110
,
2002
0000
3003
0110
,
1000
0001
0010
0100
1000
0001
0100
0000
,
1000
0001
0100
0010
1000
0100
0010
0000
,
0001
1000
0010
0100
1000
0100
0001
0000
,
0100
0010
1000
0100
0010
1000
0010
0000
,
0100
1000
0010
0100
0001
0100
0010
0000
,
1000
0100
0010
0001
1000
0010
1000
0000
,
0001
0100
0001
1000
0010
0100
0010
0000
,
1000
0010
0001
0010
0100
0001
2000
0000
,
0000
3000
0000
0000
;

//---------------dance-double - ----------------
#NOTES:
     dance-double:
     :
     Beginner:
     1:
     :
00000000
00000000
00000000
00000000
,
00000000
00000000
00000000
00000000
,
00000000
00000000
00000000
00000000
,
00000000
00000000
00000000
00000000
,
00000000
00000000
00000000
00000000
,
00100000
00000000
00000000
00000000
,
00100000
00000000
00000000
00000000
,
00100000
00000000
00000000
00000000
,
00010000
00000000
00001000
00000000
,
00000100
00000000
00000000
00000000
,
00000100
00000000
00000000
00000000
,
00000110
00000000
00000000
00000000
,
00000000
00000000
00000000
00000000
,
00001000
00000000
00001000
00000000
,
00000001
00000000
00000000
00000000
,
00000100
00000000
00000100
00000000
,
00001000
00000000
00000000
00000000
,
00010000
00000000
00010000
00000000
,
01000000
00000000
00000000
00000000
,
10000000
00000000
10000000
00000000
,
00010000
00000000
00010000
00000000
,
10000000
00000000
00000000
00000000
,
00100000
00000000
00000000
00000000
,
00010000
00000000
00000000
00000000
,
00001000
00000000
00000000
00000000
,
00000010
00000000
00000000
00000000
,
00000001
00000000
00000000
00000000
,
00000100
00000000
00000000
00000000
,
00001000
00000000
00000000
00000000
,
00010000
00000000
00000000
00000000
,
00000000
00000000
00001000
00001000
,
00000000
00000000
00000000
00000000
,
00000000
00000000
00100000
00100000
,
00000000
00000000
00000000
00000000
,
00000000
00000000
01000000
01000000
,
00000000
00000000
00000000
00000000
,
00000000
00000000
10000000
10000000
,
10000000
00000000
00000000
00100000
,
00000000
00000000
00000000
00000000
,
01000000
00000000
00000000
00010000
,
00000000
00000000
00000000
00000000
,
00100000
00000000
00000000
00001000
,
00000000
00000000
00000000
00000000
,
00010000
00000000
00000000
00000100
,
00000000
00000000
00000000
00000000
,
00000000
00001000
00000000
00001000
,
00000000
00000000
00000000
00000000
,
00000000
00000001
00000000
00000001
,
00000000
00000000
00000000
00000000
,
00000100
00000000
00000010
00000000
,
00001000
00000000
00000000
00000000
,
00000100
00000000
00000010
00000000
,
00000001
00000000
00000000
00000000
,
00000100
00000000
00001000
00000000
,
00010000
00000000
00000000
00000000
,
00001000
00000000
00010000
00000000
,
00100000
00000000
00000000
00000000
,
10000000
00000000
01000000
00000000
,
00100000
00000000
00000000
00000000
,
01000000
00000000
00100000
00000000
,
01100000
00000000
00000000
00000000
,
00010000
00000000
00010000
00000000
,
00010000
00000000
00000000
00000000
,
00001000
00000000
00001000
00000000
,
00001000
00000000
00000000
00000000
,
00000100
00000000
00000000
00000000
,
00000001
00000000
00000000
00000000
,
00001000
00000000
00000001
00000000
,
00001000
00000000
00000001
00000000
;

//---------------dance-double - ----------------
#NOTES:
     dance-double:
     :
     Easy:
     4:
     :
00000000
00000000
00000000
00000000
,
00000000
00000000
00000000
00000000
,
00000000
00000000
00000000
00000000
,
00000000
00000000
00000000
00000000
,
00000000
00000000
00000000
00000000
,
00100000
01000000
00010000
00010000
,
00100000
00001000
00010000
00010000
,
00000100
00010000
00000100
00010000
,
00000020
00002030
00003020
00002030
,
00003100
00000001
00001000
00001000
,
00000100
00010000
00001000
00001000
,
00011000
00000000
00000000
01001000
00000000
00000000
01010000
00000000
,
00000000
01100000
00000000
00000000
10100000
00000000
01100000
00000000
,
00010000
10000000
00100000
00010000
,
00001000
00000100
00000002
00000023
,
00001030
00000010
00000001
00000100
,
00001000
00010000
02000000
23000000
,
30100000
01000000
00100000
00010000
,
00001000
00010000
00000020
00002030
,
00003010
00000100
00000001
00001000
,
00000100
00000010
00002000
00013000
,
01010000
00000000
00000000
01000000
00000000
00000000
11000000
00000000
,
00000000
00010000
00000000
00000000
02000000
00000000
03010000
00000000
,
10010000
00000000
00000000
00010000
00000000
00000000
00011000
00000000
,
00000000
00000100
00000000
00000000
00000002
00000000
00001003
00000000
,
00001010
00000000
00000000
00001000
00000000
00000000
00011000
00000000
,
00000000
00100000
00000000
00000000
00020000
00000000
10030000
00000000
,
00110000
00000000
00000000
01000000
00000000
00000000
01010000
00000000
,
00000000
00001000
00000000
00000000
00011000
00000000
00010100
00000000
,
00002000
00003010
00002000
00003001
,
00002000
00003100
00010000
00001000
,
02000000
00000000
00000000
03000000
00010000
00000000
00000000
00000000
02000000
00000000
00000000
00000000
03100000
00000000
00000000
00000000
,
02000000
13000000
01000000
00010000
,
01000000
00001000
00010000
00000100
,
00001000
00000010
00000100
00001001
,
00000010
00000100
00001000
00000010
,
00010000
00001000
00100000
00110000
,
01010000
00000000
00000000
00100000
00000000
00000000
01001000
00000000
,
00000000
00001000
00000000
00000000
00020000
00000000
00031000
00000000
,
00001100
00000000
00000000
00000010
00000000
00000000
00010010
00000000
,
00000000
00010000
00000000
00000000
00002000
00000000
00013000
00000000
,
00110000
00000000
00000000
10000000
00000000
00000000
11000000
00000000
,
00000000
00100000
00000000
00000000
00002000
00000000
00013000
00000000
,
00001010
00000000
00000000
00000001
00000000
00000000
00000101
00000000
,
00000000
00000010
00000000
00000000
00001010
00000000
00001001
00000000
,
00000100
00000100
00010000
00010000
,
00001000
00001000
00011000
00101000
,
00100000
00100000
01000000
01000000
,
10000000
10000000
10010000
01010000
,
00001000
00001000
00010000
00010000
,
00000010
00000010
00010010
00001010
,
00000001
00000001
00001000
00001000
,
00000100
00000100
00001100
00010100
,
00001000
00100000
00010000
10000000
,
00010000
01000000
01100000
01010000
,
00100000
00010000
00001000
00000100
,
00000001
00000010
00000011
00000110
,
00000100
00001000
00000010
00000100
,
00001000
00010000
00011000
01010000
,
00010000
10000000
00010000
00100000
,
20020000
00000000
30030000
10010000
,
01000000
00010000
01000000
10000000
,
00100000
00010000
00001000
00000010
,
00000001
00000100
00001000
00010000
,
01000000
10000000
00100000
01000000
,
00010000
01010000
00100000
00010000
,
00001000
00011000
00000100
00000010
,
00000001
00001001
00000010
00000100
,
00001000
00011000
00010000
00022000
,
00000000
00033000
00000000
00000000
;

//---------------dance-double - ----------------
#NOTES:
     dance-double:
     :
     Medium:
     5:
     :
00000000
00000000
00000000
00000000
,
00000000
00000000
00000000
00000000
,
00000000
00000000
00000000
00000000
,
00000000
00000000
00000000
00000000
,
00000000
00000000
00000000
00000000
,
01000000
10000000
01000000
00000000
00010000
00000000
00001000
00000000
,
00000100
00000001
00000100
00000000
00001000
00000000
00010000
00000000
,
00100000
10000000
00100000
00000000
01000000
00000000
00010000
00000000
,
00200000
02300000
23000000
30020000
,
00130000
10000000
00100000
00000000
00010000
00000000
00001000
00000000
,
00000010
00000001
00000010
00000000
00000100
00000000
00001000
00000000
,
00002002
00000000
00000000
00003003
00000000
00000000
00002200
00000000
00000000
00003300
00000000
00000000
00000220
00000000
00000000
00000330
,
00000000
00000000
00000022
00000000
00000000
00000033
00000000
00000000
00001001
00000000
00000000
00000000
00000110
00000000
00000000
00000000
,
00000010
00000001
00001000
00000100
,
00010000
00001000
00110000
01010000
,
00100000
10000000
00010000
01000000
,
00001000
00010000
00001010
00001100
,
00000001
00000100
00001000
00010000
,
01000000
10000000
10100000
01010000
,
10000000
01000000
00010000
00001000
,
00000100
00000001
00000011
00001100
,
00000110
00000000
00000000
00001100
00000000
00000000
00010100
00000000
,
00000000
00011000
00000000
00000000
00200000
00000000
00310000
00000000
,
10010000
00000000
00000000
01010000
00000000
00000000
00011000
00000000
,
00000000
00001100
00000000
00000000
00000002
00000000
00000103
00000000
,
00001010
00000000
00000000
00000101
00000000
00000000
00000011
00000000
,
00000000
00001100
00000000
00000000
00000200
00000000
00010300
00000000
,
00011000
00000000
00000000
00110000
00000000
00000000
11000000
00000000
,
00000000
10100000
00000000
00000000
02000000
00000000
03100000
00000000
,
01200000
00310000
10000000
00120000
,
00031000
00010000
00000200
00001300
,
00000010
00000002
00001003
00000001
,
00000020
00000130
00000110
00001001
,
00000001
00000010
00000100
00010000
,
00001000
01000000
01100000
01100000
,
10000000
00100000
01000000
00001000
,
00010000
00000100
00000110
00000110
,
00002002
00000000
00003003
00000100
00000000
00000000
00002200
00000000
,
00003300
00010000
00001000
00100000
,
02020000
00000000
03030000
10000000
00000000
00000000
20200000
00000000
,
30300000
00010000
00100000
00001000
,
00020200
00000000
00030300
00001000
00000000
00000000
00000022
00000000
,
00000033
00000010
00001000
00010000
,
02200000
00000000
03300000
10000000
00000000
00000000
20020000
00000000
,
30030000
00100000
00010000
00001000
,
00000010
00000010
00000100
00000100
,
00001000
00001000
00001100
00001010
,
00010000
00010000
01000000
01000000
,
10000000
10000000
10100000
11000000
,
00010000
00010000
00100000
00100000
,
00001000
00001000
00011000
00010100
,
00000100
00000100
00001000
00001000
,
00000001
00000001
00000110
00001010
,
00001000
00000100
00010000
00001000
,
00100000
00010000
11000000
10010000
,
00010000
01000000
00001000
00010000
,
00000010
00001000
00000101
00001001
,
00001000
00000100
00010000
00000100
,
00100000
00001000
00101000
00110000
,
10000000
00010000
00100000
01100000
,
20020000
00000000
30030000
10010000
,
01000000
00011000
00001000
00000101
,
00000001
00000110
00000100
00000011
,
00000100
00001010
00010000
00011000
,
01000000
01010000
10000000
01100000
,
00010000
11000000
01000000
00110000
,
00001000
00011000
00000100
00000110
,
00000010
00001001
00000100
00011000
,
00100000
01100000
10000000
20020000
,
00000000
30030000
00000000
00000000
;

//---------------dance-double - ----------------
#NOTES:
     dance-double:
     :
     Hard:
     8:
     :
00000000
00000000
00000000
00000000
,
00000000
00000000
00000000
00000000
,
00000000
00000000
00000000
00000000
,
00000000
00000000
00000000
00000000
,
00000000
00000000
00000000
00000000
,
00010000
00001000
00100000
00020000
01000000
00000000
00130000
00000000
,
00001000
00010000
00000010
00002000
00000100
00000000
00003010
00000000
,
00000100
00001000
00010000
00200000
10000000
00000000
00310000
00000000
,
01000000
00010000
00100000
00001000
00010000
00001000
00100000
00010000
,
01000000
00100000
10000000
00200000
01000000
00000000
00310000
00000000
,
00001000
00010000
00000010
00002000
00000100
00000000
00003001
00000000
,
00002020
00000000
00000000
00003030
00000000
00000000
00022000
00000000
00000000
00033000
00000000
00000000
02020000
00000000
00000000
03030000
,
00000000
00000000
20020000
00000000
00000000
30030000
00000000
00000000
01100000
00000000
00000000
00000000
01010000
00000000
00000000
00000000
,
00100000
00000000
00010000
00000000
00001000
00010000
00000010
00000000
,
00010000
00001000
00100000
00000000
00101000
00000000
00010100
00000000
,
00001000
00000000
00000100
00000000
00010000
00001000
01000000
00000000
,
00001000
00010000
00000100
00000000
00010100
00000000
00101000
00000000
,
00010000
00000000
10000000
00000000
01000000
00100000
00010000
00000000
,
01000000
00100000
00010000
00000000
00011000
00000000
00010010
00000000
,
00001000
00000000
00000001
00000000
00000100
00000010
00001000
00000000
,
00000100
00000010
00001000
00000000
00011000
00000000
00101000
00000000
,
01020000
00000000
10030000
00100000
01000000
00000000
01200000
00000000
,
10300000
00010000
00100000
00000000
00200000
00000000
00301000
00000000
,
00011000
00000000
00010000
00001000
00000010
00000000
00000120
00000000
,
00000031
00000100
00001000
00000000
00000002
00000000
00000103
00000000
,
00000010
00000000
00000001
00000100
00000010
00000000
00000120
00000000
,
00000031
00001000
00000100
00000000
00000200
00000000
00010300
00000000
,
00011000
00000000
00001000
00010000
01000000
00000000
01200000
00000000
,
10300000
00100000
00010000
00000000
20000000
00000000
30100000
00000000
,
10000000
01000000
00020000
00000000
00031000
00000000
00010000
00001000
,
00200000
00310000
00110000
00101000
,
00001000
00010000
00000200
00000000
00001300
00000000
00000001
00001000
,
00000020
00000130
00000110
00001001
,
00000001
00000100
00000010
00000000
00000100
00000010
00010000
00000000
,
00001000
00100000
00010000
00000000
00110000
00000000
11000000
00000000
,
10000000
01000000
00100000
00000000
01000000
00100000
00001000
00000000
,
00010000
00000010
00001000
00000000
00001010
00000000
00000101
00000000
,
00002000
00000000
00000000
00003002
00000000
00000013
00000200
00000000
,
00000000
00001300
00000100
00010000
00001000
00100000
00010000
10000000
,
00020000
00000000
00000000
20030000
00000000
30100000
02000000
00000000
,
00000000
03010000
01000000
00001000
00010000
00000010
00001000
00000001
,
00000200
00000000
00000000
00000320
00000000
00001030
00000002
00000000
,
00000000
00000103
00000010
00010000
00001000
00100000
00010000
00100000
,
02000000
00000000
00000000
03200000
00000000
00310000
20000000
00000000
,
00000000
31000000
00100000
00001000
00010000
00000010
00001000
00000000
,
00001002
00000100
00000103
00000120
,
00001000
00001030
00011000
00110000
,
01020000
00100000
00030000
00012000
,
00000100
00003000
00011000
00001010
,
00001002
00000100
00000103
00000120
,
00001000
00001030
00011000
00110000
,
01020000
00100000
00030000
00012000
,
00000100
00003000
00011000
00110000
,
00120000
10000000
00130000
00012000
,
00000100
00003000
00010100
00001100
,
00000120
00000001
00000130
00001200
,
00000010
00001300
00001100
00010100
,
00012000
00000010
00003000
00012000
,
00100000
00013000
00011000
00101000
,
00120000
10000000
00130000
01100000
,
20020000
00000000
30030000
01100000
,
00100000
10000000
01000000
00010000
01000000
00100000
00010000
00000000
,
00010000
00100000
00001000
00010000
00000100
00001000
00000010
00000000
,
00000010
00001000
00000001
00000100
00001000
00000100
00000010
00000000
,
00000010
00000100
00001000
00010000
01000000
00100000
00010000
00000000
,
00010000
01000000
00100000
10000000
01000000
10000000
00010000
00000000
,
00010000
01000000
00100000
00010000
00001000
00000100
00000010
00000000
,
00000010
00000100
00000001
00000010
00000100
00000010
00001000
00000000
,
00010000
00100000
01000000
00010000
10000000
00010000
02000000
00000000
,
00000000
03000000
00000000
00000000
;
