#TITLE:Close Your Eyes;
#ARTIST:Daybehavior;
#BANNER:Close Your Eyes.png;
#BACKGROUND:Close Your Eyes-bg.png;
#CDTITLE:./CDTITLES/DANCE DANCE REVOLUTION ULTRAMIX 2.PNG;
#MUSIC:Close Your Eyes.ogg;
#SAMPLESTART:79.074;
#SAMPLELENGTH:15;
#BPMS:0=138;

//---------------dance-single - ----------------
#NOTES:
     dance-single:
     :
     Beginner:
     2:
     :
0000
0000
0000
0000
,
0000
0000
0000
0000
,
0000
0000
0000
0000
,
0000
0000
0000
0000
,
0000
0000
0000
0000
,
0000
0000
0000
0000
,
0100
0000
0000
0000
,
0010
0000
0000
0000
,
0001
0000
0000
0000
,
0010
0000
0000
0000
,
0010
0000
0001
0000
,
1000
0000
0100
0000
,
0010
0000
0100
0000
,
1000
0000
0001
0000
,
1001
0000
0001
0000
,
1000
0000
0100
0000
,
0010
0000
0010
0000
,
0100
0000
0001
0000
,
0010
0000
0000
0000
,
0000
0000
0000
0000
,
0100
0000
0000
0000
,
0000
0000
0000
0000
,
1000
0000
0001
0000
,
1000
0000
1001
0000
,
0001
0000
1000
0000
,
0001
0000
1001
0000
,
0010
0000
0100
0000
,
0010
0000
0110
0000
,
0100
0000
0010
0000
,
0100
0000
0110
0000
,
1000
0000
1000
0000
,
0100
0000
0100
0000
,
1000
0000
1000
0000
,
0100
0000
0100
0000
,
1000
0000
1000
0000
,
0010
0000
0010
0000
,
0100
0000
0100
0000
,
1000
0000
1000
0000
,
1001
0000
0000
0000
,
0100
0000
0000
0000
,
0010
0000
0000
0000
,
0001
0000
0000
0000
,
1000
0000
0000
0000
,
0001
0000
0000
0000
,
0100
0000
0000
0000
,
0010
0000
0000
0000
,
1000
0000
0001
0000
,
1000
0000
1001
0000
,
0010
0000
0100
0000
,
0010
0000
0110
0000
,
0100
0000
0010
0000
,
0100
0000
0110
0000
,
1000
0000
0001
0000
,
0010
0000
0100
0000
,
1000
0000
0001
0000
,
0000
0010
0000
0010
,
0000
1000
0000
1000
,
0000
0001
0000
0001
,
0000
0100
0000
0100
,
0000
0010
0000
0010
,
0000
0000
0010
0000
,
0010
0000
0000
0000
;

//---------------dance-single - ----------------
#NOTES:
     dance-single:
     :
     Easy:
     3:
     :
0000
0000
0000
0000
,
0000
0000
0000
0000
,
0000
0000
0000
0000
,
0000
0000
0000
0000
,
0000
0000
0000
0000
,
0000
0000
0000
0000
,
0200
0000
0000
0300
,
0020
0000
0000
0030
,
0002
0000
0000
0003
,
0020
0000
0000
0030
,
0010
0000
0001
0000
,
1000
0000
0100
0000
,
0010
0000
0100
0000
,
1000
0000
0001
0000
,
1001
0000
0001
0000
,
1000
0000
0100
0000
,
0010
0001
0010
0000
,
0100
0000
0001
0000
,
0020
0000
0000
0000
,
0000
0000
0000
0030
,
0200
0000
0000
0000
,
0000
0000
0000
0300
,
1000
1000
0001
0001
,
1000
0001
1001
0000
,
0001
0001
1000
1000
,
0001
1000
1001
0000
,
0010
0010
0100
0100
,
0010
0100
0110
0000
,
0100
0100
0010
0010
,
0100
0010
0110
0000
,
1000
0001
1000
0001
,
0100
0010
0100
0010
,
1000
0010
1000
0010
,
0100
0001
0100
0001
,
1000
0100
1000
0100
,
0010
0001
0010
0001
,
0100
0010
0100
0010
,
1000
0001
1000
0001
,
2002
0000
0000
3003
,
0200
0000
0000
0300
,
0020
0000
0000
0030
,
0002
0000
0000
0003
,
2000
0000
0000
3000
,
0002
0000
0000
0003
,
0200
0000
0000
0300
,
0020
0000
0000
0030
,
1000
1000
0001
0001
,
1000
0001
1001
0000
,
0010
0010
0100
0100
,
0010
0100
0110
0000
,
0100
0100
0010
0010
,
0100
0010
0110
0000
,
1000
1000
0001
0001
,
0010
0010
0100
0100
,
1000
1000
0001
0001
,
0000
0010
0010
0010
,
0000
1000
1000
1000
,
0000
0001
0001
0001
,
0000
0100
0100
0100
,
0000
0010
0010
0010
,
1001
0000
0010
0100
,
0010
0000
0000
0000
;

//---------------dance-single - ----------------
#NOTES:
     dance-single:
     :
     Medium:
     4:
     :
0000
0000
0000
0000
,
0000
0000
0000
0000
,
0000
0000
0000
0000
,
0000
0000
0000
0000
,
0000
0000
0000
0000
,
0000
0000
0000
0000
,
2000
0000
0000
3000
,
0200
0000
0000
0300
,
0002
0000
0000
0003
,
0100
0100
0100
0100
,
2000
0000
0001
3001
,
0200
0000
0010
0310
,
0020
0000
1000
1030
,
0002
0000
0100
0103
,
2000
0000
0000
3000
,
0002
0000
0000
0003
,
2000
0000
0000
3000
,
0002
0000
0000
0003
,
0220
0330
2020
3030
,
2002
3003
0202
0303
,
2002
0000
0000
3003
,
0020
0000
0100
0130
,
0002
0003
1000
0010
,
0200
0300
0001
1000
,
0020
0030
1000
0100
,
2000
3000
0100
0010
,
0002
0003
0100
0010
,
2000
3000
0010
0010
,
1000
0010
0100
0001
,
1001
1001
0100
0100
,
1000
0001
1000
0000
0001
1000
0001
0000
,
0100
0010
0100
0000
0010
0100
0010
0000
,
0001
0100
1000
0000
1000
0100
0001
0000
,
0001
0010
1000
0000
1000
0010
0001
0000
,
0001
0010
0001
0000
1000
0010
1000
0000
,
1000
0100
1000
0000
0001
0100
0001
0000
,
1000
0001
0100
0001
,
0010
0000
0001
0001
0000
1000
1000
0000
,
2001
0000
0000
3000
,
0120
0000
0000
0030
,
0102
0000
0000
0003
,
2100
0000
0000
3000
,
0002
0000
0000
0003
,
0020
0000
0000
0030
,
0100
0100
0100
0100
,
2000
0000
0000
3000
,
1000
0000
1000
0000
0001
0100
0010
0000
,
0001
0000
0001
0000
1000
0001
1000
0000
,
0010
0000
0010
0000
1000
0010
0100
0000
,
0001
0000
0001
0000
0100
0010
0100
0000
,
0010
0000
0010
0000
1000
0010
1000
0000
,
0100
0000
0100
0000
1000
0001
0100
0000
,
0001
0000
0001
0000
1000
0100
0010
0000
,
0100
0000
0100
0000
1000
0001
1000
0000
,
2000
0001
0000
3001
,
2000
0010
0000
3010
,
2000
0100
0000
3001
,
2000
0001
0000
3100
,
0001
1000
0010
1000
,
0001
1000
0010
0100
,
0002
0000
0000
0000
,
0000
0003
0000
0000
;

//---------------dance-single - ----------------
#NOTES:
     dance-single:
     :
     Hard:
     5:
     :
0000
0000
0000
0000
,
0000
0000
0000
0000
,
0000
0000
0000
0000
,
0000
0000
0000
0000
,
0000
0000
0000
0000
,
0000
0000
0000
0000
,
2000
0000
0000
3000
,
0020
0000
0000
0030
,
0200
0001
0000
0301
,
1000
0001
1000
0001
,
1001
0000
0100
0000
0010
1000
0100
0000
,
1001
0000
0010
0000
1000
0001
0100
0000
,
0110
0000
0001
0000
0100
0010
1000
0000
,
1100
0000
0100
0000
1000
0100
0001
0000
,
0020
0001
1000
0030
,
0200
0010
0001
0300
,
2000
0001
0001
3000
,
0002
0010
1000
0103
,
0200
0310
0020
1030
,
2000
3001
0002
0103
,
0202
0000
0000
0303
,
0100
0000
0100
0000
0010
1000
0010
0100
,
0010
0000
0100
0000
0001
0100
0001
0000
,
0101
0000
0101
0000
1000
0100
1000
0000
,
1100
1100
0100
0010
,
0220
0000
0330
0000
0100
0000
0100
0010
,
0002
0000
0000
0003
,
0200
0000
0300
0010
0010
1000
0000
0000
,
2000
3200
0320
0032
,
0003
0000
1001
1001
,
1000
0010
1000
0000
0001
0000
1000
0000
,
0010
0100
0010
0000
0100
0000
0001
0000
,
0001
0100
1000
0000
1000
0000
1000
0000
,
0001
0100
1000
0000
1000
0000
1000
0100
,
0010
0100
0001
0000
0110
0000
0110
0000
,
0100
0001
0100
0000
0010
0000
1000
0100
,
0010
0001
0100
0000
0101
0000
0101
0000
,
0010
0000
1000
0001
0000
1000
0100
0000
,
2200
0000
0000
3300
,
2002
0000
0000
3003
,
0202
0000
0000
0303
,
0220
0000
0000
0330
,
0020
1030
0002
0103
,
0020
2030
3002
0203
,
0310
0010
0010
0010
,
0100
0001
0100
0001
1000
0010
0100
0000
,
0000
1000
0010
1000
0000
0010
0001
0010
,
0000
0001
0100
0001
0000
0100
1000
0100
,
0000
1000
0010
1000
0000
0001
0100
0001
,
0000
1000
0100
2000
0000
0000
3000
0000
,
0000
0010
1000
0100
0000
0010
0001
0100
,
0000
0001
0100
0002
0000
0000
0003
0000
,
0000
0010
0100
1000
0000
0001
0100
1000
,
0000
0010
0100
0020
0000
0000
0030
0000
,
1000
0100
0001
0000
1000
0010
0001
0000
,
0001
0100
0010
0000
0200
0000
0301
0000
,
1000
0010
0100
0000
0010
1000
0010
0000
,
1000
0001
1000
0000
0200
0000
1300
0000
,
0001
0010
0001
0000
0010
0100
0010
0000
,
0100
1000
0010
0100
0001
1000
0100
0000
,
2200
0000
0000
0000
,
0000
3300
0000
0000
;

//---------------dance-double - ----------------
#NOTES:
     dance-double:
     :
     Beginner:
     2:
     :
00000000
00000000
00000000
00000000
,
00000000
00000000
00000000
00000000
,
00000000
00000000
00000000
00000000
,
00000000
00000000
00000000
00000000
,
00000000
00000000
00000000
00000000
,
00000000
00000000
00000000
00000000
,
00000010
00000000
00000000
00000000
,
00001000
00000000
00000000
00000000
,
00010000
00000000
00000000
00000000
,
00100000
00000000
00000000
00000000
,
10000000
00000000
00100000
00000000
,
10000000
00000000
00010000
00000000
,
00100000
00000000
00100000
00000000
,
00010000
00000000
00100000
00000000
,
01000000
00000000
00100000
00000000
,
10000000
00000000
00010000
00000000
,
00100000
10000000
00010000
00000000
,
00000010
00000000
00000001
00000000
,
00000110
00000000
00001000
00000000
,
00000001
00000000
00001000
00000000
,
00001000
00000000
00000001
00000000
,
00001000
00000000
00010000
00000000
,
00011000
00000000
00001000
00000000
,
00011000
00000000
00001000
00000000
,
10010000
00000000
10000000
00000000
,
10010000
00000000
01000000
00000000
,
10000000
00000000
10000000
00000000
,
00010000
00000000
00100000
00000000
,
01000000
00000000
00010000
00000000
,
01100000
00000000
01000000
00000000
,
00011000
00000000
00001000
00000000
,
00010000
00000000
00001000
00000000
,
00000001
00000000
00000100
00000000
,
00000010
00000000
00000001
00000000
,
00001001
00000000
00001000
00000000
,
00000010
00000000
00001000
00000000
,
00100000
00000000
10000000
00000000
,
00010000
00000000
00000000
00000000
,
00011000
00000000
00000000
00000000
,
00000010
00000000
00001000
00000000
,
00000001
00000000
00000100
00000000
,
00000010
00000000
00001000
00000000
,
00001000
00000000
00000010
00000000
,
00010000
00000000
00001000
00000000
,
00100000
00000000
00010000
00000000
,
10000000
00000000
00010000
00000000
,
00100000
00000000
10000000
00000000
,
00010000
00000000
00100000
00000000
,
10000000
00000000
01000000
00000000
,
01000000
00000000
00010000
00000000
,
00001000
00000000
00010000
00000000
,
00000010
00000000
00001000
00000000
,
00000001
00000000
00000100
00000000
,
00000001
00000000
00000100
00000000
,
00000010
00000000
00001000
00000000
,
00000010
00000000
00001000
00000000
,
00010000
00000000
00010000
00000000
,
00100000
00000000
00010000
00000000
,
00010000
00000000
00100000
00000000
,
01000000
00000000
10000000
00000000
,
10010000
00000000
00010000
00000000
,
00100000
00000000
00000000
00000000
;

//---------------dance-double - ----------------
#NOTES:
     dance-double:
     :
     Easy:
     3:
     :
00000000
00000000
00000000
00000000
,
00000000
00000000
00000000
00000000
,
00000000
00000000
00000000
00000000
,
00000000
00000000
00000000
00000000
,
00000000
00000000
00000000
00000000
,
00000000
00000000
00000000
00000000
,
00000020
00000000
00000000
00000030
,
00002000
00000000
00000000
00003000
,
00020000
00000000
00000000
00030000
,
00200000
00000000
00000000
00300000
,
10000000
00000000
00100000
10000000
,
10000000
00000000
00010000
00000000
,
00100000
00010000
00100000
00000000
,
00010000
10000000
00100000
00000000
,
01000000
00000000
00100000
10000000
,
10000000
00000000
00010000
00000000
,
00100000
00001000
00010000
00000000
,
00000010
00001000
00000001
00000000
,
00000110
00000000
00001000
00000000
,
00000001
00000000
00001000
00000000
,
00001000
00000000
00000001
00000000
,
00001000
00000010
00010000
00001000
,
00011000
00010000
00001000
00000000
,
00011000
00010000
00001000
00000000
,
00110000
00010000
10000000
00010000
,
10010000
00100000
01000000
00100000
,
10000000
00000000
10000000
00000000
,
00010000
00000000
00100000
00000000
,
01000000
00100000
00010000
10000000
,
01100000
00000000
01000000
00001000
,
00011000
00000000
00001000
00001000
,
00010000
00000010
00001000
00000000
,
00000001
00000010
00000100
00000100
,
00000010
00000001
00000001
00000000
,
00000011
00000000
00001000
00001000
,
00000010
00010000
00001000
00000000
,
00100000
00010000
10000000
10000000
,
00010000
00000000
00000000
00000000
,
00022000
00000000
00000000
00000000
00000000
00033000
00000000
00000000
,
00000020
00000030
00002000
00003000
,
00000002
00000003
00000200
00000300
,
00000010
00000000
00001000
00000001
,
00001000
00000000
00000010
00000000
,
00010000
00000000
00001000
00000000
,
00100000
00000000
00010000
00000000
,
10000000
00000000
00010000
10000000
,
00100000
00000000
10000000
10000000
,
00010000
00000000
00100000
00010000
,
10000000
00100000
01000000
00010000
,
01000000
00000000
00010000
01000000
,
00002000
00003000
00020000
00030000
,
00000020
00000030
00001000
00000000
,
00000001
00000010
00000100
00001000
,
00000001
00000000
00000100
00000010
,
00000010
00000000
00001000
00001000
,
00000010
00000000
00001000
00000010
,
00010000
00001000
00010000
00001000
,
00100000
00000000
00010000
10000000
,
00020000
00030000
00200000
00300000
,
02000000
03000000
20000000
30000000
,
00110000
00000000
00010000
10000000
,
00100000
00000000
00000000
00000000
;

//---------------dance-double - ----------------
#NOTES:
     dance-double:
     :
     Medium:
     5:
     :
00000000
00000000
00000000
00000000
,
00000000
00000000
00000000
00000000
,
00000000
00000000
00000000
00000000
,
00000000
00000000
00000000
00000000
,
00000000
00000000
00000000
00000000
,
00000000
00000000
00000000
00000000
,
00002000
00000000
00000000
00003000
,
00000200
00000000
00000000
00000300
,
00000020
00000000
00000000
00000030
,
00000002
00000000
00000000
00000003
,
00000100
00000010
00000100
00000001
,
00000010
00000100
00000010
00000001
,
00001000
00000010
00000100
00001000
,
00010000
01000000
00100000
00010000
,
10000000
00100000
01000000
00010000
,
00100000
01000000
10000000
00010000
,
01000000
00100000
10000000
01000000
,
10000000
01000000
00010000
00001000
,
00020000
00000000
00000000
00031000
,
00002000
00000000
00000000
00003100
,
00000200
00000000
00000001
00000301
,
00000002
00000010
00000010
00000013
,
00001000
00000000
00000001
00000000
00000010
00000100
00001000
00000000
,
00000010
00000100
00001000
00000000
00000010
00000100
00000001
00000000
,
00000010
00000001
00000100
00001000
,
00010000
01000000
10000000
00100000
,
10000000
00000000
00010000
00000000
00100000
01000000
10000000
00000000
,
00100000
01000000
00010000
00000000
00100000
01000000
10000000
00000000
,
01000000
10000000
00100000
00010000
,
00001000
00000010
00000001
00000100
,
00000010
00001000
00000100
00000000
00001000
00000000
00000001
00000000
,
00000010
00000001
00000100
00000000
00001000
00000000
00000001
00000000
,
00001000
00000100
00000010
00000000
00000001
00000000
00001000
00000000
,
00000001
00000100
00000010
00000000
00001000
00000000
00000001
00001000
,
00000001
00000100
00001000
00000000
00010000
00000000
00010000
00000000
,
00010000
01000000
10000000
00000000
00100000
00000000
10000000
00010000
,
10000000
01000000
00010000
00000000
00001000
00000000
00001000
00000000
,
00000010
00000000
00000100
00000010
00000000
00000000
00000000
00000000
,
00000020
00000000
00000000
00000030
,
00000002
00000000
00000000
00000003
,
00000200
00000000
00000000
00000300
,
00002000
00000000
00000000
00003000
,
00020000
00000000
00000000
00030000
,
02000000
00000000
00000000
03000000
,
20000000
00000000
00000000
30000000
,
00200000
00000000
00000000
00300000
,
00010000
00100000
10000000
01000000
,
00010000
01000000
10000000
00000000
10000000
01000000
00010000
00000000
,
00001000
00000100
00000001
00000010
,
00001000
00000010
00000001
00000000
00000001
00000010
00001000
00000000
,
00010000
01000000
10000000
00100000
,
00010000
00100000
10000000
00000000
10000000
00100000
00010000
00000000
,
00001000
00000010
00000001
00000100
,
00001000
00000100
00000001
00000000
00000001
00000100
00001000
00000000
,
00020000
01000000
00000000
01030000
,
00200000
10000000
00000000
10300000
,
02000000
00001000
00000000
03010000
,
00000020
00010000
00000000
00000130
,
00010000
00000100
00000001
00000100
,
00010000
00001000
00100000
01000000
,
20020000
00000000
00000000
00000000
,
00000000
30030000
00000000
00000000
;

//---------------dance-double - ----------------
#NOTES:
     dance-double:
     :
     Hard:
     6:
     :
00000000
00000000
00000000
00000000
,
00000000
00000000
00000000
00000000
,
00000000
00000000
00000000
00000000
,
00000000
00000000
00000000
00000000
,
00000000
00000000
00000000
00000000
,
00000000
00000000
00000000
00000000
,
20000000
00000000
00000000
30000000
,
00020000
00000000
00000000
00030000
,
02000000
00100000
00000000
03100000
,
00200000
01000000
01000000
01300000
,
00001000
00010000
00001000
00010000
,
00001000
00000100
00000001
00000000
00000100
00001000
00010000
00000000
,
00001000
00010000
00001000
00010000
,
00001000
00000010
00000001
00000000
00000010
00001000
00010000
00000000
,
00001000
00011000
00010000
00011000
,
00010000
01000000
10000000
00000000
01000000
00010000
00001000
00000000
,
00010000
00011000
00001000
00011000
,
00010000
00100000
10000000
00000000
00100000
00010000
00001000
00000000
,
00020000
00000000
00000000
00031000
,
00002000
00000000
00000000
00013000
,
02000000
00000000
10000000
13000000
,
00020000
00100000
00100000
00130000
,
00000000
01000000
00000000
01000000
00000000
10000000
00100000
10000000
,
00000000
00010000
00000000
00010000
00000000
00100000
01000000
00100000
,
00000000
00001000
00000000
00001000
00000000
00010000
00001000
00010000
,
00000000
00000100
00000000
00000100
00000000
00000010
00000001
00000010
,
00000000
00000100
00001000
00000100
00000000
00010000
00001000
00010000
,
00000000
00001000
00010000
00001000
00000000
00100000
00010000
00100000
,
00000000
01000000
10000000
01000000
00000000
10000000
00100000
10000000
,
00000000
00010000
00100000
00010000
00000000
01000000
00100000
01000000
,
00010000
10000000
02000000
00000000
10000000
00000000
13000000
00000000
,
01000000
00100000
00002000
00000000
00010000
00000000
00013000
00000000
,
00001000
00000100
00000020
00000000
00001000
00000000
00001030
00000000
,
00000010
00001000
00000002
00000000
00000100
00000000
00000103
00000100
,
00000010
00001000
00000200
00000000
00010000
00000000
00010300
00000000
,
00000100
00010000
00002000
00000000
00010000
00000000
00013000
00010000
,
00001000
00000100
00000002
00000000
00000010
00000000
00000013
00000000
,
00000100
00000000
00010000
00001000
00000000
00000000
00000000
00000000
,
00020000
00000000
00000000
00030000
,
02000000
00000000
00000000
03000000
,
20000000
00000000
00000000
30000000
,
00200000
00000000
00000000
00300000
,
02000000
10000000
00000000
13000000
,
00020000
01000000
00000000
01030000
,
00002000
00010000
00000000
00013000
,
00000200
00001000
00001000
00001300
,
00000000
00000001
00000000
00000010
00000000
00000001
00000100
00000001
,
00000000
00001000
00000000
00000010
00000000
00001000
00000100
00001000
,
00000000
00000001
00000000
00000100
00000000
00000001
00000010
00000001
,
00000000
00001000
00000000
00000100
00000000
00001000
00000010
00001000
,
00000000
00000100
00010000
00001000
00000000
01000000
00001000
00010000
,
00000000
00000010
00010000
00001000
00000000
00100000
00001000
00010000
,
00000000
01000000
00000000
01000000
00000000
10000000
00100000
10000000
,
00000000
00010000
00000000
00010000
00000000
00000000
00000000
00000000
,
00100000
10000000
01000000
00000000
00010000
00000000
00001000
00000000
,
00000100
00000001
00000010
00000000
00001000
00000000
00010000
00000000
,
00100000
10000000
01000000
00000000
00010000
00000000
00001000
00000000
,
00000100
00000001
00000010
00000000
00001000
00000000
00010000
00000000
,
01000000
10000000
00010000
01000000
,
00100000
10000000
00010000
00100000
,
20020000
00000000
00000000
00000000
,
00000000
30030000
00000000
00000000
;
