#TITLE:C Squared;
#ARTIST:Alien#Six13;
#BANNER:C Squared.png;
#BACKGROUND:C Squared-bg.png;
#CDTITLE:./CDTITLES/DANCE DANCE REVOLUTION ULTRAMIX 2.PNG;
#MUSIC:C Squared.ogg;
#SAMPLESTART:80.705;
#SAMPLELENGTH:15;
#DISPLAYBPM:125;
#BPMS:0=125.01;

//---------------dance-single - ----------------
#NOTES:
     dance-single:
     :
     Beginner:
     1:
     :
0000
0000
0000
0000
,
0000
0000
0000
0000
,
0000
0000
0000
0000
,
0000
0000
0000
0000
,
0000
0000
0000
0000
,
1000
0000
0001
0000
,
1000
0000
0001
0000
,
0010
0000
0100
0000
,
0010
0000
0100
0000
,
1000
0000
0100
0000
,
0100
0000
0100
0000
,
0100
0000
1000
0000
,
1000
0000
1000
0000
,
1000
0000
0000
0000
,
0001
0000
0010
0000
,
0010
0000
0010
0000
,
1000
0000
1000
0000
,
1001
0000
0010
0000
,
0010
0000
1000
0000
,
1000
0000
0001
0000
,
0001
0000
0100
0000
,
0100
0000
1000
0000
,
0100
0000
0001
0000
,
0100
0000
0010
0000
,
0100
0000
0100
0000
,
0010
0000
0000
0000
,
0001
0000
0000
0000
,
0100
0000
0000
0000
,
0010
0000
0000
0000
,
1000
0000
1000
0000
,
0100
0000
0100
0000
,
0010
0000
0010
0000
,
0001
0000
0001
0000
,
0110
0000
0000
0000
,
0000
0000
0000
0000
,
1001
0000
0000
0000
,
0000
0000
0000
0000
,
0110
0000
1000
0000
,
0110
0000
1001
0000
,
1001
0000
0001
0000
,
0110
0000
1001
0000
,
1001
0000
0110
0000
,
1001
0000
0001
0000
,
0100
0000
0010
0000
,
1001
0000
0000
0000
,
1001
0000
0100
0000
,
1001
0000
0010
0000
,
1001
0000
1000
0000
,
1001
0000
1000
0000
,
1000
0000
1000
0000
,
0100
0000
1000
0000
,
0100
0000
1000
0000
,
0110
0000
0110
0000
,
1001
0000
0000
0000
;

//---------------dance-single - ----------------
#NOTES:
     dance-single:
     :
     Easy:
     4:
     :
0000
0000
0000
0000
,
0000
0000
0000
0000
,
0000
0000
0000
0000
,
0000
0000
0000
0000
,
0000
0000
0000
0000
,
1000
0000
0001
0000
,
1000
0000
0001
0000
,
0010
0000
0100
0000
,
0010
0000
0100
0000
,
1000
0000
0100
0000
,
0100
0001
0100
0001
,
0100
0001
1000
0100
,
1000
0100
1000
0100
,
2000
0000
0000
0000
,
3001
0000
0010
0000
,
0010
0000
0010
0000
,
1000
0000
1000
0000
,
1001
0000
0010
0010
,
0010
0000
1000
1000
,
1000
0000
0001
0001
,
0001
0000
0100
0100
,
0100
0000
1000
0010
,
0100
0000
0001
0010
,
0100
0000
0010
1001
,
0100
0000
0100
1001
,
0020
0000
0000
0030
,
0002
0000
0000
0003
,
0200
0000
0000
0300
,
0020
0000
0000
0030
,
1000
1000
1000
1000
,
0100
0100
0100
0100
,
0010
0010
0010
0010
,
0001
0001
0001
0001
,
0220
0000
0000
0000
,
0000
0000
0000
0330
,
2002
0000
0000
0000
,
0000
0000
0000
3003
,
0101
1000
1000
0101
,
0110
1001
1001
0110
,
1010
0001
0001
1010
,
0110
1001
1001
0110
,
1010
0001
0110
0001
,
1010
1001
0001
0010
,
0100
1000
0010
0100
,
2002
0000
0000
3003
,
1001
0010
0100
0010
,
1001
0100
0010
0100
,
1010
0001
1000
0001
,
1010
0101
1000
0001
,
1000
0101
1000
0001
,
0100
0010
1000
0001
,
0100
0010
1000
0001
,
0110
0000
0110
0000
,
2002
0000
0000
3003
;

//---------------dance-single - ----------------
#NOTES:
     dance-single:
     :
     Medium:
     5:
     :
0000
0000
0000
0000
,
0000
0000
0000
0000
,
0000
0000
0000
0000
,
0000
0000
0000
0000
,
0000
0000
0000
0000
,
0001
0000
0000
0100
0000
0000
0020
0000
0000
0000
0000
0000
0100
0000
0000
0000
,
0000
0100
0000
0130
,
0001
0000
0000
1000
0000
0000
0200
0000
0000
0000
0000
0000
0010
0000
0000
0000
,
0000
0010
0000
0310
,
0001
0000
0000
0100
0000
0000
0020
0000
0000
0000
0000
0000
0000
0000
0000
0000
,
0030
1000
0001
1000
0000
0100
0000
0001
,
1000
0000
0000
0001
0000
0000
0200
0000
0000
0000
0000
0000
0001
0000
0000
0000
,
0300
0010
1000
0100
0000
0010
1000
0001
,
2000
0000
0000
0000
,
3002
0000
0000
0000
,
0023
0000
0000
0230
,
0000
0000
0000
0300
,
1000
0010
1000
0000
0000
0100
0010
0000
,
0001
0100
1000
0000
0000
0100
0010
0000
,
0010
0000
1000
0010
0010
0000
1001
0000
,
0001
1000
0001
0000
0000
0100
0001
0000
,
1000
0001
1000
0000
0000
0100
0010
0000
,
0100
0100
0001
1000
,
0010
0000
1000
0001
0010
0000
1001
0000
,
0010
0100
1000
0000
0001
0100
0001
0000
,
2000
0000
0010
0000
3001
0100
0001
0000
,
0001
0001
1000
0000
0100
0001
0100
0000
,
0001
1001
1000
0101
,
1000
0001
0100
0000
1000
0001
1000
0000
,
0100
0001
1000
0001
,
1000
0000
1000
0010
0100
0000
0001
0000
,
1000
0001
0100
0000
0010
1000
0001
0000
,
0100
0000
1000
0100
0001
0100
1000
0000
,
0001
0000
0000
0100
0000
0000
2000
0000
0000
0000
0000
0000
3000
0000
0000
0000
,
0110
0110
1001
0011
,
0010
0000
0000
0100
0000
0000
2000
0000
0000
0000
0000
0000
3001
0000
0000
0000
,
1000
0010
1000
0000
0010
0000
0100
0000
,
0110
0000
1001
0000
1000
0001
0100
0000
,
0010
0000
0000
1000
0000
0000
0010
0000
0000
0100
0000
0000
0001
0000
0000
0000
,
1000
0000
0000
0010
0000
0000
0001
0000
0000
0010
0000
0000
1000
0000
0000
0000
,
0010
0000
0000
0001
0000
0000
1000
0000
0000
0001
0000
0000
0100
0000
1000
0000
,
0001
0100
0010
0001
,
1000
0010
1000
0010
,
1000
0000
0001
0000
0100
0000
0010
0100
,
2002
0000
0000
0000
3003
0000
1000
0001
,
0010
0000
0001
0000
0100
1000
0001
0000
,
1001
0000
0100
0001
0010
0000
0100
0000
,
1001
0110
1001
0110
,
1000
0000
0001
0010
0100
0000
1000
0000
,
1001
0000
0010
0000
1000
0100
0001
0000
,
1001
0000
0100
0000
0010
0100
1000
0000
,
1001
0110
1001
0110
,
1000
0000
0001
0100
1000
0100
0001
0000
,
1001
0000
0000
0000
;

//---------------dance-single - ----------------
#NOTES:
     dance-single:
     :
     Hard:
     7:
     :
0000
0000
0000
0000
,
0000
0000
0000
0000
,
0000
0000
0000
0000
,
0000
0000
0000
0000
,
0000
0000
0000
0000
,
0010
0000
0000
1000
0000
0000
0200
0000
0000
0000
0000
0000
0300
0000
0000
0000
,
0001
0000
1000
0000
0100
0000
0001
0000
0000
0100
0000
0000
0010
0000
0000
0000
,
0001
0000
0000
1000
0000
0000
0200
0000
0000
0000
0000
0000
0300
0000
0000
0000
,
0100
0000
1000
0000
0001
0000
0100
0000
0000
0010
0000
0000
1000
0000
0000
0000
,
0010
0000
0000
1000
0000
0000
0002
0000
0000
0000
0000
0000
0003
0000
0000
0000
,
1000
0000
0001
0000
0100
0000
1000
0000
0000
0100
0000
0000
1000
0000
0000
0000
,
0001
0000
0000
0100
0000
0000
0020
0000
0000
0000
0000
0000
0030
0000
0000
0000
,
1000
0100
1000
0100
0000
0010
0001
0010
,
0002
0000
0000
0003
,
2000
0000
0000
0002
0000
0000
3003
0000
,
0010
0000
0000
0001
0000
0000
1000
0000
0000
0100
0000
0000
0000
0000
0000
0000
,
0020
0000
0000
2000
0000
0000
3030
0000
,
0010
0000
0000
0001
1000
0000
0001
0000
0000
0000
0100
0000
0010
0000
0000
0000
,
0010
1000
0000
1000
0100
0000
0100
1000
0000
1000
0001
0000
0001
0000
0000
0000
,
0100
0000
0000
1000
0001
0000
1000
0000
0000
0000
0100
0000
0100
0000
0000
0000
,
0100
0001
0000
0001
0010
0000
0010
0001
0000
0001
1000
0000
1000
0000
0000
0000
,
0001
0000
0000
0100
0010
0000
0100
0000
0000
0000
1000
0000
1000
0000
0000
0000
,
0010
0100
0000
0100
1000
0000
1000
0100
0000
0100
0001
0000
0001
0000
0000
0000
,
0001
0000
0000
0010
0100
0000
0010
0000
0000
0000
0001
0000
0001
0000
0000
0000
,
0100
0010
0000
0010
0001
0000
0001
0100
0000
0100
1000
0000
1000
0000
0000
0000
,
1000
0000
0100
0000
0001
0000
0100
0000
0000
0001
0000
0000
1000
0000
0000
0000
,
0010
0000
0000
0001
0000
0000
1000
0000
0000
0010
0000
0000
0100
0000
0000
0000
,
1000
0000
0100
0000
0001
0000
0100
0000
0000
1000
0000
0000
0001
0000
0000
0000
,
0100
0000
0000
1000
0000
0000
0001
0000
0000
0100
0000
0000
0010
0000
0000
0000
,
0010
0000
1000
0000
0100
0000
1000
0000
0000
0001
0000
0000
1000
0000
0000
0000
,
0001
0000
0000
1000
0000
0000
0010
0000
0000
0100
0000
0000
0010
0000
0000
0000
,
1000
0000
0001
0000
0100
0000
1000
0000
0000
0100
0000
0000
0010
0000
0000
0000
,
1000
0000
0000
0001
0000
0000
0010
0000
0000
0100
0000
0000
0100
0000
0000
0000
,
1000
0000
0000
0001
0000
0000
0100
0000
0000
0000
0000
0000
0000
0000
0000
0000
,
0020
0000
0000
0200
0000
0000
0330
0000
,
1000
0000
0000
0001
0000
0000
0100
0000
0000
0000
0000
0000
0000
0000
0000
0000
,
0002
0000
0000
2000
0000
0000
3003
0000
,
1000
0000
0000
0000
0001
0000
0000
0100
0000
0010
0000
1000
0001
0000
0100
0000
,
0010
0100
0000
0001
0000
0000
1000
0000
0000
0100
0000
1000
0100
0000
1000
0000
,
0010
0100
0000
0000
0001
0000
0000
0010
0000
1000
0000
0010
1000
0000
0001
0000
,
1000
0100
0000
0010
0000
0000
0001
0000
0000
0100
0000
0001
0100
0000
0000
0000
,
0010
0100
0000
0000
0100
0000
0000
1000
0000
0100
0000
1000
0100
0000
0100
0000
,
0001
0100
0000
0001
0000
0000
0010
0000
0000
0001
0000
1000
0001
0000
0100
0000
,
0010
0100
0000
0000
0001
0000
0000
1000
0000
0010
0000
1000
0100
0000
0001
0000
,
0001
0200
0000
0000
0000
0000
0000
0000
0000
0000
0000
0000
0300
0000
0000
0000
,
1000
0000
0100
0000
0001
0000
0100
0000
0000
0010
0000
0000
0100
0000
0000
0000
,
1000
0000
0000
0100
0000
0000
0001
0000
0000
0100
0000
0000
1000
0000
0000
0000
,
0010
0000
0001
0000
1000
0000
0100
0000
0000
0010
0000
0000
0001
0000
0000
0000
,
0010
0000
0000
0001
0000
0000
0100
0000
0000
1000
0000
0000
0100
0000
0000
0000
,
1000
0000
0010
0000
1000
0000
0100
0000
0000
0010
0000
0000
0001
0000
0000
0000
,
0100
0000
0000
0010
0000
0000
1000
0000
0000
0100
0000
0000
0001
0000
0000
0000
,
0010
0000
0100
0000
0010
0000
0100
0000
0000
1000
0000
0000
0100
0000
0000
0000
,
0010
0001
0000
0001
0010
0000
0010
0100
0000
0100
1000
0000
0001
1000
0001
1000
,
0002
0000
0000
0003
;

//---------------dance-double - ----------------
#NOTES:
     dance-double:
     :
     Beginner:
     2:
     :
00000000
00000000
00000000
00000000
,
00000000
00000000
00000000
00000000
,
00000000
00000000
00000000
00000000
,
00000000
00000000
00000000
00000000
,
00000000
00000000
00000000
00000000
,
01100000
00000000
10010000
00000000
,
01100000
00000000
10000000
00000000
,
00010000
00000000
00001000
00000000
,
00000110
00000000
00001000
00000000
,
00000110
00000000
00001001
00000000
,
00000110
00000000
00001000
00000000
,
00001000
00000000
00010000
00000000
,
01100000
00000000
10010000
00000000
,
10000000
00000000
00000000
00000000
,
00100000
00000000
00000000
00000000
,
01000000
00000000
00000000
00000000
,
00010000
00000000
00000000
00000000
,
00100000
00000000
01000000
00000000
,
01000000
00000000
00100000
00000000
,
00001000
00000000
00000001
00000000
,
00001000
00000000
00000001
00000000
,
00000100
00000000
00000010
00000000
,
00001000
00000000
00010000
00000000
,
00100000
00000000
00100000
00000000
,
00010000
00000000
00010000
00000000
,
00010000
00000000
00000000
00000000
,
00010000
00000000
00010000
00000000
,
00001000
00000000
00000000
00000000
,
00000010
00000000
00000001
00000000
,
00001001
00000000
00000000
00000010
,
00000000
00000100
00000000
00001000
,
00000000
00010000
00000000
01000000
,
00000000
00100000
00000000
01000000
,
00000000
00000000
01000000
00000000
,
00001000
00000000
00010000
00000000
,
00000100
00000000
00001000
00000000
,
00000001
00000000
00001000
00000000
,
00000001
00000000
00000100
00000000
,
00001000
00000000
00000100
00000000
,
00001000
00000000
00001000
00000000
,
00010000
00000000
10000000
00000000
,
10000000
00000000
01000000
00000000
,
00010000
00000000
01000000
00000000
,
00010000
00000000
00010000
00000000
,
00011000
00000000
00000000
00000000
,
00001000
00000000
00000001
00000000
,
00000110
00000000
00001001
00000000
,
00000100
00000000
00010000
00000000
,
01100000
00000000
10010000
00000000
,
00010000
00000000
10000000
00000000
,
00010000
00000000
00000100
00000000
,
00000110
00000000
00001000
00000000
,
00000110
00000000
00001001
00000000
,
00001001
00000000
00000000
00000000
;

//---------------dance-double - ----------------
#NOTES:
     dance-double:
     :
     Easy:
     4:
     :
00000000
00000000
00000000
00000000
,
00000000
00000000
00000000
00000000
,
00000000
00000000
00000000
00000000
,
00000000
00000000
00000000
00000000
,
00000000
00000000
00000000
00000000
,
01100000
10010000
10010000
01100000
,
01100000
10000000
10000000
01100000
,
00010000
00010000
00001000
00001000
,
00000110
00001000
00001000
00000110
,
00000110
00001001
00001001
00000110
,
00000110
00001000
00001000
00000110
,
00001000
00001000
00010000
00010000
,
01100000
10010000
10010000
01100000
,
20000000
00000000
00000000
30000000
,
00200000
00000000
00000000
00300000
,
02000000
00000000
00000000
03000000
,
00020000
00000000
00000000
00030000
,
00100000
10000000
01000000
00010000
,
01000000
10000000
00100000
00010000
,
00001000
00000010
00000001
00000100
,
00001000
00000100
00000001
00000010
,
00000100
00000100
00000010
00000100
,
00001000
00001000
00010000
00010000
,
00100000
01000000
00100000
00100000
,
00010000
10000000
00010000
10010000
,
00010000
11000000
00000000
01010000
,
00010000
00001000
00010000
00001000
,
00001000
00000101
00000000
00001100
,
00000010
00000100
00000001
00001000
,
00001001
00000100
00000000
00000010
,
00001001
00000100
00000000
00001000
,
00011000
00010000
00000000
01000000
,
10010000
00100000
00000000
01000000
,
00020000
00030000
02000000
03000000
,
00002000
00003000
00020000
00030000
,
00000200
00000300
00002000
00003000
,
00000001
00000001
00001000
00001000
,
00000001
00000010
00000100
00000000
,
00001000
00000010
00000100
00000000
,
00001000
00010000
00001000
00000000
,
00010000
00100000
10000000
00000000
,
10000000
00100000
01000000
00000000
,
00010000
00100000
01000000
00000000
,
00010000
00001000
00010000
00000000
,
00022000
00000000
00000000
00033000
,
00001000
00000100
00000001
00000100
,
00000110
00001001
00001001
00000110
,
00000100
00001000
00010000
00100000
,
01100000
10010000
10010000
01100000
,
00010000
01000000
10000000
01000000
,
00010000
00001000
00000100
00000001
,
00000110
00001000
00001000
00000110
,
00000110
00001001
00001001
00000110
,
00001001
00000000
00000000
00000000
;

//---------------dance-double - ----------------
#NOTES:
     dance-double:
     :
     Medium:
     5:
     :
00000000
00000000
00000000
00000000
,
00000000
00000000
00000000
00000000
,
00000000
00000000
00000000
00000000
,
00000000
00000000
00000000
00000000
,
00000000
00000000
00000000
00000000
,
00100000
00000000
00000000
10000000
00000000
00000000
01000000
00000000
00000000
00000000
00000000
00000000
00010000
00000000
00000000
00000000
,
00010000
01000000
10000000
01000000
,
00100000
00000000
00000000
00010000
00000000
00000000
01000000
00000000
00000000
00000000
00000000
00000000
10000000
00000000
00000000
00000000
,
01000000
00010000
00100000
00001000
,
00010000
00000000
00000000
00001000
00000000
00000000
00010000
00000000
00000000
00000000
00000000
00000000
00001000
00000000
00000000
00000000
,
00000010
00000001
00001000
00000100
,
00000010
00000000
00000000
00000001
00000000
00000000
00000100
00000000
00000000
00000000
00000000
00000000
00001000
00000000
00000000
00000000
,
00001000
00000100
00000001
00000100
,
00000002
00000010
00000010
00000013
,
00000020
00001000
00001000
00001030
,
00002000
00010000
00010000
00013000
,
00020000
01000000
01000000
01030000
,
00100000
00000000
01000000
00000000
00010000
01000000
10000000
00000000
,
00010000
10000000
00100000
01000000
,
00100000
00000000
01000000
00000000
10000000
01000000
00010000
00000000
,
01000000
00010000
00010000
00001000
,
00000010
00000000
00000100
00000000
00001000
00000100
00000001
00000000
,
00001000
00000001
00000010
00000100
,
00000010
00000000
00000100
00000000
00000001
00000100
00001000
00000000
,
00000100
00001000
00001000
00010000
,
01000000
00000000
10000000
00000000
00100000
10000000
01000000
00000000
,
00100000
00010000
10000000
01000000
,
00100000
00000000
00010000
00000000
00100000
00010000
01000000
00000000
,
01000000
00010000
00001000
00001000
,
00000100
00000000
00000001
00000000
00000010
00000001
00000100
00000000
,
00000010
00001000
00000001
00000100
,
00000010
00000000
00001000
00000000
00000010
00001000
00000100
00000000
,
00000100
00001000
00010000
00010000
,
02000000
00010000
00010000
03010000
,
00020000
00001000
00001000
00031000
,
00002000
00000010
00000010
00003010
,
00000020
00000001
00000001
00000031
,
00000001
00000100
00001000
00000010
,
00000001
00000100
00001000
00000010
,
00000001
00000010
00001000
00010000
,
00001000
00010000
01000000
10000000
,
10000000
00100000
00010000
01000000
,
10000000
00100000
00010000
01000000
,
10000000
01000000
00010000
00001000
,
00022000
00000000
00000000
00033000
,
00100000
00000000
01000000
00000000
00010000
01000000
10000000
00000000
,
00010000
10000000
00100000
01000000
,
00100000
00000000
01000000
00000000
10000000
01000000
00010000
00000000
,
01000000
00010000
00010000
00001000
,
00000010
00000000
00000100
00000000
00001000
00000100
00000001
00000000
,
00001000
00000001
00000010
00000100
,
00000010
00000000
00000100
00000000
00000001
00000100
00001000
00000000
,
00000100
00001000
00001000
00010000
,
00011000
00000000
00000000
00000000
;

//---------------dance-double - ----------------
#NOTES:
     dance-double:
     :
     Hard:
     7:
     :
00000000
00000000
00000000
00000000
,
00000000
00000000
00000000
00000000
,
00000000
00000000
00000000
00000000
,
00000000
00000000
00000000
00000000
,
00000000
00000000
00000000
00000000
,
00100000
00000000
00000000
01000000
00000000
00000000
10010000
00000000
00000000
00000000
00010000
00000000
10000000
00000000
00000000
00000000
,
00100000
00000000
00000000
00100000
10000000
00000000
01000000
00000000
00000000
00000000
01000000
00000000
10000000
00000000
00000000
00000000
,
10000000
00000000
00000000
00010000
00000000
00000000
01100000
00000000
00000000
00000000
01000000
00000000
00010000
00000000
00000000
00000000
,
00010000
00000000
00000000
00001000
00010000
00000000
00001000
00000000
00000000
00000000
00000100
00000000
00000001
00000000
00000000
00000000
,
00000010
00000000
00000000
00000100
00000000
00000000
00001001
00000000
00000000
00000000
00001000
00000000
00000001
00000000
00000000
00000000
,
00000010
00000000
00000000
00000010
00000001
00000000
00000100
00000000
00000000
00000000
00000100
00000000
00000001
00000000
00000000
00000000
,
00000001
00000000
00000000
00001000
00000000
00000000
00000110
00000000
00000000
00000000
00000100
00000000
00001000
00000000
00000000
00000000
,
00001000
00000000
00000000
00010000
00001000
00000000
00010000
00000000
00000000
00000000
01000000
00000000
10000000
00000000
00000000
00000000
,
10000000
00100000
00010000
01000000
,
01000000
00010000
00001000
00010000
,
00001000
00000010
00000001
00000100
,
00000100
00000001
00000100
00001000
,
00010000
00100000
01000000
00010000
00100000
00010000
01000000
10000000
,
00000000
00010000
00100000
01000000
00010000
00100000
01000000
00010000
,
00000000
00001000
00010000
00100000
10000000
00010000
00100000
10000000
,
00000000
00100000
01000000
00010000
00001000
00000100
00000010
00000001
,
00001000
00000100
00000010
00001000
00000100
00001000
00000010
00000001
,
00000000
00001000
00000100
00000010
00001000
00000100
00000010
00001000
,
00000000
00010000
00001000
00000100
00000001
00001000
00000100
00000001
,
00000000
00000100
00000010
00001000
00010000
00100000
01000000
10000000
,
10010000
10000000
10010000
00010000
,
00100000
10100000
01000000
01010000
,
01000000
00010000
00001000
00011000
,
00010000
00001000
00000100
00000101
,
00001001
00000001
00001001
00001000
,
00000010
00000011
00000100
00001100
,
00000100
00001000
00010000
00011000
,
00001000
00010000
01000000
11000000
,
00010000
00000000
00000000
10000000
00000000
00000000
01000000
00000000
00010000
00000000
00000000
00000000
01000000
00000000
00000000
00000000
,
00010000
00001000
00000100
00000010
,
00001000
00000000
00000000
00000001
00000000
00000000
00000100
00000000
00001000
00000000
00000000
00000000
00000100
00000000
00000000
00000000
,
00001000
00010000
01000000
00100000
,
10000000
00000000
00000000
00000000
00010000
00000000
00000000
01000000
00000000
10000000
00000000
10000000
00010000
00000000
01000000
00000000
,
01000000
00100000
00000000
10000000
00000000
00000000
01000000
00000000
00000000
00010000
00000000
00010000
00001000
00000000
00000100
00000000
,
00000100
00000001
00000000
00000000
00000010
00000000
00000000
00000001
00000000
00001000
00000000
00001000
00000001
00000000
00000010
00000000
,
00000010
00001000
00000000
00010000
00000000
00000000
00100000
00000000
00000000
10000000
00000000
10000000
01000000
00000000
00010000
00000000
,
00010000
01000000
00000000
00000000
10000000
00000000
00000000
00010000
00000000
10000000
00000000
10000000
01000000
00000000
00010000
00000000
,
00010000
00001000
00000000
00010000
00000000
00000000
00001000
00000000
00000000
00000100
00000000
00000100
00000001
00000000
00000100
00000000
,
00000100
00001000
00000000
00000000
00010000
00000000
00000000
00100000
00000000
10000000
00000000
10000000
01000000
00000000
00010000
00000000
,
00010000
02000000
00000000
00000000
00000000
00000000
00000000
00000000
00000000
00000000
00000000
00000000
03000000
00000000
00000000
00000000
,
00100000
10000000
01000000
00010000
00001000
00010000
00100000
00000000
,
00100000
00010000
00001000
00010000
00001000
00000100
00000001
00000000
,
00001000
00000100
00000010
00001000
00000010
00000100
00000010
00000000
,
00000001
00000100
00000010
00000001
00000010
00001000
00000100
00000000
,
00000010
00000001
00000100
00001000
00010000
00001000
00000010
00000000
,
00000010
00001000
00010000
00001000
00010000
01000000
10000000
00000000
,
00010000
01000000
00100000
00010000
00100000
01000000
00100000
00000000
,
10000000
01000000
00100000
10000000
00100000
00010000
01000000
00000000
,
22000000
00000000
00000000
33000000
;
