#TITLE:Burn For You;
#ARTIST:Kreo;
#BANNER:Burn For You.png;
#BACKGROUND:Burn For You-bg.png;
#CDTITLE:./CDTITLES/DANCE DANCE REVOLUTION ULTRAMIX 2.PNG;
#MUSIC:Burn For You.ogg;
#SAMPLESTART:3.83;
#SAMPLELENGTH:15;
#DISPLAYBPM:127;
#BPMS:0=127;

//---------------dance-single - ----------------
#NOTES:
     dance-single:
     :
     Beginner:
     1:
     :
0000
0000
0000
0000
,
0000
0000
0000
0000
,
0000
0000
0000
0000
,
0000
0000
0000
0000
,
0000
0000
0000
0000
,
0000
0000
0000
0000
,
0000
0001
0000
0001
,
0000
1000
0000
1000
,
0000
0010
0000
0010
,
0000
0010
0000
0100
,
0000
0000
1000
0000
,
1000
0000
0001
0000
,
0001
0000
0001
0000
,
0010
0000
0010
0000
,
0010
0000
0010
0000
,
0100
0000
0100
0000
,
0110
0000
0000
0000
,
0000
0000
0000
0000
,
0001
0000
0001
0000
,
1000
0000
1000
0000
,
0010
0000
0010
0000
,
0010
0000
0010
0000
,
1000
0000
0100
0000
,
0010
0000
0001
0000
,
0100
0000
0010
0000
,
1000
0000
0100
0000
,
1000
0000
1000
0000
,
0010
0000
0010
0000
,
1000
0000
1000
0000
,
0001
0000
0001
0000
,
0100
0000
0100
0000
,
0001
0000
0001
0000
,
0010
0000
0000
0000
,
1000
0000
0100
0000
,
0001
0000
0001
0000
,
1000
0000
1000
0000
,
1000
0000
1000
0000
,
0001
0000
0001
0000
,
0010
0000
0010
0000
,
0010
0000
0010
0000
,
0100
0000
0100
0000
,
0001
0000
0000
0000
,
1000
0000
0001
0000
,
0100
0000
0010
0000
,
1000
0000
0001
0000
,
0100
0000
0010
0000
,
0100
0000
0001
0000
,
1000
0000
0010
0000
,
0100
0000
0001
0000
,
1000
0000
0010
0000
,
1000
0000
1000
0000
,
0001
0000
0001
0000
,
0100
0000
0100
0000
,
0010
0000
0010
0000
,
1000
0000
1000
0000
,
0010
0000
0010
0000
,
1000
0000
1000
0000
,
0001
0000
0001
0000
,
1001
0000
0000
0000
;

//---------------dance-single - ----------------
#NOTES:
     dance-single:
     :
     Easy:
     3:
     :
0000
0000
0000
0000
,
0000
0000
0000
0000
,
0000
0000
0000
0000
,
0000
0000
0000
0000
,
0000
0000
0000
0000
,
0000
0000
0000
0000
,
0000
0001
0000
0001
,
0000
1000
0000
1000
,
0000
0010
0000
0010
,
0000
0010
0000
0100
,
0001
0000
1000
0000
,
1000
0000
0001
0000
,
0001
0100
0001
0100
,
0010
1000
0010
1000
,
0010
0000
0010
0000
,
0100
0000
0100
0000
,
0220
0000
0000
0000
,
0000
0000
0000
0330
,
0001
0001
0001
1000
,
1000
1000
1000
0001
,
0010
0010
0010
0100
,
0010
0010
0010
0100
,
1000
0100
0100
0100
,
0010
0001
0001
0001
,
0100
0010
0010
0010
,
1000
0100
0100
0100
,
1000
0000
1000
0000
,
0010
0000
0010
0000
,
1000
0000
1000
0000
,
0001
0000
0001
0000
,
0100
0000
0100
0000
,
0001
0000
0001
0000
,
0020
0000
0000
0030
,
1000
0010
0100
0001
,
0001
0000
0001
0000
,
1000
0000
1000
0000
,
1000
0000
1000
0000
,
0001
0000
0001
0000
,
0010
0000
0010
0000
,
0010
0000
0010
0000
,
0100
0000
0100
0000
,
0002
0000
0000
0003
,
1000
0000
0001
0000
,
0100
0000
0010
0000
,
1000
0000
0001
0000
,
0100
0000
0010
0000
,
0100
0000
0001
0000
,
1000
0000
0010
0000
,
0100
0000
0001
0000
,
1000
0000
0010
0000
,
1000
0000
1000
0000
,
0001
0000
0001
0000
,
0100
0000
0100
0000
,
0010
0000
0010
0000
,
1000
0000
1000
0000
,
0010
0000
0010
0000
,
1000
0000
1000
0000
,
0001
0000
0001
0000
,
2002
0000
0000
3003
;

//---------------dance-single - ----------------
#NOTES:
     dance-single:
     :
     Medium:
     4:
     :
0000
0000
0000
0000
,
0000
0000
0000
0000
,
0000
0000
0000
0000
,
0000
0000
0000
0000
,
0000
0000
0000
0000
,
0000
0000
0000
0000
,
0002
0000
0000
0000
0003
1000
0010
1000
,
0001
0200
0000
0000
0300
0010
1000
0001
,
0000
0002
0000
0000
0003
1000
0010
1000
,
0001
1001
1001
0101
,
0001
1000
0010
1000
,
0001
0100
0001
0010
,
0002
0000
0000
0003
,
2000
0000
0000
3000
,
0010
1000
0001
1000
,
0100
1000
0010
0100
,
0020
0000
2000
0030
,
0002
3000
0000
0003
,
1000
0010
0100
0001
,
1000
0001
1000
0001
,
0100
0010
1000
0001
,
0100
0001
1000
0010
,
0100
0001
0100
0001
,
1000
0001
0100
0010
,
0100
0010
0100
0001
,
1000
1000
0001
1000
,
1000
0010
0100
0001
,
1000
0001
0010
0001
,
2000
0000
0000
3000
,
0020
0000
0000
0030
,
0100
0100
0001
1000
,
0100
1000
0010
0100
,
0001
0000
1000
0000
,
1001
1001
1001
0110
,
0001
1000
0100
1000
,
0010
0100
0001
0100
,
0001
1000
0010
1000
,
0001
0100
0001
1000
,
0010
0100
0001
1000
,
0001
1000
1000
0001
,
1000
0010
0010
0100
,
0001
0010
0100
1000
,
0020
0030
0100
0100
,
0002
0003
1000
1000
,
0020
0030
1000
1000
,
0200
0300
0010
0010
,
0002
0003
1000
0100
,
2000
3000
0010
0100
,
0002
0003
1000
1000
,
0000
0010
0000
0010
0000
0010
0000
0000
,
0200
0000
0000
0000
0300
0010
0100
0010
,
0001
0200
0000
0000
0300
0010
0100
0001
,
0000
2000
0000
0000
3000
0010
1000
0100
,
0020
0000
0000
0000
0030
0001
0010
0001
,
1000
0200
0000
0000
0300
1000
0010
0100
,
0000
0002
0000
0000
0003
1000
0010
1000
,
0002
0000
0000
0000
0003
1000
0010
1000
,
0001
1000
0010
0220
,
0000
0000
0000
0330
;

//---------------dance-single - ----------------
#NOTES:
     dance-single:
     :
     Hard:
     5:
     :
0000
0000
0000
0000
,
0000
0000
0000
0000
,
0000
0000
0000
0000
,
0000
0000
0000
0000
,
0000
0000
0000
0000
,
0000
0000
0000
0000
,
0000
1001
0000
0100
0001
1000
0100
1000
,
0010
0100
0000
0001
1000
0100
0010
1000
,
0000
0101
0000
1000
0001
1000
0010
0100
,
0001
1000
0000
0100
0010
0001
0010
0100
,
1000
0001
0000
0100
0000
0010
0000
0100
,
0000
0110
0000
0001
0000
1000
0000
0100
,
1000
0100
0001
0000
1000
0100
0001
0000
,
0001
0100
1000
0000
0001
0100
1000
0000
,
0001
1000
0000
0010
0000
0100
0000
0001
,
0000
0101
0000
1000
0000
0100
0000
0010
,
0001
0100
0001
0000
1000
0010
1000
0000
,
1000
0010
0100
0001
0010
0100
1000
0000
,
0000
1001
0000
0100
0010
0100
0001
1000
,
0010
0100
0000
1000
0001
1000
0010
0100
,
0000
0110
0000
0010
1000
0001
1000
0001
,
0100
0010
0000
0100
0001
1000
0001
1000
,
0000
1100
0000
0010
0100
0001
0010
0001
,
1000
0010
0000
0100
0001
1000
0100
0010
,
0000
0011
0000
0100
0010
1000
0100
1000
,
0001
0010
0000
0010
0001
1000
0010
0100
,
0001
0100
0000
1000
0000
0010
0000
1000
,
0000
1001
0000
0100
0000
0010
0000
1000
,
0001
1000
0100
0000
1000
0100
0010
0000
,
0001
0100
0010
0000
1000
0001
0100
0000
,
0010
0100
0000
0001
0000
1000
0000
0100
,
0000
0110
0000
0100
0000
1000
0000
0001
,
0100
0010
0100
0000
1000
0010
0100
0000
,
0101
1100
0101
1100
,
0010
1000
0001
0000
1001
0000
1001
0000
,
0010
1000
0001
0000
0101
0000
0110
0000
,
1000
0100
1000
0000
0001
0100
0001
0000
,
0010
1000
1000
0000
0001
0000
0100
0000
,
0010
0100
0001
0000
0100
0000
1000
0100
,
0000
0010
0000
0010
0000
0100
0000
0100
,
1000
0001
0100
0000
0001
0000
1000
0000
,
0001
0001
1000
0101
,
0000
0010
0000
0100
0000
0010
0010
1000
,
0000
0001
0000
1000
0000
0001
0001
0100
,
0000
0010
0000
1000
0000
0100
0100
0010
,
0000
0001
0000
1000
0000
0001
0001
1000
,
0000
0010
1000
1000
0000
1001
0000
0000
,
0000
0100
0100
1000
0000
0101
0000
0000
,
0000
0010
0010
0001
0000
1100
0000
0000
,
0000
0110
0000
1100
0000
0101
0000
0000
,
0000
1001
0000
0001
0010
0001
1000
0001
,
0100
0010
0000
1000
0001
0010
0001
0100
,
0000
0011
0000
1000
0010
0100
0001
1000
,
0001
0100
0000
0010
1000
1000
0001
0100
,
0000
0110
0000
1000
0001
0001
1000
1000
,
0001
1000
0000
0001
0010
0100
1000
0010
,
0000
0101
0000
1000
1000
0010
0100
0001
,
0000
0000
0000
0010
1000
0001
0100
0020
,
0000
0000
0000
0030
;

//---------------dance-double - ----------------
#NOTES:
     dance-double:
     :
     Beginner:
     1:
     :
00000000
00000000
00000000
00000000
,
00000000
00000000
00000000
00000000
,
00000000
00000000
00000000
00000000
,
00000000
00000000
00000000
00000000
,
00000000
00000000
00000000
00000000
,
00000000
00000000
00000000
00000000
,
10000000
00000000
01000000
00000000
,
00010000
00000000
00001000
00000000
,
00010000
00000000
00001000
00000000
,
00000100
00000000
00000001
00000000
,
00000001
00000000
00001001
00000000
,
00000010
00000000
00000110
00000000
,
00001000
00000000
00001001
00000000
,
00001000
00000000
00011000
00000000
,
00010000
00000000
00011000
00000000
,
00100000
00000000
01100000
00000000
,
00010000
00000000
10010000
00000000
,
10000000
00000000
10010000
00000000
,
00010000
00000000
00010000
00000000
,
10000000
00000000
10000000
00000000
,
01000000
00000000
00010000
00000000
,
00001000
00000000
00000100
00000000
,
00001000
00000000
00001000
00000000
,
00000001
00000000
00000001
00000000
,
00000100
00000000
00001000
00000000
,
00010000
00000000
01000000
00000000
,
10000000
00000000
00010000
00000000
,
00100000
00000000
01000000
00000000
,
00010000
00000000
00001000
00000000
,
00000100
00000000
00000010
00000000
,
00000001
00000000
00001000
00000000
,
00000100
00000000
00001000
00000000
,
00010000
00000000
01000000
00000000
,
10000000
00000000
10000000
00000000
,
10000000
00000000
00010000
00000000
,
00100000
00000000
00100000
00000000
,
00010000
00000000
00001000
00000000
,
00000100
00000000
00000100
00000000
,
00000001
00000000
00001000
00000000
,
00000010
00000000
00000010
00000000
,
00001000
00000000
00010000
00000000
,
01000000
00000000
01000000
00000000
,
10000000
00000000
00010000
00000000
,
10000000
00000000
00010000
00000000
,
00000100
00000000
00000010
00000000
,
00000001
00000000
00001000
00000000
,
00000001
00000000
00001000
00000000
,
00000001
00000000
00001000
00000000
,
01000000
00000000
00100000
00000000
,
10000000
00000000
00010000
00000000
,
01000000
00000000
00100000
00000000
,
00010000
00000000
00001000
00000000
,
00001000
00000000
00000100
00000000
,
00000100
00000000
00000010
00000000
,
00000001
00000000
00001000
00000000
,
00000100
00000000
00010000
00000000
,
00001000
00000000
00010000
00000000
,
00011000
00000000
00000000
00000000
;

//---------------dance-double - ----------------
#NOTES:
     dance-double:
     :
     Easy:
     3:
     :
00000000
00000000
00000000
00000000
,
00000000
00000000
00000000
00000000
,
00000000
00000000
00000000
00000000
,
00000000
00000000
00000000
00000000
,
00000000
00000000
00000000
00000000
,
00000000
00000000
00000000
00000000
,
10000000
00000000
01000000
00000000
,
00010000
00000000
00001000
00000000
,
00010000
00000000
00001000
00000000
,
00000100
00000000
00000001
00000000
,
00000001
00000000
00001001
00000000
,
00000010
00000000
00000110
00000000
,
00001000
00000000
00001001
00000000
,
00001000
00000000
00011000
00000000
,
00010000
00000000
00011000
00000000
,
00100000
00000000
01100000
00000000
,
00010000
00000000
10010000
00000000
,
10000000
00000000
10010000
00000000
,
00020000
10030000
00010000
00010000
,
20000000
30010000
10000000
10000000
,
01000000
00000000
00010000
00000000
,
00001000
00000000
00000100
00000000
,
00002000
00003001
00001000
00001000
,
00000002
00001003
00000001
00000001
,
00000100
00000000
00001000
00000000
,
00010000
00000000
01000000
00000000
,
20000000
30000000
00020000
00030000
,
00200000
00300000
02000000
03000000
,
00020000
00030000
00002000
00003000
,
00000200
00000300
00000020
00000030
,
00000002
00000003
00002000
00003000
,
00000200
00000300
00002000
00003000
,
00020000
00030000
02000000
03000000
,
20000000
30020000
20030000
30020000
,
10030000
10000000
00010000
00000000
,
00100000
01000000
00100000
01000000
,
00010000
00010000
00001000
00000000
,
00000100
00000010
00000100
00000010
,
00000001
00000001
00001000
00000000
,
00000010
00000100
00000010
00000100
,
00001000
00001000
00010000
00000000
,
01000000
00100000
01000000
00100000
,
20000000
31000000
00020000
01030000
,
20000000
30100000
00020000
00031000
,
00000200
00000301
00000020
00000031
,
00000002
00001003
00002000
00003001
,
00000002
00000103
00002000
00003100
,
00000002
00000013
00002000
00013000
,
02000000
13000000
00200000
10300000
,
20000000
30010000
00020000
10030000
,
01000000
00000000
00100000
00000000
,
00010000
00000000
00001000
00000000
,
00001000
00000000
00000100
00000000
,
00000100
00000000
00000010
00000000
,
00000001
00000000
00001000
00000000
,
00000100
00000000
00010000
00000000
,
00001000
00000000
00010000
00000000
,
00022000
00000000
00000000
00000000
,
00000000
00000000
00000000
00033000
;

//---------------dance-double - ----------------
#NOTES:
     dance-double:
     :
     Medium:
     5:
     :
00000000
00000000
00000000
00000000
,
00000000
00000000
00000000
00000000
,
00000000
00000000
00000000
00000000
,
00000000
00000000
00000000
00000000
,
00000000
00000000
00000000
00000000
,
00000000
00000000
00000000
00000000
,
00000000
10000000
00000000
00010000
00000000
10000000
00000000
00010000
,
01000000
00010000
00000000
00100000
00000000
01000000
10000000
01000000
,
00000000
00100000
00000000
00001000
00000000
00010000
00000000
00000100
,
00001000
00000100
00000000
00001000
00000000
00000001
00000000
00001000
,
00000100
00000100
00000000
00000010
00000000
00000100
00000000
00001000
,
00000000
00000001
00000000
00001000
00000000
00000001
00000000
00000020
,
00000000
00000000
00000000
00000030
,
00002000
00003000
00020000
00030000
,
01000000
01000000
00000000
00100000
00000000
01000000
00000000
10000000
,
00000000
00010000
00000000
10000000
00000000
00010000
00000000
00200000
,
00000000
00000000
00000000
02000000
00000000
03300000
00000000
20020000
,
00000000
00000000
00000000
30030000
,
00000000
10000000
00000000
00010000
00000000
10000000
00000000
00010000
,
01000000
00010000
00000000
00100000
00000000
01000000
10000000
01000000
,
00000000
00100000
00000000
00001000
00000000
00010000
00000000
00000100
,
00001000
00000100
00000000
00001000
00000000
00000001
00000000
00001000
,
00000000
00000001
00000000
00001000
00000000
00000001
00000000
00001000
,
00000010
00001000
00000000
00000100
00000000
00000010
00000001
00000010
,
00000000
00000100
00000000
00010000
00000000
00001000
00000000
00100000
,
00010000
00100000
00000000
00010000
00000000
10000000
00000000
00010000
,
01000000
01000000
00000000
00100000
00000000
01000000
00000000
10000000
,
00000000
00010000
00000000
10000000
00000000
00010000
00000000
00200000
,
00000000
01000000
00000000
01000000
,
00000000
01000000
00000000
01300000
,
00100000
00100000
00000000
01000000
00000000
00100000
00000000
00010000
,
00000000
10000000
00000000
00010000
00000000
10000000
00000000
02000000
,
00000000
00000000
00000000
00200000
00000000
03300000
00000000
00001000
,
00010000
00001000
00000010
00000010
,
00000100
00000100
00000000
00000010
00000000
00000100
00000000
00001000
,
00000000
00000001
00000000
00001000
00000000
00000001
00000000
00000020
,
00000000
00000000
00000000
00000030
,
00002000
00003000
00020000
00030000
,
01000000
01000000
00000000
00100000
00000000
01000000
00000000
10000000
,
00000000
00010000
00000000
10000000
00000000
00010000
00000000
00200000
,
00000000
00000000
00000000
02000000
00000000
03300000
00000000
20020000
,
00000000
30030000
00000000
00100000
01000000
10000000
00100000
01000000
,
00000000
00100000
00000000
00100000
00000000
10000000
00010000
10000000
,
00000000
01000000
00000000
01000000
00000000
00010000
00001000
00010000
,
00000000
00000010
00000000
00000010
00000000
00001000
00000001
00001000
,
00000000
00000100
00000000
00000100
00000000
00000010
00000001
00000010
,
00000000
00000001
00000000
00000002
00000000
00000100
00000100
00000103
,
00000000
00000010
00000000
00000020
00000000
00010000
00010000
00010030
,
00000000
00001000
00000000
00002000
00000000
00100000
00100000
00103000
,
00000000
01000000
00000000
01000000
00000000
01000000
00000000
01000000
,
00000000
11000000
00000000
01010000
00000000
10000000
00010000
10000000
,
00000000
00110000
00000000
10100000
00000000
00010000
10000000
00010000
,
00000000
01010000
00000000
00011000
00000000
00001000
00010000
00001000
,
00000000
00010100
00000000
00011000
00000000
00010000
00001000
00010000
,
00000000
00001000
00000100
00000002
00000000
00001000
00001000
00001003
,
00000000
00000010
00001000
00000200
00000000
00000010
00000010
00000310
,
00000000
00000100
00000010
00000002
00000000
00001000
00001000
00001003
,
00000000
00000000
00000000
00000010
00000100
00000010
00001000
00000002
,
00000000
00000000
00000000
00000003
;

//---------------dance-double - ----------------
#NOTES:
     dance-double:
     :
     Hard:
     6:
     :
00000000
00000000
00000000
00000000
,
00000000
00000000
00000000
00000000
,
00000000
00000000
00000000
00000000
,
00000000
00000000
00000000
00000000
,
00000000
00000000
00000000
00000000
,
00000000
00000000
00000000
00000000
,
00000000
00010000
00000000
10000000
00100000
10000000
00010000
01000000
,
00010000
10000000
00000000
00010000
00100000
00010000
01000000
00001000
,
00000000
00010000
00000000
00000100
00001000
00000100
00000010
00000001
,
00000010
00000100
00000000
00001000
00000100
00001000
00000001
00000010
,
00000100
00000100
00000000
00001001
00000000
00000100
00000000
00001000
,
00000000
00001000
00000000
00000001
00000000
00000001
00000000
00000010
,
00000001
00001000
00000001
00000000
00001000
00000001
00002000
00000000
,
00000000
00000001
00000000
00003001
,
00001000
00001000
00000000
00011000
00000000
01000000
00000000
00100000
,
00000000
00100000
00000000
10000000
00000000
00010000
00000000
00200000
,
00000000
00000000
00000000
02000000
00000000
03300000
00000000
20020000
,
00000000
00000000
00000000
30030000
,
00000000
01000000
00000000
00100000
00010000
00100000
01000000
10000000
,
01000000
00010000
00000000
00001000
00010000
00001000
00010000
00001000
,
00000000
00000100
00000000
00000001
00000010
00000001
00001000
00000100
,
00001000
00000001
00000000
00001000
00000010
00001000
00000001
00000100
,
00000000
00000010
00000000
00010000
00001000
00010000
01000000
10000000
,
01000000
10000000
00000000
00100000
01000000
00100000
01000000
00100000
,
00000000
10000000
00000000
01000000
00100000
01000000
10000000
00010000
,
01000000
00010000
00000000
01000000
00001000
00010000
00001000
00010000
,
00000100
00000100
00000000
00001001
00000000
00000100
00000000
00001000
,
00000000
00001000
00000000
00000001
00000000
00000001
00000000
00000200
,
00000000
00000010
00000000
00000010
,
00000000
00000010
00000000
00000310
,
00010000
00010000
00000000
00011000
00000000
01000000
00000000
00100000
,
00000000
00100000
00000000
10000000
00000000
00010000
00000000
02000000
,
00000000
00000000
00000000
00200000
00000000
00000000
03300000
10000000
,
01000000
01000000
01000000
01000000
,
00100000
00100000
00000000
10010000
00000000
01000000
00000000
00010000
,
00000000
00010000
00000000
10000000
00000000
10000000
00000000
00010000
,
10000000
00010000
10000000
00000000
00010000
10000000
00020000
00000000
,
10000000
10000000
10000000
10030000
,
00010000
00010000
00000000
00011000
00000000
00000100
00000000
00000010
,
00000000
00000010
00000000
00000001
00000000
00001000
00000000
00000020
,
00000000
00000000
00000000
00000200
00000000
00000000
00000330
00002002
,
00000000
00000000
00003003
00000001
00000100
00000001
00001000
00000010
,
00000000
00001001
00000000
00001001
00000000
00000100
00000010
00000100
,
00000000
00001010
00000000
00001010
00000000
00000001
00000100
00000001
,
00000000
00000110
00000000
00000110
00000000
00001000
00000010
00001000
,
00000000
00010100
00000000
00010000
00000100
00010000
00001000
00010000
,
00000000
01000000
10000000
02000000
00000000
00100000
00100000
03100000
,
00000000
00010000
01000000
00020000
00000000
10000000
10000000
10030000
,
00000000
01000000
00100000
02000000
00000000
10000000
10000000
13000000
,
00000000
00100000
00000000
10000000
01000000
00100000
01000000
10000000
,
00000000
00010000
00000000
01000000
00001000
01000000
00001000
00010000
,
00000100
00010000
00000000
00000010
00001000
00000010
00000100
00000001
,
00000000
00001000
00000000
00000001
00000100
00000001
00000010
00000001
,
00000010
00000100
00000000
00010000
00001000
00010000
00001000
00010000
,
00000000
00000100
00000000
00000010
00000001
00000010
00000100
00001000
,
00000100
00010000
00000000
00001000
00010000
00001000
00010000
01000000
,
00000000
10000000
00000000
00100000
01000000
00010000
10000000
00010000
,
10010000
00000000
00000000
10000000
01000000
00100000
00010000
02000000
,
00000000
00000000
00000000
03000000
;
