#TITLE:Brick House;
#ARTIST:Commodores;
#BANNER:Brick House.png;
#BACKGROUND:Brick House-bg.png;
#CDTITLE:./CDTITLES/DANCE DANCE REVOLUTION ULTRAMIX 2.PNG;
#MUSIC:Brick House.ogg;
#SAMPLESTART:19.97;
#SAMPLELENGTH:15;
#DISPLAYBPM:108;
#BPMS:0=97,4=106.13,25=106.29,28=105.14,33=109.75,36=105.14,41=106.29,44=106.13,49=110.65,52=105.88,56=107.78,60=108.43,64=107.14,68=107.78,72=108.43,76=107.78,80=109.75,84=106.13,89=108.87,92=107.14,97=109.75,100=108.17,105=108.87,108=107.78,112=110.42,116=106.63,121=109.75,124=107.14,128=108.43,132=107.14,136=108.43,140=109.75,144=111.11,148=107.65,153=108.87,156=107.65,161=112.5,164=107.14,169=108,172=106.63,177=112.5,180=106.63,185=107.14,188=106.13,193=110.65;

//---------------dance-single - ----------------
#NOTES:
     dance-single:
     :
     Beginner:
     1:
     :
0000
0000
0000
0000
,
0000
0000
0000
0000
,
0000
0000
0000
0000
,
0000
0000
0000
0000
,
0000
0000
0000
0000
,
1000
0000
1000
0000
,
0001
0000
0001
0000
,
0010
0000
0010
0000
,
0100
0000
0100
0000
,
0110
0000
1000
0000
,
0001
0000
1000
0000
,
0010
0000
0001
0000
,
0100
0000
0001
0000
,
0100
0000
1000
0000
,
0010
0000
0100
0000
,
0001
0000
1000
0000
,
0100
0000
0010
0000
,
0001
0000
0010
0000
,
1000
0000
0010
0000
,
0100
0000
0001
0000
,
0000
0010
0000
0000
,
1001
0000
0001
0000
,
0100
0000
0010
0000
,
1000
0000
0100
0000
,
0010
0000
1000
0000
,
0110
0000
0010
0000
,
0001
0000
0100
0000
,
0110
0000
0110
0000
,
1000
0000
1000
0000
,
0110
0000
0001
0000
,
0100
0000
0010
0000
,
1000
0000
0100
0000
,
0010
0000
0001
0000
,
0010
0000
1000
0000
,
0001
0000
1000
0000
,
0100
0000
1000
0000
,
0010
0000
1000
0000
,
0110
0000
0000
0010
,
0000
0100
0000
0010
,
0000
0001
0000
0100
,
0000
0010
0000
0001
,
0000
0000
1000
0000
,
0100
0000
0001
0000
,
1000
0000
0010
0000
,
1000
0000
1000
0000
,
1001
0000
0110
0000
,
1001
0000
0000
0000
;

//---------------dance-single - ----------------
#NOTES:
     dance-single:
     :
     Easy:
     2:
     :
0000
0000
0000
0000
,
0000
0000
0000
0000
,
0000
0000
0000
0000
,
0000
0000
0000
0000
,
0000
0000
0000
0000
,
1000
0001
1000
0000
,
0001
1000
0001
0000
,
0010
0100
0010
0000
,
0100
0010
0100
0000
,
0110
0000
1000
0000
,
0001
0000
1000
0000
,
0010
0000
0001
0000
,
0100
0000
0001
0000
,
0100
0000
1000
0000
,
0010
0000
0100
0000
,
0001
0000
1000
0000
,
0100
0000
0010
0000
,
0001
0000
0010
0000
,
1000
0000
0010
0000
,
0100
0000
0001
0000
,
0000
0010
0000
0000
,
1001
0000
0001
0000
,
0100
0000
0010
0000
,
1000
0000
0100
0000
,
0010
0000
1000
0000
,
1100
0000
0010
0000
,
0001
0000
0100
0000
,
0110
0000
0110
0000
,
1000
1000
1000
0000
,
0101
0000
0001
0000
,
0100
0000
0010
0000
,
1000
0000
0100
0000
,
0010
0000
0001
0000
,
0010
0100
1000
0100
,
0001
0100
1000
0010
,
0100
0010
1000
0100
,
0010
0001
1000
0001
,
0101
0110
0000
0010
,
0000
0100
0000
0010
,
1000
0001
1000
0100
,
1000
0010
0100
0001
,
0011
0000
1000
0000
,
0100
0000
0001
0000
,
1000
0000
0010
0000
,
1000
0000
1000
0001
,
1001
0000
0110
0000
,
2002
0000
3003
0000
;

//---------------dance-single - ----------------
#NOTES:
     dance-single:
     :
     Medium:
     4:
     :
0000
0000
0000
0000
,
0000
0000
0000
0000
,
0000
0000
0000
0000
,
0000
0000
0000
0000
,
0000
0000
0000
0000
,
0001
0000
1000
0001
1000
0000
0100
0020
,
0000
0000
0000
0031
,
0000
0100
0010
0000
0000
0010
1000
0000
,
0000
0000
0110
0000
0000
0110
0000
0000
0110
0000
0000
0000
1001
0000
0000
0000
,
0100
0000
0001
1000
0100
0000
1000
0200
,
0000
0000
0000
0300
,
0010
0001
1000
0001
,
0100
0010
1000
0100
1000
0010
0100
0000
,
0002
1000
1000
0103
,
0020
0000
0030
1000
0100
0000
0100
0000
,
1000
1000
0001
0001
,
2000
0000
3000
0010
0100
0000
0010
0000
,
1000
0001
0010
0000
0200
0000
0300
0000
,
1000
0010
0100
0000
0000
0000
0020
0000
,
1030
0020
0130
0110
,
1000
0100
0010
0001
,
0101
0000
1000
0010
0100
0000
0001
0200
,
0000
0000
0000
0300
,
0010
1000
0100
1000
,
0001
0100
0010
0100
0001
0010
0100
0000
,
1100
0000
0010
1000
0100
0000
1000
0002
,
0000
0000
0000
0003
,
0010
0001
0100
0010
,
1000
0010
0100
0001
1000
0010
0100
0000
,
0001
0100
1000
0000
0001
0100
0020
0000
,
0000
1000
0100
1030
,
1000
0010
0100
0000
0001
1000
0020
0000
,
0000
1000
1000
0130
,
0010
0100
0001
1000
,
0010
0001
0100
1000
,
0010
0100
0001
0100
,
0010
2001
0001
0001
,
3100
0000
0210
0000
0000
0000
0000
0001
,
0300
0000
0001
1000
,
0010
1000
0001
0000
0100
0010
0100
0000
,
0001
0000
0100
0000
0010
0000
1000
1000
,
0002
0000
0000
0103
,
0010
1000
0010
0000
0100
0001
0100
0000
,
0001
0100
1000
0100
,
0001
1000
0001
0010
,
2002
0000
0000
0000
,
0000
0000
0000
3003
;

//---------------dance-single - ----------------
#NOTES:
     dance-single:
     :
     Hard:
     6:
     :
0000
0000
0000
0000
,
0000
0000
0000
0000
,
0000
0000
0000
0000
,
0000
0000
0000
0000
,
0000
0000
0000
0000
,
1000
0000
0001
1000
0001
0000
0100
0002
,
0000
0000
0000
1003
,
0000
0000
0010
1000
0010
1000
0000
0000
0000
0000
0001
0100
0001
0100
0000
0000
,
0000
0000
0010
0000
0000
1000
0000
0000
0001
0000
0000
0000
0100
0010
0000
0000
,
0110
0000
0000
0000
0000
0000
0001
0001
1000
0000
0000
0010
0000
0000
1010
0000
,
0000
0000
0000
0000
0000
0000
0100
0000
0001
0000
0000
1000
0000
0000
0000
0000
,
0010
0010
1000
1000
0001
0001
1000
0000
,
0100
0100
1000
1000
0001
0001
0010
0000
,
0000
0100
1000
0100
1000
0001
0100
0020
,
0000
0000
0000
2030
0100
0000
3100
0000
,
0001
0010
0001
0000
1000
0100
1000
0000
,
0001
1100
0000
1010
0000
1010
0000
0000
,
0000
0000
0100
0000
0010
0000
0100
0000
0002
0000
0000
0000
0000
0000
1003
0100
,
1000
0010
0100
0000
0000
0000
0010
0100
,
0000
0000
0010
0100
0000
0001
0000
1000
,
0000
0000
0001
0000
0010
0000
0100
0000
1000
0000
0010
0000
0100
0001
0100
0000
,
1001
0000
0000
0000
0000
0000
1000
1000
0001
0000
0000
1000
0000
0000
0110
0000
,
0000
0000
0000
0000
0000
0000
0001
0000
1000
0000
0000
0100
0000
0000
0000
0000
,
0000
0000
1000
0000
0010
0000
0100
0100
0000
0010
0000
0000
0000
0000
1000
0000
,
0001
1000
0001
1000
0100
0000
0000
0000
,
1100
0000
0000
0000
0000
0000
0010
0100
0010
0000
0000
1000
0000
0000
1001
0000
,
0000
0000
0000
0000
0000
0000
1000
0000
0010
0000
0000
1000
0000
0000
0000
0000
,
0110
0000
0001
0100
0000
0000
0001
0000
0110
0000
1000
0100
0000
0000
0000
0000
,
0001
0100
0001
0100
0001
0000
0000
0000
,
0000
0000
0010
1000
0010
0000
0001
0100
0001
0000
0010
1000
0010
0000
0101
0000
,
0000
0000
0010
0001
0010
0000
1000
0100
1000
0000
0010
0001
0010
0000
1100
0000
,
0000
0000
0010
0100
0010
0000
1000
0001
1000
0000
0010
0100
0010
0000
2002
0000
,
0000
0000
0000
3003
,
0010
0000
0100
0001
1000
0010
0100
0000
,
0001
0000
1000
0001
0100
0010
1000
0000
,
0100
0000
0010
0001
1000
0010
0100
0000
,
0001
0000
0000
0000
1000
0000
0001
0000
1000
0001
1000
0001
1000
0000
0000
0000
,
0101
0000
0000
0000
1100
0000
0010
1000
0010
0000
0000
0100
0000
0000
1001
0000
,
0000
0000
0000
0000
0000
0000
0010
0000
1000
0000
0000
0100
0000
0000
0000
0000
,
1000
0001
0001
0000
1000
0100
0100
0000
,
1000
0010
0100
0001
0010
0000
0000
0000
,
0011
0000
0000
0000
0000
0000
1000
0001
1000
0000
0000
0100
0000
0000
1010
0000
,
0000
0000
0000
0000
0000
0000
0100
0000
0001
0000
0000
1000
0000
0000
0000
0000
,
1000
0010
0100
0000
0001
0010
0100
0000
,
1000
0001
1000
0001
1000
0000
0010
1000
,
1001
0000
0000
0000
0000
0000
0010
0100
0010
0000
0000
0110
0000
0000
2002
0000
,
0000
0000
0000
3003
;

//---------------dance-double - ----------------
#NOTES:
     dance-double:
     :
     Beginner:
     2:
     :
00000000
00000000
00000000
00000000
,
00000000
00000000
00000000
00000000
,
00000000
00000000
00000000
00000000
,
00000000
00000000
00000000
00000000
,
00000000
00000000
00000000
00000000
,
01000000
00000000
01000000
00000000
,
00100000
00000000
00010000
00000000
,
00100000
00000000
00010000
00000000
,
00001000
00000000
00000100
00000000
,
00011000
00000000
00001000
00000000
,
00000110
00000000
00001000
00000000
,
00011000
00000000
00010000
00000000
,
01100000
00000000
00010000
00000000
,
00001000
00000000
00000100
00000000
,
00000010
00000000
00000001
00000000
,
00000001
00000000
00000010
00000000
,
00001000
00000000
00010000
00000000
,
00010000
00000000
01000000
00000000
,
00100000
00000000
10000000
00000000
,
10000000
00000000
00100000
00000000
,
00010000
00000000
00001000
00000000
,
00011000
00000000
00010000
00000000
,
01100000
00000000
01000000
00000000
,
10000000
00000000
00010000
00000000
,
00010000
00000000
00001000
00000000
,
00011000
00000000
00001000
00000000
,
00000110
00000000
00000010
00000000
,
00000001
00000000
00001000
00000000
,
00001000
00000000
00010000
00000000
,
01100000
00000000
01000000
00000000
,
10010000
00000000
00010000
00000000
,
00011000
00000000
00001000
00000000
,
00001000
00000000
00000100
00000000
,
00000110
00000000
00000010
00000000
,
00001001
00000000
00001000
00000000
,
00011000
00000000
00010000
00000000
,
00010000
00000000
01000000
00000000
,
10010000
00000000
00000000
10000000
,
00000000
00010000
00000000
10000000
,
00000000
00000000
00010000
00000000
,
00001000
00000000
00000100
00000000
,
00001001
00000000
00000000
00000001
,
00000000
00001000
00000000
00000001
,
00000000
00000000
00001000
00000000
,
00010000
00000000
00001000
00000000
,
00011000
00000000
00001000
00000000
,
00011000
00000000
00010000
00000000
;

//---------------dance-double - ----------------
#NOTES:
     dance-double:
     :
     Easy:
     2:
     :
00000000
00000000
00000000
00000000
,
00000000
00000000
00000000
00000000
,
00000000
00000000
00000000
00000000
,
00000000
00000000
00000000
00000000
,
00000000
00000000
00000000
00000000
,
01000000
00010000
01000000
00000000
,
00100000
10000000
00010000
00000000
,
00100000
00000000
00010000
00000000
,
00001000
00000000
00000100
00000000
,
00011000
00000000
00001000
00000000
,
00000110
00000000
00001000
00000000
,
00011000
00000000
00010000
00000000
,
01100000
00000000
00010000
00000000
,
00001000
00000000
00000100
00000000
,
00000010
00000000
00000001
00000000
,
00000001
00000000
00000010
00000000
,
00001000
00000000
00010000
00000000
,
00010000
00000000
01000000
00000000
,
00100000
00000000
10000000
00000000
,
10000000
00000000
00100000
00000000
,
00010000
00000000
00001000
00000000
,
00011000
00000000
00010000
00000000
,
01100000
00000000
01000000
00000000
,
10000000
00000000
00010000
00000000
,
00010000
00000000
00001000
00000000
,
00011000
00000000
00001000
00000000
,
00000110
00000000
00000010
00000000
,
00000001
00000000
00001000
00000000
,
00001000
00000000
00010000
00000000
,
01100000
01000000
01000000
01000000
,
10010000
00010000
00010000
00010000
,
00011000
00001000
00001000
00001000
,
00001000
00000000
00000100
00000000
,
00000110
00000010
00000010
00000010
,
00001001
00001000
00001000
00001000
,
00011000
00010000
00010000
00010000
,
00010000
00000000
01000000
00000000
,
10010000
00010000
00000000
10000000
,
10010000
00010000
00000000
10000000
,
01000000
00000000
00010000
00000000
,
00001000
00000000
00000100
00000000
,
00001001
00001000
00000000
00000001
,
00001001
00001000
00000000
00000001
,
00000100
00000000
00001000
00000000
,
00010000
00000000
00001000
00000000
,
00011000
00000000
00001000
00000000
,
00011000
00000000
00010000
00000000
;

//---------------dance-double - ----------------
#NOTES:
     dance-double:
     :
     Medium:
     4:
     :
00000000
00000000
00000000
00000000
,
00000000
00000000
00000000
00000000
,
00000000
00000000
00000000
00000000
,
00000000
00000000
00000000
00000000
,
00000000
00000000
00000000
00000000
,
00000001
00000100
00000010
00001000
,
00000100
00010000
00001000
00100000
,
00010000
01000000
00100000
10000000
,
10010000
01100000
10010000
01100000
,
11000000
00010000
01000000
10000000
,
01010000
10000000
01000000
00010000
,
00001000
00001000
00010000
00010000
,
00001000
00000010
00000001
00000100
,
00001000
00000001
00000100
00000010
,
00001000
00000001
00000100
00001000
,
00010000
01000000
10000000
00010000
,
00100000
01000000
10000000
00010000
,
10000000
00010000
10000000
00010000
,
00010000
00001000
00010000
00001000
,
00001000
00000001
00001000
00000001
,
00000010
00001000
00000100
00000001
,
00000101
00001000
00000100
00000001
,
00001100
00000001
00000100
00001000
,
00010000
00100000
00001000
00000010
,
00010000
01000000
10000000
01000000
,
00110000
10000000
00100000
00010000
,
10100000
00010000
00100000
10000000
,
00010000
00010000
10000000
10000000
,
01000000
00010000
00001000
00010000
,
00001000
00000100
00000100
00001000
,
00010000
00100000
00100000
00010000
,
00001000
00000100
00000100
00001000
,
00010000
00100000
00100000
00010000
,
00001000
00000110
00000001
00000110
,
00001000
00011000
00010000
00011000
,
00010000
01100000
10000000
01100000
,
00100000
10010000
01000000
10010000
,
01100000
20020000
00000000
30030000
,
02200000
03300000
00010000
10000000
,
00100000
00100000
01000000
01000000
,
00010000
00001000
00010000
00001000
,
00000220
00000000
00000000
00000330
,
00002002
00003003
00000010
00000100
,
00001000
00001000
00000001
00000001
,
00001000
00010000
00001000
00010000
,
00011000
00100000
00001000
00000010
,
00010000
01000000
00001000
00000100
;

//---------------dance-double - ----------------
#NOTES:
     dance-double:
     :
     Hard:
     6:
     :
00000000
00000000
00000000
00000000
,
00000000
00000000
00000000
00000000
,
00000000
00000000
00000000
00000000
,
00000000
00000000
00000000
00000000
,
00000000
00000000
00000000
00000000
,
00100000
00000000
00000000
00000000
10000000
00000000
01000000
00000000
00010000
00000000
00000000
00001000
00000000
00000000
00000010
00000000
,
00000000
00000000
00000000
00000000
00000001
00000000
00000100
00000000
00001000
00000000
00000000
00010000
00000000
00000000
00100000
00000000
,
00000000
00000000
10000000
00010000
10000000
00010000
00000000
00000000
00000000
00000000
00000000
10000000
00010000
10000000
00010000
00000000
,
00000000
00000000
10010000
00000000
00000000
01100000
00000000
00000000
10010000
00000000
00000000
00000000
01000000
00100000
00000000
00000000
,
10010000
00000000
00000000
00000000
00100000
00000000
00010000
10000000
00010000
00000000
00000000
10000000
00000000
00000000
00020000
00000000
,
00000000
00000000
00000000
00000000
01030000
00000000
00001000
00010000
00001000
00000000
00000000
01000000
00000000
00000000
00000000
00000000
,
00100000
10010000
00010000
01100000
,
00001000
00011000
00000010
00001001
,
00000010
00000100
00001001
00000000
00000010
00000100
00000110
00000000
,
00000100
00001000
00010000
00000000
00001000
00010000
01000000
00000000
,
10000000
00010000
01100000
00000000
10000000
00010000
10010000
00000000
,
00100000
00010000
00001000
00000000
00010000
00001000
00000010
00000000
,
00000010
00000001
00001100
00000000
00000010
00001000
00000101
00000000
,
00000001
00001000
00010000
00000000
00001000
00010000
10000000
00000000
,
00100000
10000000
01010000
00000000
00100000
00010000
11000000
00000000
,
10000000
00010000
00001000
00000000
00010000
00001000
00000001
00000000
,
00001001
00000000
00000000
00000000
00000010
00000000
00001000
00000001
00001000
00000000
00000000
00000001
00000000
00000000
00002000
00000000
,
00000000
00000000
00000000
00000000
00003100
00000000
00010000
00001000
00010000
00000000
00000000
00000100
00000000
00000000
00000000
00000000
,
00000000
00000000
00100000
00000000
00010000
00000000
00001000
00000010
00000000
00001000
00000000
00000000
00000000
00000000
00010000
00000000
,
00001000
00010000
00001000
00010000
00000000
00100000
00000000
01000000
00000000
00000000
00010000
00000000
10000000
00000000
01000000
00000000
,
10010000
00000000
00000000
00000000
00100000
00000000
00010000
10000000
00010000
00000000
00000000
10000000
00000000
00000000
00020000
00000000
,
00000000
00000000
00000000
00000000
01030000
00000000
00001000
00010000
00001000
00000000
02000000
00000000
00000000
00000000
00000000
00000000
,
03100000
00000000
00010000
00001000
00000000
00000000
00000000
00000010
00001000
00000000
00010000
00100000
00000000
00000000
00000000
00000000
,
00010000
00000000
00001000
00010000
00001000
00000000
00010000
00001000
00000000
00000000
00022000
00000000
00000000
00000000
00033000
00000000
,
00000000
00010000
00100000
10000000
01000000
10000000
01000000
00010000
,
00000000
01000000
00010000
00001000
00000100
00001000
00000100
00000001
,
00000000
00000100
00000001
00000010
00001000
00000010
00001000
00010000
,
00000000
00000000
00000000
00000000
00000000
00000000
00000000
00000000
00000000
00000000
00000000
00000000
00000000
00000000
00000000
00000000
00000000
00000000
00001000
00000000
00000000
00010000
00000000
00000000
00001000
00000000
00000000
00000000
00000000
00000000
00010000
00000000
00000000
00001000
00000000
00000000
00010000
00000000
00000000
00000000
00001000
00000000
00000000
00000000
00010000
00000000
00000000
00000000
,
00000000
00001000
00000100
00000001
00000010
00000001
00000010
00001000
,
00000000
00000010
00001000
00010000
00100000
00010000
00100000
10000000
,
00000000
00100000
10000000
01000000
00010000
01000000
00010000
00001000
,
00000000
00000000
00000000
00000000
00000000
00000000
00010000
00001000
00010000
00000000
00001000
00020000
00000000
00000000
00000000
00030000
,
00000000
00000000
00000000
00000000
00100000
00000000
00010000
10000000
00010000
00000000
00000000
10000000
00000000
00000000
00020000
00000000
,
00000000
00000000
00000000
00000000
01030000
00000000
00001000
00010000
00001000
00000000
01000000
00000000
00000000
00000000
00000000
00000000
,
00100000
10010000
00010000
01100000
,
00001000
00011000
00000010
00001001
,
00001001
00000000
00000000
00000000
00000010
00000000
00001000
00000001
00001000
00000000
00000000
00000001
00000000
00000000
00002000
00000000
,
00000000
00000000
00000000
00000000
00003100
00000000
00010000
00001000
00010000
00000000
00000200
00000000
00000300
00000000
00000000
00000000
,
00000100
00001001
00001000
00000110
,
00010000
00011000
01000000
10010000
,
10010000
00000000
00000000
00000000
00100000
00000000
00010000
10000000
00010000
00000000
00000000
10000000
00000000
00000000
00020000
00000000
,
00000000
00000000
00000000
00000000
01030000
00000000
00001000
00010000
00001000
00000000
01000000
00000000
00000000
00000000
00000000
00000000
;
