#TITLE:Backfire;
#ARTIST:Chatanix;
#BANNER:Backfire.png;
#BACKGROUND:Backfire-bg.png;
#CDTITLE:./CDTITLES/Song Pack 12.PNG;
#MUSIC:Backfire.ogg;
#SAMPLESTART:79.992;
#SAMPLELENGTH:15;
#DISPLAYBPM:147;
#BPMS:0=147.001;

//---------------dance-single - ----------------
#NOTES:
     dance-single:
     :
     Beginner:
     2:
     :
0000
0000
0000
0000
,
0000
0000
0000
0000
,
0000
0000
0000
0000
,
0000
0000
0000
0000
,
0000
0000
0000
0000
,
0001
0000
1000
0000
,
0010
0000
0100
0000
,
0001
0000
1000
0000
,
0100
0000
1000
0000
,
0010
0000
1000
0000
,
0001
0000
0010
0000
,
0001
0000
1000
0000
,
0010
0000
0001
0000
,
0010
0000
0001
0000
,
0001
0000
0100
0000
,
1000
0000
0001
0000
,
1000
0000
0100
0000
,
0001
0000
0010
0000
,
0100
0000
1000
0000
,
1000
0000
0001
0000
,
0010
0000
0100
0000
,
1000
0000
0010
0000
,
0010
0000
1000
0000
,
0010
0000
1000
0000
,
0010
0000
1000
0000
,
0010
0000
0001
0000
,
0100
0000
0010
0000
,
0001
0000
0100
0000
,
1000
0000
0001
0000
,
0100
0000
0010
0000
,
0010
0000
0100
0000
,
0100
0000
0010
0000
,
0001
0000
1000
0000
,
0001
0000
0010
0000
,
0100
0000
0001
0000
,
0010
0000
0010
0000
,
0100
0000
0001
0000
,
0010
0000
1000
0000
,
0010
0000
0001
0000
,
0010
0000
0100
0000
,
0010
0000
1000
0000
,
1000
0000
0000
0000
,
0000
0000
0000
0000
,
0000
0000
0000
0000
,
0000
0000
0000
0000
,
1001
0000
0000
0000
,
0110
0000
0000
0000
,
1001
0000
0110
0000
,
1001
0000
0110
0000
,
0100
0000
1000
0000
,
0010
0000
0100
0000
,
1000
0000
0010
0000
,
0001
0000
1000
0000
,
0010
0000
0100
0000
,
0100
0000
0010
0000
,
0010
0000
0100
0000
,
1000
0000
0001
0000
,
1000
0000
0100
0000
,
0010
0000
1000
0000
,
0100
0000
0100
0000
,
0010
0000
1000
0000
,
0100
0000
0001
0000
,
0100
0000
1000
0000
,
0100
0000
0010
0000
,
0100
0000
0001
0000
;

//---------------dance-single - ----------------
#NOTES:
     dance-single:
     :
     Easy:
     6:
     :
0000
0000
0000
0000
,
0000
0000
0000
0000
,
0000
0000
0000
0000
,
0000
0000
0000
0000
,
0000
0000
0000
0000
,
0001
0011
1000
1100
,
0010
1000
0100
0010
,
0001
1001
1000
1001
,
0100
0010
1000
0001
,
0010
0110
1000
1001
,
0001
1000
0010
0100
,
0001
0011
1000
1010
,
0010
1000
0001
0100
,
0010
1010
0001
0011
,
0001
0010
0100
1000
,
1000
1001
0001
1001
,
1000
0010
0100
0001
,
0002
0010
0010
0013
,
0200
1000
1000
1300
,
2000
0001
0001
3001
,
0020
0100
0100
0130
,
2000
3100
0020
0031
,
0020
0130
2000
3001
,
0020
0130
2000
3001
,
0020
0031
2000
3100
,
0020
0001
0001
0031
,
0200
0010
0010
0310
,
0002
0100
0100
0103
,
2000
0001
0001
3001
,
0200
1300
0020
0031
,
0020
1030
0200
0301
,
0200
1300
0020
1030
,
0002
0103
2000
3100
,
0002
0103
0020
1030
,
0200
0310
0002
1003
,
0020
0031
0020
1030
,
0200
0310
0002
0013
,
0010
0012
1003
1200
,
0310
0120
0031
0102
,
0013
1020
0130
0102
,
0013
0120
1030
1002
,
2000
0000
0000
3003
,
0000
0000
0000
0000
,
0000
0000
0000
0000
,
0000
0000
0000
0000
,
2002
0000
0000
3003
,
0220
0000
0000
0330
,
1010
0000
0101
0000
,
1010
1001
0101
1001
,
0200
1000
1000
1300
,
0020
0100
0100
0130
,
2000
0010
0010
3010
,
0002
1000
1000
1003
,
0020
0031
0200
1300
,
0200
0301
0020
1030
,
0020
0031
0200
0301
,
2000
3010
0002
0013
,
2000
3010
0200
0301
,
0020
0130
2000
3001
,
0200
1300
0200
0301
,
0020
0130
2000
3100
,
0100
1200
0301
0012
,
0103
0120
1030
1020
,
0130
0102
0013
1020
,
0130
0120
0031
1000
,
0000
2002
0000
0000
0000
0000
3003
0000
;

//---------------dance-single - ----------------
#NOTES:
     dance-single:
     :
     Medium:
     6:
     :
0000
0000
0000
0000
,
0000
0000
0000
0000
,
0000
0000
0000
0000
,
0000
0000
0000
0000
,
0000
0000
0000
0000
,
0100
0010
0000
0010
0000
0100
0000
0001
,
0000
0001
0000
1000
0000
0100
0000
0010
,
0100
0010
0000
0001
0000
0001
0000
1000
,
0000
0010
0000
0010
0000
1000
1100
0000
,
1100
1000
0000
0001
0000
0001
0000
0100
,
0000
0010
0000
0010
0000
1000
0100
1000
,
0000
0001
0000
0001
0000
0010
0000
0100
,
0000
0100
0000
1000
0000
0001
0010
0001
,
0000
0100
0000
0100
0000
0001
0000
1000
,
0000
1000
0000
0010
0000
0100
0010
0100
,
0000
0001
0000
0001
0000
1000
0000
0100
,
0000
0100
0000
0010
0000
0010
1001
0000
,
0001
0101
0100
1100
,
1000
1010
0010
0011
,
0001
0101
0100
1100
,
0100
0001
0010
0001
,
0100
0110
0010
1010
,
1000
1001
0001
0011
,
0010
0110
0100
1100
,
1000
0000
1001
0000
0000
0001
0101
0000
,
0100
0001
0100
0001
0000
1000
0010
1000
,
0000
0001
0100
1000
0100
0001
0100
1000
,
0000
0100
0010
0100
0000
0010
1000
0010
,
0000
1000
0100
0001
0100
1000
0100
0001
,
0000
0100
0010
0100
0000
1000
0100
1000
,
0000
0010
1000
0100
0001
0100
1000
0010
,
0000
1000
0001
1000
0000
0001
0100
0001
,
0000
0010
0001
0100
1000
0100
0001
0010
,
0000
0001
0000
1000
0000
0100
0010
0100
,
0000
1000
0000
0001
0000
0010
0100
0010
,
0000
0001
0000
0010
0000
0100
1000
0100
,
0000
1000
0000
0010
0000
0100
0001
0100
,
0000
0001
0000
0100
0000
0010
1000
0010
,
0000
1000
0000
0100
0000
0010
0001
0010
,
0000
0001
0000
1000
0000
0100
0010
0100
,
0000
1000
0000
0001
0000
0010
0100
0010
,
0200
0000
0000
0300
,
0000
0000
0000
0000
,
0000
0000
0000
0000
,
0000
0000
0000
0000
,
1000
1100
0000
0101
0000
0001
1000
0002
,
0000
0000
0000
0003
,
1010
0000
0101
0000
,
1100
1001
0101
1001
,
0100
0001
0100
0001
0000
1000
0010
1000
,
0000
0001
0100
1000
0100
0001
0100
1000
,
0000
0100
0010
0100
0000
0010
1000
0010
,
0000
1000
0100
0001
0100
1000
0100
0001
,
0000
0100
0010
0100
0000
1000
0100
1000
,
0000
0010
1000
0100
0001
0100
1000
0010
,
0000
1000
0001
1000
0000
0001
0100
0001
,
0000
0010
0001
0100
1000
0100
0001
0010
,
0000
0001
0000
1000
0000
0100
0010
0100
,
0000
1000
0000
0001
0000
0010
0100
0010
,
0000
0001
0000
0010
0000
0100
1000
0100
,
0000
1000
0000
0010
0000
0100
0001
0100
,
0000
0001
0000
0100
0000
0010
1000
0010
,
0000
1000
0000
0100
0000
0010
0001
0010
,
0000
0001
0000
1000
0000
0100
0010
0100
,
0000
1000
0000
0001
0000
0010
0100
0010
,
0000
0200
0000
0000
0000
0000
0300
0000
;

//---------------dance-single - ----------------
#NOTES:
     dance-single:
     :
     Hard:
     8:
     :
0000
0000
0000
0000
,
0000
0000
0000
0000
,
0000
0000
0000
0000
,
0000
0000
0000
0000
,
0000
0000
0000
0000
,
0010
0001
1000
0001
1000
0010
0100
0001
,
1000
0010
0100
0001
1000
0001
1000
0100
,
0010
0100
1000
0001
0010
0100
0010
0001
,
1000
0100
0010
0001
0100
1000
0100
0000
,
0100
0002
0000
0010
0000
1000
0000
0100
,
0000
1000
0000
0013
0000
0001
0010
0001
,
1000
0200
0000
0001
0000
0010
0000
1000
,
0000
0010
0000
0301
0000
0100
1000
0010
,
1000
0020
0000
1000
0000
0100
0000
0001
,
0000
0100
0000
1030
0000
0001
0100
1000
,
0100
0001
0000
2000
0000
0010
0000
0001
,
0000
0100
0000
0001
0000
3010
0100
0000
,
0010
1000
0010
0100
0000
0010
1000
0200
,
0000
0010
0000
1300
0000
1000
0100
2000
,
0000
0100
0000
3001
0000
0100
0001
0200
,
0000
0010
0000
0301
0000
1000
0100
0001
,
0100
1000
0000
0001
0000
0010
0001
0200
,
0000
0010
0000
1300
0000
0100
0001
0200
,
0000
0010
0000
0301
0000
1000
0010
2000
,
0000
0001
0000
0100
0000
3001
0100
0000
,
0010
1000
0001
1000
0000
0100
0010
0100
,
0000
0000
1000
0001
1000
0000
0001
0000
0100
0000
0010
0000
1000
0000
0001
0000
,
0100
0010
1000
0001
0000
1000
0001
1000
,
0000
0000
0001
0010
0001
0000
0010
0000
0100
0000
1000
0000
0001
0000
0010
0000
,
0100
1000
0001
0010
0000
0001
1000
0001
,
0000
0000
1000
0010
1000
0000
0001
0000
0100
0000
0010
0000
1000
0000
0001
0000
,
0100
0010
1000
1000
0000
0100
0010
0100
,
0000
0000
0100
1000
0100
0000
1000
0000
0100
0000
0001
0000
0100
0000
1000
0000
,
0100
0000
0010
0000
0001
0000
0100
0000
0000
0000
0001
0100
0001
0000
0200
0000
,
0000
0000
0001
0000
0000
0000
0301
0000
0000
0000
0001
1000
0001
0000
2000
0000
,
0000
0000
0010
0000
0000
0000
3010
0000
0000
0000
0100
0010
0100
0000
0020
0000
,
0000
0000
1000
0000
0000
0000
1030
0000
0000
0000
0001
1000
0001
0000
2000
0000
,
0000
0000
0010
0000
0000
0000
3010
0000
0000
0000
0100
0010
0100
0000
0020
0000
,
0000
0000
1000
0000
0000
0000
1030
0000
0000
0000
0010
1000
0010
0000
2000
0000
,
0000
0000
0001
0000
0000
0000
3001
0000
0000
0000
0010
0001
0010
0000
0002
0000
,
0000
0000
0100
0000
0000
0000
0103
0000
0000
0000
0010
1000
0010
0000
1000
0000
,
0002
0000
0000
0003
,
0000
0000
0000
0000
,
0000
0000
0000
0000
,
0000
0000
0000
0000
,
1000
0000
0000
0000
0000
0000
0000
0000
0000
0000
0001
0000
0000
0000
0000
0000
0000
0000
0000
0000
0000
0100
0000
0000
0000
0000
0000
0000
0000
0000
0000
0000
0010
0000
0000
0000
0000
0000
0000
0000
0000
0000
1000
0000
0000
0000
0000
0000
0000
0000
0000
0000
0000
0001
0000
0000
0000
0000
0000
0000
0000
0000
0000
0000
,
0010
0000
0000
0000
0000
0000
0000
0000
0000
0000
0100
0000
0000
0000
0000
0000
0000
0000
0000
0000
0000
1000
0000
0000
0000
0000
0000
0000
0000
0000
0000
0000
0100
0000
0000
0000
0000
0000
0000
0000
0000
0000
0010
0000
0000
0000
0000
0000
0000
0000
0000
0000
0000
0001
0000
0000
0000
0000
0000
0000
0000
0000
0000
0000
,
1000
0000
0000
0000
0000
1000
0000
0000
0001
0000
0000
0000
0000
0001
0000
0000
0100
0000
0000
0000
0000
0100
0000
0000
0010
0000
0000
0000
0000
0010
0000
0000
,
1000
0001
1000
0001
,
1000
0010
0100
0010
0000
1000
0100
1000
,
0000
0010
1000
0010
0100
0001
1000
0010
,
0100
0001
1000
0100
0000
0010
0001
0010
,
0000
0001
0100
1000
0100
0001
0010
0100
,
0010
0001
0100
1000
0000
0100
0010
0100
,
0000
0010
1000
0100
0010
0001
0100
0010
,
1000
0100
0001
0100
0000
1000
0001
1000
,
0000
0001
1000
0100
0010
0001
0100
0000
,
1000
0000
0100
0000
0000
0000
0100
0000
0000
0000
0001
0100
0001
0000
0200
0000
,
0000
0000
0001
0000
0000
0000
0301
0000
0000
0000
0001
1000
0001
0000
2000
0000
,
0000
0000
0010
0000
0000
0000
3010
0000
0000
0000
0100
0010
0100
0000
0020
0000
,
0000
0000
1000
0000
0000
0000
1030
0000
0000
0000
0001
1000
0001
0000
2000
0000
,
0000
0000
0010
0000
0000
0000
3010
0000
0000
0000
0100
0010
0100
0000
0020
0000
,
0000
0000
1000
0000
0000
0000
1030
0000
0000
0000
0010
1000
0010
0000
2000
0000
,
0000
0000
0001
0000
0000
0000
3001
0000
0000
0000
0010
0001
0010
0000
0002
0000
,
0000
0000
0100
0000
0000
0000
0103
0000
0000
0000
0010
1000
0010
0000
1000
0000
,
0000
2002
0000
0000
0000
0000
3003
0000
;

//---------------dance-double - ----------------
#NOTES:
     dance-double:
     :
     Beginner:
     2:
     :
00000000
00000000
00000000
00000000
,
00000000
00000000
00000000
00000000
,
00000000
00000000
00000000
00000000
,
00000000
00000000
00000000
00000000
,
00000000
00000000
00000000
00000000
,
00011000
00000000
00000010
00000000
,
00000001
00000000
00000100
00000000
,
00011000
00000000
01000000
00000000
,
10000000
00000000
01000000
00000000
,
00000000
01100000
00000000
00010000
,
00000000
00011000
00000000
00000100
,
00000000
00000110
00000000
00000001
,
00000000
00001001
00000000
00000001
,
00000000
00000110
00000000
00001000
,
00000000
00011000
00000000
01000000
,
00000000
10010000
00000000
00100000
,
00000000
10010000
00000000
01000000
,
00000000
00010000
00000000
01000000
,
00000000
00011000
00000000
00000100
,
00000000
00000010
00000000
00000010
,
00000000
00001001
00000000
00000100
,
00000000
00010000
00000000
00000100
,
00000000
00011000
00000000
01000000
,
00000000
01000000
00000000
01000000
,
00000000
10010000
00000000
00010000
,
00000000
00010000
00000000
00000010
,
00000000
00000100
00000000
00000100
,
00000000
00000100
00000000
00010000
,
00000000
00010000
00000000
00010000
,
00000000
10000000
00000000
00010000
,
00000000
10000000
00000000
00100000
,
00000000
10000000
00000000
00010000
,
00000000
00000100
00000000
00000010
,
00000000
00000000
00000010
00000000
,
00000001
00000000
00000100
00000000
,
00001000
00000000
00010000
00000000
,
00100000
00000000
10000000
00000000
,
01000000
00000000
01000000
00000000
,
00010000
00000000
00001000
00000000
,
00000100
00000000
00000001
00000000
,
00000010
00000000
00000010
00000000
,
00001001
00000000
00000000
00000000
,
00000000
00000000
00000000
00000000
,
00000000
00000000
00000000
00000000
,
00000000
00000000
00000000
00000000
,
00011000
00000000
00000000
00000000
,
01100000
00000000
00000000
00000000
,
00011000
00000000
00000110
00000000
,
00011000
00000000
00011000
00000000
,
00010000
00000000
00010000
00000000
,
10000000
00000000
00010000
00000000
,
10000000
00000000
00010000
00000000
,
00000100
00000000
00010000
00000000
,
00000100
00000000
00000010
00000000
,
00000010
00000000
00000100
00000000
,
00001000
00000000
00000100
00000000
,
00010000
00000000
10000000
00000000
,
00010000
00000000
00100000
00000000
,
10000000
00000000
01000000
00000000
,
00010000
00000000
00001000
00000000
,
00000010
00000000
00000001
00000000
,
00000100
00000000
00000100
00000000
,
00001000
00000000
00010000
00000000
,
01000000
00000000
10000000
00000000
,
00100000
00000000
00100000
00000000
;

//---------------dance-double - ----------------
#NOTES:
     dance-double:
     :
     Easy:
     5:
     :
00000000
00000000
00000000
00000000
,
00000000
00000000
00000000
00000000
,
00000000
00000000
00000000
00000000
,
00000000
00000000
00000000
00000000
,
00000000
00000000
00000000
00000000
,
00011000
00000000
00000010
00000000
,
00000001
00000000
00000100
00000000
,
00011000
00000000
01000000
00000000
,
10000000
00000000
01000000
00000000
,
00000000
01100000
01000000
00010000
,
00000000
00011000
00001000
00000100
,
00000000
00001100
00000100
00000001
,
00000000
00001001
00000010
00000001
,
00000000
00001100
00000100
00001000
,
00000000
00011000
00010000
01000000
,
00000000
10010000
10000000
00100000
,
00000000
10100000
10000000
01000000
,
00100000
00010000
10000000
01000000
,
00000000
00011000
00001000
00000100
,
00000001
00000010
00001000
00000010
,
00000000
00000011
00000001
00000100
,
00001000
00010000
00001000
00000100
,
00000000
00011000
00010000
01000000
,
10000000
01000000
00010000
01000000
,
00000000
10010000
01000000
00010000
,
00001000
00010000
00001000
00000010
,
00000001
00000100
00001000
00000100
,
00000001
00000100
00001000
00010000
,
01000000
00010000
00001000
00010000
,
01000000
10000000
00100000
00010000
,
00100000
10000000
01000000
00100000
,
00010000
10000000
01000000
00010000
,
00001000
00000100
00000001
00000010
,
00002000
00003000
00000020
00000030
,
00000002
00000003
00000200
00000300
,
00002000
00003000
00020000
00030000
,
00200000
00300000
20000000
30000000
,
01000000
01100000
01000000
01010000
,
00010000
00011000
00001000
00001100
,
00000100
00000101
00000001
00000011
,
00000010
00001010
00000010
00000011
,
00002002
00000000
00000000
00003003
,
00000000
00000000
00000000
00000000
,
00000000
00000000
00000000
00000000
,
00000000
00000000
00000000
00000000
,
00022000
00000000
00000000
00033000
,
02020000
00000000
00000000
03030000
,
00011000
00000000
00001100
00000000
,
00011000
01001000
00011000
00010100
,
00010000
00001000
00010000
00100000
,
10000000
01000000
00010000
01000000
,
10000000
01000000
00010000
00001000
,
00000100
00001000
00010000
00001000
,
00000100
00000001
00000010
00000001
,
00000010
00000001
00000100
00000010
,
00001000
00000001
00000100
00001000
,
00010000
01000000
10000000
00100000
,
00020000
00030000
00200000
00300000
,
20000000
30000000
02000000
03000000
,
00020000
00030000
00002000
00003000
,
00000020
00000030
00000002
00000003
,
00000100
00000110
00000100
00001100
,
00001000
00011000
00010000
01010000
,
01000000
11000000
10000000
10100000
,
00100000
00110000
00100000
10100000
,
00000000
02200000
00000000
00000000
00000000
00000000
03300000
00000000
;

//---------------dance-double - ----------------
#NOTES:
     dance-double:
     :
     Medium:
     6:
     :
00000000
00000000
00000000
00000000
,
00000000
00000000
00000000
00000000
,
00000000
00000000
00000000
00000000
,
00000000
00000000
00000000
00000000
,
00000000
00000000
00000000
00000000
,
00000001
00000001
00000000
00000100
00000000
00000001
00000000
00000010
,
00000000
00001000
00000000
00010000
00000000
00100000
00000000
10000000
,
00000000
01000000
00000000
10000000
00000000
00100000
00000000
00010000
,
00000000
00100000
00000000
10000000
00000000
10000000
00010000
00000000
,
00010000
10000000
00000000
01000000
00000000
00010000
00000000
00001000
,
00000000
00000100
00000000
00000001
00000000
00000010
00000000
00001000
,
00000000
00000010
00000000
00000001
00000000
00000100
00000000
00001000
,
00000000
00010000
00000000
01000000
00000000
10000000
00000000
00100000
,
00000000
10000000
00000000
01000000
00000000
00010000
00000000
00001000
,
00000000
00010000
00000000
00001000
00000000
00000100
00000000
00001000
,
00000000
00010000
00000000
00100000
00000000
00010000
00000000
00001000
,
00000000
00000100
00000000
00000010
00000000
00000100
00001001
00000000
,
00000001
00000100
00001000
00000000
00010000
00000000
01000000
00000000
,
10000000
00100000
10000000
00000000
01000000
00000000
00010000
00000000
,
00001000
00000100
00000001
00000000
00000100
00000000
00001000
00000000
,
00000100
00000001
00000010
00000000
00001000
00000000
00000010
00000000
,
00000001
00000100
00001000
00000000
00010000
00000000
01000000
00000000
,
10000000
00100000
10000000
00000000
01000000
00000000
10000000
00000000
,
01000000
00010000
00001000
00000000
00010000
00000000
00001000
00000000
,
00010000
00001000
00000100
00000000
00000000
00001000
00011000
00000000
,
00000000
00001000
01000000
00010000
00000000
10000000
00000000
00010000
,
00000000
00010000
00000000
01000000
00001000
00010000
00000100
00000000
,
00000000
00000010
00000001
00000100
00000000
00001000
00000000
00000100
,
00000000
00000001
00000000
00000010
00000001
00000100
00001000
00000000
,
00000000
00001000
00010000
01000000
00000000
10000000
00000000
01000000
,
00000000
00010000
00000000
00001000
00010000
00000100
00001000
00000000
,
00000000
00000100
00010000
00001000
00000000
00010000
00000000
01000000
,
00000000
00010000
00000000
00001000
00000100
00000001
00000100
00000000
,
00000000
00000010
00001000
00000100
00000000
00010000
00000000
00001000
,
00000000
01000000
00000000
00010000
00000000
00100000
00000000
00010000
,
00000000
00010000
01000000
00100000
00000000
01000000
00000000
00001000
,
00000000
00010000
00000000
00000100
00000000
00001000
00000000
00000001
,
00000000
00000010
00000001
00000100
00000000
00000001
00000000
00001000
,
00000000
00000100
00000000
00010000
00000000
00001000
00000000
01000000
,
00000000
00010000
01000000
10000000
00000000
01000000
00000000
00010000
,
00000000
10000000
00000000
01000000
00000000
00010000
00000000
00001000
,
00022000
00000000
00000000
00033000
,
00000000
00000000
00000000
00000000
,
00000000
00000000
00000000
00000000
,
00000000
00000000
00000000
00000000
,
00001000
00010000
00000000
00011000
00000000
00010000
00001000
00020000
,
00000000
00000000
00000000
00030000
,
02020000
03030000
00022000
00033000
,
00001000
00011000
00010000
00011000
,
00000000
00010000
00000100
00001000
00000000
00000001
00000000
00001000
,
00000000
00001000
00000000
00000100
00010000
00001000
01000000
00000000
,
00000000
00100000
10000000
01000000
00000000
00010000
00000000
01000000
,
00000000
10000000
00000000
00100000
10000000
01000000
00010000
00000000
,
00000000
00010000
00001000
00000100
00000000
00000001
00000000
00000100
,
00000000
00001000
00000000
00010000
00001000
01000000
00010000
00000000
,
00000000
01000000
00001000
00010000
00000000
00001000
00000000
00000100
,
00000000
00001000
00000000
00010000
01000000
10000000
01000000
00000000
,
00000000
00100000
00010000
01000000
00000000
00001000
00000000
00010000
,
00000000
00000100
00010000
00001000
00000000
00000010
00000000
00000001
,
00000000
00001000
00000100
00000010
00000000
00000001
00000000
00000100
,
00000000
00001000
00010000
01000000
00000000
10000000
00000000
00010000
,
00000000
10000000
01000000
00010000
00000000
01000000
00000000
10000000
,
00000000
01000000
00010000
00001000
00000000
00010000
00000000
00000100
,
00000000
00001000
00000100
00000001
00000000
00000100
00000000
00001000
,
00000000
00000001
00000100
00001000
00000000
00010000
00000000
00001000
,
00000000
00022000
00000000
00000000
00000000
00000000
00033000
00000000
;

//---------------dance-double - ----------------
#NOTES:
     dance-double:
     :
     Hard:
     9:
     :
00000000
00000000
00000000
00000000
,
00000000
00000000
00000000
00000000
,
00000000
00000000
00000000
00000000
,
00000000
00000000
00000000
00000000
,
00000000
00000000
00000000
00000000
,
00000001
00000100
00001000
00010000
01000000
10000000
01000000
00010000
,
00001000
00000100
00000001
00000010
00001000
00010000
00100000
10000000
,
01000000
00010000
00001000
00000100
00001000
00010000
01000000
10000000
,
00100000
00010000
00001000
00000010
00001000
00010000
00100000
00000000
,
10020000
01000000
00000000
10000000
00000000
01000000
00000000
10030000
,
00000000
01200000
00000000
00010000
00000000
00300000
00000000
00110000
,
00000000
01002000
00000000
00010000
00000000
01000000
00000000
00013000
,
00000000
00001200
00000000
00010000
00000000
00001000
00000000
00010300
,
00000000
00000102
00000000
00000010
00000000
00000100
00000000
00000013
,
00000000
00001002
00000000
00000100
00000000
00000003
00000000
00000101
,
00000000
00012000
00000000
00000100
00000000
00003000
00000000
00001100
,
00000000
10020000
00000000
00100000
00000000
00030000
00010000
00000000
,
10000000
00100000
00010000
00001000
00000010
00000001
00000001
00000001
,
00000100
00001000
00010000
00001000
00000100
00000001
00000001
00000001
,
00000100
00001000
00010000
01000000
10000000
01000000
01000000
01000000
,
00010000
00001000
00000010
00000100
00010000
00001000
00001000
00001000
,
00000010
00000100
00010000
00001000
00000010
00000100
00000100
00000100
,
00001000
00000001
00000010
00001000
00010000
00100000
00100000
00100000
,
10000000
01000000
00010000
00001000
00000100
00000001
00000001
00000001
,
00000100
00001000
00010000
01000000
00010000
00001000
00010000
00000000
,
00001000
00000100
00001000
00010000
00000000
10000000
01000000
00010000
,
00000000
00000000
00001000
00010000
00001000
00000000
00010000
00000000
00001000
00000000
00000100
00000000
00001000
00000000
00010000
00000000
,
01000000
10000000
01000000
00010000
00000000
00001000
00000100
00000001
,
00000000
00000000
00000001
00000010
00000001
00000000
00000010
00000000
00001000
00000000
00010000
00000000
00100000
00000000
10000000
00000000
,
01000000
00010000
00001000
00000010
00000000
00000001
00000100
00001000
,
00000000
00000000
00010000
00001000
00010000
00000000
00001000
00000000
00000100
00000000
00001000
00000000
00010000
00000000
01000000
00000000
,
10000000
00100000
00010000
00100000
00000000
10000000
01000000
00010000
,
00000000
00000000
01000000
00010000
01000000
00000000
10000000
00000000
01000000
00000000
00010000
00000000
01000000
00000000
10000000
00000000
,
01000000
00000000
00010000
00000000
00001000
00000000
00000100
00000000
00000000
00000000
00001000
00000100
00001000
00000000
00000200
00000000
,
00000000
00000000
00000001
00000000
00000000
00000000
00000301
00000000
00000000
00000000
00000010
00000001
00000010
00000000
00002000
00000000
,
00000000
00000000
00000010
00000000
00000000
00000000
00003010
00000000
00000000
00000000
00000001
00001000
00000001
00000000
00002000
00000000
,
00000000
00000000
00000100
00000000
00000000
00000000
00003100
00000000
00000000
00000000
00010000
00001000
00010000
00000000
00002000
00000000
,
00000000
00000000
01000000
00000000
00000000
00000000
01003000
00000000
00000000
00000000
00010000
10000000
00010000
00000000
20000000
00000000
,
00000000
00000000
00100000
00000000
00000000
00000000
30100000
00000000
00000000
00000000
01000000
00010000
01000000
00000000
00020000
00000000
,
00000000
00000000
10000000
00000000
00000000
00000000
10030000
00000000
00000000
00000000
00100000
01000000
00100000
00000000
02000000
00000000
,
00000000
00000000
00001000
00000000
00000000
00000000
03001000
00000000
00000000
00000000
00010000
00001000
00010000
00000000
00001000
00000000
,
00020000
00000000
00000000
00030000
,
00000000
00000000
00000000
00000000
,
00000000
00000000
00000000
00000000
,
00000000
00000000
00000000
00000000
,
00001000
00000000
00000000
00000000
00000000
00000000
00000000
00000000
00000000
00000000
00000100
00000000
00000000
00000000
00000000
00000000
00000000
00000000
00000000
00000000
00000000
00000001
00000000
00000000
00000000
00000000
00000000
00000000
00000000
00000000
00000000
00000000
00000001
00000000
00000000
00000000
00000000
00000000
00000000
00000000
00000000
00000000
00000100
00000000
00000000
00000000
00000000
00000000
00000000
00000000
00000000
00000000
00000000
00001000
00000000
00000000
00000000
00000000
00000000
00000000
00000000
00000000
00000000
00000000
,
00010000
00000000
00000000
00000000
00000000
00000000
00000000
00000000
00000000
00000000
01000000
00000000
00000000
00000000
00000000
00000000
00000000
00000000
00000000
00000000
00000000
10000000
00000000
00000000
00000000
00000000
00000000
00000000
00000000
00000000
00000000
00000000
10000000
00000000
00000000
00000000
00000000
00000000
00000000
00000000
00000000
00000000
01000000
00000000
00000000
00000000
00000000
00000000
00000000
00000000
00000000
00000000
00000000
00010000
00000000
00000000
00000000
00000000
00000000
00000000
00000000
00000000
00000000
00000000
,
00001000
00000000
00000000
00000000
00000000
00001000
00000000
00000000
00010000
00000000
00000000
00000000
00000000
00010000
00000000
00000000
00001000
00000000
00000000
00000000
00000000
00001000
00000000
00000000
00010000
00000000
00000000
00000000
00000000
00010000
00000000
00000000
,
00001000
00000100
00000001
00000100
,
00000001
00000100
00001000
00010000
00100000
01000000
01000000
01000000
,
00010000
00100000
01000000
00010000
00001000
00000010
00000010
00000010
,
00000100
00001000
00000100
00000010
00000001
00001000
00001000
00001000
,
00000001
00000100
00001000
00010000
01000000
10000000
10000000
10000000
,
00100000
00010000
00001000
00000010
00001000
00010000
00010000
00010000
,
00100000
00010000
00001000
00000010
00000100
00010000
00010000
00010000
,
00000010
00000100
00001000
00100000
01000000
00010000
00010000
00010000
,
00000010
00000100
00001000
00000100
00000010
00000100
00000100
00000100
,
00000010
00000000
00000100
00000000
00000000
00000000
00001000
00000000
00000000
00000000
00001000
00000100
00001000
00000000
00000200
00000000
,
00000000
00000000
00000001
00000000
00000000
00000000
00000301
00000000
00000000
00000000
00000010
00000001
00000010
00000000
00002000
00000000
,
00000000
00000000
00000010
00000000
00000000
00000000
00003010
00000000
00000000
00000000
00000001
00001000
00000001
00000000
00002000
00000000
,
00000000
00000000
00000100
00000000
00000000
00000000
00003100
00000000
00000000
00000000
00010000
00001000
00010000
00000000
00002000
00000000
,
00000000
00000000
01000000
00000000
00000000
00000000
01003000
00000000
00000000
00000000
00010000
10000000
00010000
00000000
20000000
00000000
,
00000000
00000000
00100000
00000000
00000000
00000000
30100000
00000000
00000000
00000000
01000000
00010000
01000000
00000000
00020000
00000000
,
00000000
00000000
10000000
00000000
00000000
00000000
10030000
00000000
00000000
00000000
00100000
01000000
00100000
00000000
02000000
00000000
,
00000000
00000000
00001000
00000000
00000000
00000000
03001000
00000000
00000000
00000000
00010000
00001000
00010000
00000000
00001000
00000000
,
00000000
00022000
00000000
00000000
00000000
00000000
00033000
00000000
;
