#TITLE:After all (Svenson & Gielen Remix Edit);
#ARTIST:Delirium;
#BANNER:After all (Svenson & Gielen Remix Edit).png;
#BACKGROUND:After all (Svenson & Gielen Remix Edit)-bg.png;
#CDTITLE:./CDTITLES/DANCE DANCE REVOLUTION ULTRAMIX 2.PNG;
#MUSIC:After all (Svenson & Gielen Remix Edit).ogg;
#SAMPLESTART:40.43;
#SAMPLELENGTH:15;
#DISPLAYBPM:135;
#BPMS:0=135.1,124=135.08,156=134.93,196=135.08,244=133.8;

//---------------dance-single - ----------------
#NOTES:
     dance-single:
     :
     Beginner:
     1:
     :
0000
0000
0000
0000
,
0000
0000
0000
0000
,
0000
0000
0000
0000
,
0000
0000
0000
0000
,
0000
0000
0000
0000
,
0100
0000
0000
0001
,
0000
0000
0110
0000
,
0001
0000
0001
0000
,
0001
0000
0000
1000
,
0000
0000
0000
0100
,
0000
0000
0000
0001
,
0000
0000
0010
0000
,
1000
0000
1000
0000
,
1000
0000
1000
0000
,
0100
0000
0100
0000
,
1000
0000
1000
0000
,
0010
0000
0000
0100
,
0000
0000
0001
0000
,
0001
0000
0010
0000
,
1000
0000
1000
0000
,
0010
0000
0010
0000
,
1000
0000
1000
0000
,
1000
0000
0000
0000
,
0000
0001
0000
0001
,
0000
1000
0000
0001
,
0000
0010
0000
0010
,
0000
0100
0000
0100
,
0000
1000
0000
1000
,
0000
0001
0000
1000
,
0000
0010
0000
0010
,
0000
0010
0000
0100
,
0000
0001
0000
0010
,
0000
1000
0000
0100
,
0000
0001
0000
0010
,
0000
1000
0000
0100
,
0000
0000
1000
0000
,
0001
0000
0100
0000
,
0001
0000
0001
0000
,
0010
0000
0010
0000
,
1001
0000
0000
0001
,
0000
1000
0000
1000
,
0000
0010
0000
0100
,
0000
0001
0000
1000
,
0000
0100
0000
0100
,
0000
0010
0000
0010
,
0000
1000
0000
0001
,
0000
0010
0000
0100
,
0000
0000
0000
0000
,
0000
0000
0000
0000
,
1000
0000
0100
0000
,
1000
0000
0100
0000
,
0100
0000
0010
0000
,
1000
0000
0100
0000
,
1000
0000
1000
0000
,
0100
0000
0010
0000
,
1000
0000
0100
0000
,
1000
0000
0100
0000
,
0100
0000
0100
0000
,
0010
0000
1000
0000
,
0001
0000
0100
0000
,
0010
0000
1000
0000
,
0100
0000
0000
0000
;

//---------------dance-single - ----------------
#NOTES:
     dance-single:
     :
     Easy:
     4:
     :
0000
0000
0000
0000
,
0000
0000
0000
0000
,
0000
0000
0000
0000
,
0000
0000
0000
0000
,
0000
0000
0000
0000
,
0100
0000
0000
0001
,
1000
0000
0110
0000
,
0001
1000
0001
1000
,
0002
0000
0000
1003
,
2000
0000
0000
3100
,
0020
0000
0000
0031
,
0200
0300
0020
0030
,
1000
0010
1000
0001
,
1000
0100
1000
0001
,
0100
0010
0100
0001
,
1000
0100
1000
0100
,
0020
0000
0000
0130
,
1000
0000
0001
0001
,
0001
0000
0010
0100
,
1000
0000
1000
0000
,
0010
0000
0010
0000
,
1000
0001
1000
0100
,
2000
0000
0000
3000
,
0000
0001
0000
0001
,
0000
1000
0000
0001
,
0000
0010
0000
0010
,
0000
0100
0000
0100
,
0000
1000
0000
1000
,
0000
0001
0000
1000
,
0000
0010
0000
0010
,
0001
0010
1000
0100
,
0001
0001
1000
0010
,
1000
1000
0001
0100
,
0001
0001
0100
0010
,
1000
1000
0010
0100
,
0002
0003
2000
3000
,
0001
1000
0100
1000
,
0001
0100
0001
1000
,
0010
0100
0010
1000
,
1001
0001
0000
0001
,
0000
1000
0000
1000
,
0000
0010
0000
0100
,
0000
0001
0000
1000
,
0000
0100
0000
0100
,
0000
0010
0000
0010
,
0000
1000
0000
0001
,
1000
0010
0001
0100
,
2000
0000
0000
0000
,
0000
0000
0000
3000
,
1000
0010
0100
0001
,
1000
0001
0100
0010
,
0100
0001
0010
0100
,
1000
0010
0100
0010
,
1000
0001
1000
0010
,
0100
0001
0010
0100
,
1000
0010
0100
0001
,
1000
0001
0100
0010
,
0100
0000
0100
0000
,
0010
0000
1000
0000
,
0001
0000
0100
0000
,
0010
0000
1000
0000
,
0200
0000
0000
0300
0000
0000
0000
0000
;

//---------------dance-single - ----------------
#NOTES:
     dance-single:
     :
     Medium:
     6:
     :
0000
0000
0000
0000
,
0000
0000
0000
0000
,
0000
0000
0000
0000
,
0000
0000
0000
0000
,
0000
0000
0000
0000
,
0001
0001
1000
1000
,
0010
0100
1001
0000
,
0110
0001
1000
0001
,
0200
0301
1000
0100
,
2000
3001
0100
0010
,
1000
0100
0010
0100
,
2000
0000
3000
0011
,
0100
0100
0010
0010
,
0200
0301
1000
0100
,
1000
0000
0001
0000
0010
1000
0100
0000
,
1000
0010
0001
0010
,
1000
0000
0001
1000
0100
0000
0010
0000
,
0100
0000
0010
0000
0001
0100
0001
0000
,
1000
0000
0001
0000
1000
0010
1000
0000
,
0100
0000
0100
0001
0010
0000
0100
0000
,
1000
0000
1000
0100
1000
0000
0001
0000
,
0200
0000
0000
0000
0302
0000
0000
0003
2000
0000
0000
0000
3010
0000
0000
0000
,
0100
0001
0100
0010
0100
0001
0100
0000
,
0020
0000
0000
0000
1000
0030
0000
0000
0002
0000
0000
0000
1003
0000
0000
0000
,
2000
0000
3100
0000
0020
0000
0130
1000
,
0200
0000
0310
0002
0000
0000
0003
0100
,
0002
0000
1003
0002
0000
0100
0103
0000
,
0200
0301
2000
3001
,
0020
0130
2000
3001
,
0010
1000
0100
0000
0001
1000
0010
0000
,
1000
0010
1000
0010
1000
0010
1000
0000
,
1000
1010
0001
0011
,
1000
1100
0001
0101
,
0010
0110
1000
1001
,
0101
1100
1010
0011
,
1001
0000
0100
0000
0100
0000
0000
0020
0000
0000
0000
0000
0130
0000
0000
0000
,
1010
0000
0001
0000
0001
0000
0000
0200
0000
0000
0000
0000
0301
0000
0000
0000
,
1001
0000
0010
0000
0010
0000
0000
2000
0000
0000
0000
0000
3100
0000
0000
0000
,
0001
0010
0100
1000
0001
0010
0100
0000
,
1001
0000
0001
0100
1000
0000
0110
0000
,
1000
0000
1010
0100
0001
0000
0110
0000
,
0001
0000
1010
0100
0001
0000
0101
0000
,
1002
0100
1000
0103
,
2200
0000
3300
0001
0100
0000
1001
0000
,
0202
0000
0303
1000
0010
0000
0110
0000
,
2200
3300
0202
0303
,
0001
0100
1000
0100
,
0202
0000
0000
0000
,
0000
0303
0000
0000
0000
0000
0000
0000
0000
0000
0000
0000
0000
0000
0000
0000
,
1001
0000
1000
0100
1000
0000
0101
0000
,
0001
0100
0002
0000
1000
0000
1003
0000
,
0110
0000
1010
0000
0010
0100
0001
0000
,
1000
0001
1000
0000
0001
0100
0010
0000
,
0110
1001
0101
1001
,
0100
0000
1000
0010
0100
0001
1000
0000
,
0200
0000
0300
1000
0100
1000
0100
0000
,
1000
0100
0001
0100
1000
0100
0001
0000
,
0010
1000
0010
0000
0001
0100
0001
0000
,
0010
0001
0010
0000
1000
0100
1000
0000
,
1001
0202
0000
0000
0303
0000
0110
0000
,
1001
2200
0000
0000
0000
0000
3300
0000
,
0001
0010
0100
1000
0000
0000
0000
0000
;

//---------------dance-single - ----------------
#NOTES:
     dance-single:
     :
     Hard:
     8:
     :
0000
0000
0000
0000
,
0000
0000
0000
0000
,
0000
0000
0000
0000
,
0000
0000
0000
0000
,
0000
0000
0000
0000
,
0000
0010
0000
1000
0000
0001
0000
0100
,
0000
0010
0000
0100
2002
0000
3003
0000
,
0100
0100
0000
0010
0000
1000
0000
0100
,
1000
0000
1000
0100
0000
0010
0000
0001
,
0000
1000
0000
0202
0000
0000
0300
0000
,
0000
0100
0000
0100
0000
0103
0000
0001
,
1000
0000
0000
2020
0000
0000
0000
3000
,
0000
0100
0000
0130
0000
0001
0010
0200
,
0000
0000
0000
0000
0300
0000
0000
0000
0000
0000
0010
0000
0000
0100
0000
0000
,
1000
0000
0001
0000
1000
0100
1000
0000
0001
0100
0001
0000
1000
0010
1000
0000
,
0100
0000
1010
0000
1100
0000
0010
0100
,
0010
0000
0000
0000
0200
0000
1000
0000
0000
0000
0001
0000
0000
0000
1000
0300
,
0000
0020
0000
0000
0030
0000
0000
0001
,
0000
0000
0010
0000
0100
0000
0000
0010
0000
0000
0001
0000
0000
0000
0100
0000
,
0100
0000
0000
0010
0000
0000
1000
0000
1000
0000
0000
0100
0000
0000
0010
0000
,
0010
0000
0000
0100
0000
0000
0002
0000
0000
0000
0003
0000
0000
0000
0100
0000
,
1000
0000
0000
0010
0000
0000
0100
0000
0000
0000
2000
0000
0000
0000
0000
0000
,
3000
0100
0001
0010
0100
0000
1000
0010
,
0100
0000
0000
0001
0000
0000
1000
0000
0100
0000
1000
0000
0000
0000
0010
0000
,
0200
0000
0000
1000
0000
1000
0000
1300
,
0001
0000
0001
1000
0000
1001
0000
0010
,
1000
0010
0100
0010
0000
0110
0000
1000
,
0100
0001
0000
0001
1000
0000
1000
0200
,
0000
0000
0300
1000
0010
0001
1000
0100
,
0001
0000
0000
0000
1000
0000
0010
0000
0000
0000
1001
0000
0000
0000
0100
0001
,
0100
0002
0000
0000
0000
0000
0000
0000
0000
0000
0003
0000
0000
0000
1001
0000
,
0000
0000
1000
0000
0100
0010
0000
0010
0000
0010
0000
0001
1000
0000
0010
0000
,
0000
0000
0100
0000
0010
1000
0000
1000
0000
1000
0000
0001
1000
0000
0100
0000
,
0000
0000
0010
0000
0001
0100
0000
0100
0000
0100
0000
0010
1000
0000
0001
0000
,
0000
0000
0001
0000
0010
0100
0000
0100
0000
0100
0000
1000
0001
0000
0010
0000
,
0000
0000
1000
0000
0010
1000
0000
0001
0000
1000
0000
0100
1000
0000
0010
0000
,
0000
0000
0001
0000
0010
0001
0000
1000
0000
0001
0000
0100
0001
0000
0010
0000
,
0000
0000
1000
0000
0100
0010
0000
0001
0000
1000
0000
0001
0100
0000
1000
0000
,
0000
0000
0001
0000
0100
0010
0000
1000
0000
0001
0000
1000
0100
0000
0001
0000
,
0100
0000
1000
0010
0100
1000
0000
0202
,
0000
0003
0000
0000
1300
0000
0100
0000
0001
0000
0000
1000
0000
0000
0020
0000
,
0000
0000
0000
0000
1000
0000
0000
0000
0000
0000
1030
0000
0100
1000
0000
0010
,
0000
0100
0001
0000
0010
0100
0000
1000
0000
0010
1000
0000
0100
0000
0010
0000
,
0200
0000
0000
1000
0000
0000
0010
0000
0300
0000
0000
0000
0001
0000
0010
0000
,
0200
0000
0000
0001
0000
0000
1000
0000
0300
0000
0000
0000
0001
0000
0200
0000
,
0000
0000
0300
0000
0100
1000
0010
0100
,
0001
0000
0100
0001
1000
0000
0010
2000
,
0000
0000
3001
1000
0001
1000
0001
1000
,
2002
0000
0000
3003
,
0110
0000
1000
0010
1000
0001
0000
0101
,
0000
0000
0001
0010
0001
1000
0000
2100
,
0000
0000
0000
0000
3001
0000
0000
1000
0000
0010
0100
0000
0001
0000
0000
0010
,
0000
0001
1000
0000
0100
0000
0000
0010
0000
0100
1000
0000
0001
0000
0100
0000
,
0020
0000
0000
0001
0000
0000
1030
0000
0000
0000
0000
0000
0100
0000
0001
0000
,
0020
0000
0000
0100
0000
0000
2030
0000
0000
0000
0000
0000
3001
0000
0200
0000
,
0000
0000
0300
0000
1000
0010
0100
0001
,
1000
0000
0001
0010
1000
0000
0010
1001
,
0000
0000
1000
0000
0100
1000
0100
1000
0000
0000
0001
0000
0100
0001
0100
0001
,
0000
0000
1000
0000
0010
1000
0010
1000
0000
0000
0001
0000
0010
0001
0010
0001
,
0000
0000
0100
0000
0010
0100
0010
0100
0000
0000
0001
0000
1000
0001
1000
0001
,
0000
0000
0010
0000
1000
0001
1000
0010
0000
0000
1000
0000
0001
1000
0001
0100
,
0010
1000
0100
0001
0000
0000
0000
0000
;

//---------------dance-double - ----------------
#NOTES:
     dance-double:
     :
     Beginner:
     1:
     :
00000000
00000000
00000000
00000000
,
00000000
00000000
00000000
00000000
,
00000000
00000000
00000000
00000000
,
00000000
00000000
00000000
00000000
,
00000000
00000000
00000000
00000000
,
01000000
00000000
00010000
00000000
,
10000000
00000000
01000000
00000000
,
10000000
00000000
00000000
00000000
,
10000000
00000000
00000000
00000000
,
00100000
00000000
00000000
00000000
,
00100000
00000000
00000000
00000000
,
01000000
00000000
00000000
00000000
,
01000000
00000000
00000000
00000000
,
10000000
00000000
00000000
00000000
,
10000000
00000000
00000000
00000000
,
00001000
00000000
00000000
00000000
,
00001000
00000000
00000000
00000000
,
00000100
00000000
00000000
00000000
,
00000100
00000000
00000000
00000000
,
00000010
00000000
00000000
00000000
,
00000010
00000000
00000000
00000000
,
00001000
00000000
00000000
00000000
,
00001000
00000000
00000000
00000000
,
00000000
00000001
00000000
00000100
,
00000000
00000100
00000000
00001000
,
00000000
00001000
00000000
00010000
,
00000000
00010000
00000000
00100000
,
00000000
00100000
00000000
10000000
,
00000000
10000000
00000000
01000000
,
00000000
00000000
00000000
00000000
,
00100000
00000000
00000000
00000000
,
00000000
10000000
00000000
10000000
,
00000000
00100000
00000000
00001000
,
00000000
00010000
00000000
00000010
,
00000000
00000001
00000000
00000001
,
00000000
00000001
00000000
00000001
,
00000000
00000100
00000000
00010000
,
00000000
00001000
00000000
00100000
,
00000000
10000000
00000000
10000000
,
00000000
00000000
00000000
00100000
,
00000000
00000000
00000000
01000000
,
00000000
00000000
01000000
00000000
,
00000000
00010000
00000000
00001000
,
00000000
00000100
00000000
00000010
,
00000000
00000000
00000000
00000100
,
00000000
00000000
00000100
00000000
,
00001000
00000000
00010000
00000000
,
01000000
00000000
00000000
00000000
,
00000000
00000000
00000000
00000000
,
10000000
00000000
00100000
00000000
,
00010000
00000000
00001000
00000000
,
00000010
00000000
00000001
00000000
,
00000100
00000000
00000100
00000000
,
00000001
00000000
00000010
00000000
,
00001000
00000000
00010000
00000000
,
00100000
00000000
10000000
00000000
,
01000000
00000000
01000000
00000000
,
10000000
00000000
10000000
00000000
,
00010000
00000000
00010000
00000000
,
00001000
00000000
00001000
00000000
,
00000001
00000000
00000001
00000000
,
00001001
00000000
00000000
00000000
;

//---------------dance-double - ----------------
#NOTES:
     dance-double:
     :
     Easy:
     3:
     :
00000000
00000000
00000000
00000000
,
00000000
00000000
00000000
00000000
,
00000000
00000000
00000000
00000000
,
00000000
00000000
00000000
00000000
,
00000000
00000000
00000000
00000000
,
01000000
00000000
00010000
00000000
,
10000000
00000000
01000000
00000000
,
10000000
01000000
00000000
00000000
,
10000000
01000000
00000000
00000000
,
00100000
00010000
00000000
00000000
,
00100000
00010000
00000000
00000000
,
01000000
00010000
00000000
00000000
,
01000000
00010000
00000000
00000000
,
10000000
00100000
00000000
00000000
,
10000000
00100000
00000000
00000000
,
00001000
00000010
00000000
00000000
,
00001000
00000010
00000000
00000000
,
00000100
00000001
00000000
00000000
,
00000100
00000001
00000000
00000000
,
00000010
00000001
00000000
00000000
,
00000010
00000001
00000000
00000000
,
00001000
00000100
00000000
00000000
,
00001000
00000100
00000000
00000000
,
00000000
00000001
00000001
00000100
,
00000000
00000100
00000100
00001000
,
00000000
00001000
00001000
00010000
,
00000000
00010000
00010000
00100000
,
00000000
00100000
00100000
10000000
,
00000000
10000000
10000000
01000000
,
02000000
00000000
00000000
03000000
,
00200000
00000000
00000000
00300000
,
00000000
10000000
00010000
10000000
,
00000000
00100000
01000000
00001000
,
00000000
00010000
00000100
00000010
,
00000000
00000001
00001000
00000001
,
00000000
00000001
00001000
00000001
,
00000000
00000100
00000010
00010000
,
00000000
00001000
01000000
00100000
,
00000000
10000000
00010000
10000000
,
02000000
00000000
00000000
03100000
,
00200000
00000000
00000000
01300000
,
10010000
00000000
01000000
00000000
,
00010000
00000000
00001000
00000000
,
00000200
00000000
00000000
00000310
,
00000020
00000000
00000000
00000130
,
00001001
00000000
00000100
00000000
,
00001000
00000000
00010000
00000000
,
02000000
00000000
00000000
00000000
,
00000000
00000000
00000000
03000000
,
10000000
00000000
00100000
00000000
,
00010000
00000000
00001000
00000000
,
00000010
00000000
00000001
00000000
,
00000100
00000000
00000100
00000000
,
00000001
00000000
00000010
00000000
,
00001000
00000000
00010000
00000000
,
00100000
00000000
10000000
00000000
,
01000000
00000000
01000000
00000000
,
10000000
10000000
10000000
00000000
,
00010000
00010000
00010000
00000000
,
00001000
00001000
00001000
00000000
,
00000001
00000001
00000001
00000000
,
00002002
00000000
00000000
00003003
00000000
00000000
00000000
00000000
;

//---------------dance-double - ----------------
#NOTES:
     dance-double:
     :
     Medium:
     6:
     :
00000000
00000000
00000000
00000000
,
00000000
00000000
00000000
00000000
,
00000000
00000000
00000000
00000000
,
00000000
00000000
00000000
00000000
,
00000000
00000000
00000000
00000000
,
00000000
00010000
00000000
00010000
00000000
10000000
00000000
10000000
,
00000000
00100000
00000000
01000000
00000000
10010000
00000000
00000000
,
00000000
00000000
00000000
00000000
00000000
00000000
00000000
00100000
,
00010000
00000000
10000000
00100000
00000000
01000000
00000000
00001000
,
00000000
00010000
00000000
00002000
00000000
00000000
00000000
00000000
,
00000000
00000000
00000000
00000000
00000000
00003000
00000000
00000100
,
00000001
00000000
00000000
00000020
00000000
00000000
00000000
00000000
,
00000030
00000000
00000000
00000000
00000000
00000000
00000100
00020000
,
00000000
00000000
00000000
00030000
00000000
00001000
00000000
00010000
,
00000000
00100000
00000000
10000000
00000000
01000000
00000000
00100000
,
00000000
00010000
00000000
01000000
00000000
00100000
00000000
10000000
,
00010000
00000000
10000000
00010000
00000000
00100000
00000000
01000000
,
00000000
20000000
00000000
00000000
00000000
00000000
00000000
00000000
,
30000000
00000000
00000000
00000000
00000000
00000000
00000000
00000000
00000000
00000000
00000000
10000000
00000000
00000000
01000000
00000000
,
00010000
00000000
00000000
00001000
00000000
00000000
00000010
00000000
00000001
00000000
00000000
00000100
00000000
00000000
00001000
00000000
,
00010000
00000000
00000000
00100000
00000000
00000000
20000000
00000000
00000000
00000000
30000000
00000000
00000000
00000000
01000000
00000000
,
00100000
00000000
00000000
00010000
00000000
00000000
00100000
00000000
00000000
00000000
02000000
00000000
00000000
00000000
00000000
00000000
,
00000000
00000000
00000000
00000000
03000000
00000000
10000000
01000000
,
10000000
00000000
00000000
00010000
00000000
00000000
00100000
00000000
01000000
00000000
00100000
00000000
00000000
00000000
00010000
00000000
,
02000000
00000000
00000000
00000000
00000000
00000000
00000000
03001000
,
00010000
00000000
00001000
00010000
00000000
00000000
00000000
00001000
,
00000100
00000001
00000100
00000001
00000000
00000000
00000000
00001000
,
00000010
00001000
00000000
00000001
00000010
00000000
00000100
00002000
,
00000000
00003000
00000000
00000000
,
00001001
00000000
00000100
00000100
00000000
00000010
00000000
00002002
,
00000000
00000000
00000000
00000000
00000000
00003003
00000000
00001000
,
00000001
00000101
00001000
00001100
,
00000001
00000011
00001000
00001010
,
00000001
00000100
00001000
00000000
00010000
00000000
00011000
00000000
,
00001000
00010000
01000000
00000000
10000000
00000000
10010000
00000000
,
10000000
11000000
00010000
01010000
,
10000000
10100000
00010000
00110000
,
10000000
00100000
00010000
00000000
00001000
00000000
00011000
00000000
,
00010000
00001000
00000010
00000000
00000001
00000000
00001001
00000000
,
00000000
00000000
00000010
00000100
00001000
00000001
00000000
00000010
,
00000000
00000000
00000000
00000000
00000001
00000000
00001000
00000000
00000001
00000000
00000000
00001000
00000000
00000000
00000100
00000000
,
00000000
00000000
00000000
00000000
00001000
00000000
00000000
00000000
00000000
00000000
00000010
00000000
00000010
00000000
00000000
00000010
,
00000000
00000000
00000100
00000000
00000100
00000000
00000000
00000100
00000000
00000000
00000001
00000000
00000001
00000000
00000000
00000000
,
00000020
00000000
00000000
00000100
00000000
00000000
00000130
00000000
00000000
00000000
00000000
00000000
00001000
00000000
00000010
00000000
,
00000200
00000000
00000000
00000010
00000000
00000000
00000310
00000000
00000000
00000000
00000000
00000000
00002000
00000000
00000002
00000000
,
00000000
00000000
00003003
00000000
00000100
00000001
00001000
00000010
,
00000100
00000000
00001000
00010000
00100000
00000000
01000000
00020000
,
00000000
00000000
00000000
00000000
,
20000000
00000000
00000000
30030000
,
00000000
00000000
10000000
00100000
01000000
00010000
00000000
01010000
,
00000000
00000000
00010000
00100000
01000000
10000000
00000000
21000000
,
00000000
00000000
00000000
00000000
30010000
00000000
00000000
00000000
00000000
00000000
00010000
00000000
00010000
00000000
00000000
00010000
,
00000000
00000000
00100000
00000000
00100000
00000000
00000000
00100000
00000000
00000000
01000000
00000000
01000000
00000000
00000000
00000000
,
20000000
00000000
00000000
00010000
00000000
00000000
30010000
00000000
00000000
00000000
00000000
00000000
01000000
00000000
00001000
00000000
,
00020000
00000000
00000000
00001000
00000000
00000000
00031000
00000000
00000000
00000000
00000000
00000000
00001000
00000000
00000200
00000000
,
00000000
00000000
00000300
00000000
00000001
00000010
00000100
00001000
,
00000100
00000000
00000010
00000001
00000010
00000000
00000100
00001000
,
00000100
00010000
00001000
00010000
00000100
00010000
00001000
01000000
,
00100000
10000000
00100000
01000000
00010000
01000000
00010000
00100000
,
01000000
10000000
01000000
00100000
00010000
01000000
00100000
00010000
,
00001000
00000100
00000001
00000010
00000100
00001000
00000100
00000010
,
00000001
00000010
00000100
00001000
00000000
00000000
00000000
00000000
;

//---------------dance-double - ----------------
#NOTES:
     dance-double:
     :
     Hard:
     9:
     :
00000000
00000000
00000000
00000000
,
00000000
00000000
00000000
00000000
,
00000000
00000000
00000000
00000000
,
00000000
00000000
00000000
00000000
,
00000000
00000000
00000000
00000000
,
00000000
00010000
00000000
00001000
00000000
01000000
00000000
00100000
,
00000000
10000000
00000000
01000000
20020000
00000000
30030000
00000000
,
10000000
01000000
00000000
00100000
00000000
00001000
00000000
00010000
,
00001000
00000000
00010000
00001000
00000000
00000010
00000000
00000001
,
00000000
00001000
00000000
00002002
00000000
00000000
00000000
00000003
,
00000000
00000001
00000000
00000001
00000000
00003001
00000000
00000001
,
00000100
00000000
00000000
00002002
00000000
00000000
00000000
00003000
,
00000000
00000100
00000000
00000100
00000000
00000103
00000010
00020000
,
00000000
00000000
00000000
00000000
00000000
00000000
00030000
00000000
00000000
00000000
00001000
00000000
00000000
01000000
00000000
00000000
,
00100000
00100000
10000000
10000000
00010000
00010000
01000000
01000000
,
00100000
10000000
00000000
00010000
00000000
10000000
00000000
01000000
,
00100000
00000000
00100000
01000000
00000000
10000000
00000000
00010000
,
00000000
00100000
00000000
00000000
00000000
00000000
00000000
00001000
,
00000000
00000000
00000100
00000000
00000001
00000000
00000000
00000010
00000000
00000000
00000100
00000000
00000000
00000000
00001000
00000000
,
00000001
00000000
00000000
00000100
00000000
00000000
00000001
00000000
00001000
00000000
00000000
00000100
00000000
00000000
00001000
00000000
,
00000010
00000000
00000000
00000100
00000000
00000000
00000002
00000000
00000000
00000000
00000003
00000000
00000000
00000000
00000100
00000000
,
00001000
00000000
00000000
00010000
00000000
00000000
00001000
00000000
00000000
00000000
00020000
00000000
00000000
00000000
00000000
00000000
,
00000000
00000000
00001000
00001000
00031000
00000000
00010000
00100000
,
01000000
00000000
00000000
00010000
00000000
00000000
10000000
00000000
01000000
00000000
10000000
00000000
00000000
00000000
00100000
00000000
,
02000000
00000000
00000000
00010000
00000000
00010000
00000000
03010000
,
10000000
00000000
00010000
10000000
00000000
10010000
00000000
00100000
,
01000000
00100000
01000000
00100000
00000000
10010000
00000000
10000000
,
01000000
10000000
00000000
00010000
01000000
00000000
00001000
00020000
,
00000000
00000000
00030000
00001000
00000010
00000001
00001000
00000100
,
00000001
00000000
00000100
00001000
00000000
00001001
00000000
00000100
,
00002002
00000000
00000000
00000000
00000000
00003003
00000000
00001001
,
00000000
00000000
00000001
00000000
00000100
00000001
00000000
00001000
00000000
00000010
00000000
00000100
00000000
00000000
00001000
00000000
,
00000000
00000000
00010000
00000000
00100000
01000000
00000000
00010000
00000000
10000000
00000000
01000000
00000000
00000000
10000000
00000000
,
00000000
00000000
00010000
00000000
10000000
01000000
00000000
00100000
00000000
01000000
00000000
10000000
00000000
00000000
00010000
00000000
,
00000000
00000000
10000000
00000000
00010000
01000000
00000000
00100000
00000000
01000000
00000000
00010000
00000000
00000000
10000000
00000000
,
00000000
00000000
10000000
00000000
01000000
10000000
00000000
00010000
00000000
01000000
00000000
00100000
00000000
00000000
00010000
00000000
,
00000000
00000000
00001000
00000000
00000100
00000010
00000000
00001000
00000000
00000001
00000000
00000100
00000000
00000000
00000001
00000000
,
00000000
00000000
00001000
00000000
00000001
00000100
00000000
00000010
00000000
00000100
00000000
00000001
00000000
00000000
00001000
00000000
,
00000000
00000000
00000001
00000000
00001000
00000100
00000000
00000010
00000000
00000100
00000000
00001000
00000000
00000000
00000001
00000000
,
00000100
00000000
00000001
00001000
00000100
00001000
00000000
00000110
,
00000000
00000000
00000000
00000000
00001000
00000000
00000001
00000000
00001000
00000000
00000000
00000001
00000000
00000000
00000100
00000000
,
00000000
00000000
00000000
00000000
00000001
00000000
00000000
00000000
00000000
00000000
00001000
00000000
00000100
00001000
00000100
00001000
,
00000000
00000000
00000100
00000000
00000010
00000001
00000010
00000001
00000000
00000000
00000100
00000000
00000010
00001000
00000010
00001000
,
00000020
00000000
00000000
00000100
00000000
00000000
00000130
00000000
00000000
00000000
00000000
00000000
00000001
00000000
00000010
00000000
,
00000200
00000000
00000000
00000010
00000000
00000000
00000310
00000000
00000000
00000000
00000000
00000000
00000002
00000000
00002000
00000000
,
00000000
00000000
00003003
00000000
00000100
00010000
00001000
00010000
,
00001000
00000000
00010000
01000000
10000000
00000000
00100000
20000000
,
00000000
00000000
30010000
01000000
00010000
10000000
01000000
10000000
,
20020000
00000000
00000000
30030000
,
10100000
00000000
10000000
00100000
01000000
00010000
00000000
01010000
,
00000000
00000000
00010000
00100000
01000000
10000000
00000000
21000000
,
00000000
00000000
00000000
00000000
31000000
00000000
00000000
00000000
00000000
00000000
10000000
00000000
00010000
01000000
00010000
01000000
,
00000000
00000000
00100000
00000000
10000000
01000000
10000000
01000000
00000000
00000000
00100000
00000000
00001000
00010000
00001000
00010000
,
00002000
00000000
00000000
00010000
00000000
00000000
00013000
00000000
00000000
00000000
00000000
00000000
00000100
00000000
00000001
00000000
,
00000020
00000000
00000000
00000001
00000000
00000000
00000031
00000000
00000000
00000000
00000000
00000000
00001000
00000000
00000200
00000000
,
00000000
00000000
00000300
00000000
00001000
00000001
00000100
00001000
,
00010000
00000000
00001000
00010000
01000000
00000000
10000000
00010000
,
10000000
01000000
10000000
00000000
00010000
01000000
00010000
01000000
00000000
00000000
00100000
00000000
10000000
01000000
10000000
01000000
,
00000000
00000000
00100000
00000000
00001000
00010000
00001000
00010000
00000000
00000000
00000010
00000000
00001000
00000100
00001000
00000000
,
00000001
00000100
00000001
00000000
00001000
00000010
00001000
00000010
00000000
00000000
00001000
00000000
00000001
00000100
00000001
00000100
,
00000000
00000000
00000001
00000000
00000010
00000100
00000010
00000100
00000000
00000000
00001000
00000000
00000001
00001000
00000001
00001000
,
00000001
00000010
00000100
00001000
00000000
00000000
00000000
00000000
;
