#TITLE:.59 remix;
#ARTIST:Jesper Kyd;
#BANNER:59 remix.png;
#BACKGROUND:59 remix-bg.png;
#MUSIC:59 remix.ogg;
#SAMPLESTART:35.29;
#SAMPLELENGTH:15;
#DISPLAYBPM:130;
#BPMS:0=130,35=86.66,36=130;
#BGCHANGES:11.5=59 remix.avi=1=1=0=0,215=59 remix-bg.png=1=0=0=1;

//---------------dance-single - ----------------
#NOTES:
     dance-single:
     :
     Beginner:
     1:
     :
0000
0000
0000
0000
,
0000
0000
0000
0000
,
0000
0000
0000
0000
,
0000
0001
0000
0001
,
0000
1000
0000
1000
,
0000
0010
0000
0010
,
0000
0100
0000
0100
,
0000
0001
0000
1000
,
0000
0010
0000
0100
,
0000
0000
0010
0010
,
0010
0000
0100
0100
,
0100
0000
1000
1000
,
1000
0000
0001
0001
,
0001
0000
0100
0100
,
0100
0000
1000
1000
,
1000
0000
0001
0001
,
0001
0000
0010
0010
,
0020
0000
0000
0030
,
0000
0000
0000
0000
,
0100
0100
0100
0000
,
0001
0001
0001
0000
,
1000
0000
0010
0000
,
1000
0000
0001
0000
,
0010
0010
0010
0000
,
0100
0100
0100
0000
,
0001
0000
0010
0000
,
0100
0000
0010
0000
,
1000
0000
1000
0000
,
0001
0000
0100
0000
,
0001
0000
0001
0000
,
0100
0000
0010
0000
,
1000
1000
1000
0000
,
0100
0100
0100
0000
,
0001
0000
0100
0000
,
0010
0000
1000
0000
,
0001
0000
0001
0000
,
0001
0000
0002
0003
,
0001
0000
0010
0000
,
0100
0000
0010
0000
,
1000
0000
0100
0000
,
0001
0000
0100
0000
,
1000
0000
0001
0000
,
0010
0000
0100
0000
,
1000
0000
0100
0000
,
0001
0000
0010
0000
,
1000
1000
1000
1000
,
1000
1000
1000
0000
,
0010
0010
0010
0010
,
0010
0010
0010
0000
,
0100
0100
0100
0100
,
0100
0100
0100
0000
,
0000
0001
0000
1000
,
0000
0001
0000
0000
,
2002
0000
0000
3003
;

//---------------dance-single - ----------------
#NOTES:
     dance-single:
     :
     Easy:
     4:
     :
0000
0000
0000
0000
,
0000
0000
0000
0000
,
0000
0000
0000
0000
,
0000
0001
1000
0001
,
1000
0010
0100
0010
,
0100
0001
0100
0001
,
0100
1000
0001
0100
,
0010
0010
1000
0001
,
1000
0000
0000
0000
0100
0000
0000
0000
0001
0000
0000
0000
0020
0000
0000
0030
,
0001
1000
1000
1000
,
0100
0001
0001
0001
,
0001
0100
0001
0100
,
1000
0010
1000
0010
,
0001
0001
1000
1000
,
0010
0001
0100
0010
,
1000
0100
0010
0001
,
0100
0010
1000
0100
,
2000
0000
0000
3000
,
0002
0000
0000
0003
,
0100
1000
0010
1000
,
0001
0100
0010
1000
,
0002
1000
0000
1003
,
0010
0100
0010
0100
,
0001
0010
1000
0001
,
0100
0001
1000
0010
,
0100
0001
1000
0100
,
0010
0010
0001
0010
,
1000
0010
1000
0001
,
1000
0010
0100
0100
,
1000
0001
0010
0100
,
1000
0100
0001
0001
,
0100
1000
0010
0001
,
0010
0001
0010
0001
,
0010
0010
1000
1000
,
0010
0010
1000
1000
,
2000
3001
0002
1003
,
2000
3001
0002
1003
,
0001
0010
1000
0010
,
0001
0001
1000
0100
,
0001
0001
1000
0100
,
0010
0100
0010
0100
,
0010
0010
0100
0010
,
0001
1000
0010
0100
,
0001
0010
1000
0100
,
0010
0100
0010
0100
,
1002
0000
0000
0013
,
2001
0000
0000
3100
,
0020
0000
0130
0110
,
2000
0000
3010
1010
,
1000
0010
0001
0010
,
0100
0001
0100
0010
,
2000
0000
0001
3001
,
0002
0000
1000
0103
,
0220
0000
0000
0330
;

//---------------dance-single - ----------------
#NOTES:
     dance-single:
     :
     Medium:
     6:
     :
0000
0000
0000
0000
,
0000
0000
0000
0000
,
0000
0000
0000
0000
,
0000
1000
0001
1000
,
0001
0010
0100
0000
0010
0000
0100
0000
,
0010
0001
1000
0000
0010
0000
1000
0000
,
0010
0100
0001
0000
1000
0000
0010
0000
,
0100
0001
0100
0000
0001
0000
1000
0000
,
0001
0000
0100
0000
0010
0000
0000
0000
1000
0000
0000
0000
0200
0000
0000
0300
,
1000
0000
0001
0000
0100
0000
0001
0100
,
0010
0000
1000
0000
0010
0000
0100
0001
,
0100
0000
0010
0000
1000
0000
0010
1000
,
0001
0000
0100
0000
0001
0010
0100
0000
,
1000
1100
0001
0101
,
0110
1001
0110
0110
,
0001
0010
0100
1000
,
0010
0100
0001
0010
,
0002
0000
1000
1003
,
0020
0000
0100
0130
,
0010
1000
0000
0000
0001
0000
0000
0001
0100
0000
0100
0000
0001
0000
0001
0000
,
1000
1000
0010
0010
0100
0100
0001
0001
,
2000
0010
0010
3001
,
0100
0010
0100
0010
,
1000
0010
0000
0000
0100
0000
0000
0100
0001
0000
0001
0000
1000
0000
1000
0000
,
0010
0010
1000
1000
0001
0001
0100
0100
,
0010
1000
0001
0010
,
0100
1000
0100
0000
1000
0010
0100
0000
,
0001
0100
0001
1000
,
0001
0010
0100
0000
0010
0001
0010
0000
,
0001
1000
0100
0010
,
0001
0100
0010
0000
1000
0010
1000
0000
,
0010
1000
0000
0000
0001
0000
0000
0001
0100
0000
0010
0000
1000
0000
0001
0000
,
0100
0010
1000
0001
0100
0010
1000
0001
,
0100
0000
0100
0000
0001
0100
0001
0000
,
0100
0000
0100
0000
0001
0100
0001
0000
,
0002
1003
0020
0130
,
0002
0103
0020
1030
,
1000
0010
0100
0000
0001
0010
0100
0000
,
1000
0001
1000
0000
0001
0100
0010
0000
,
1000
0010
1000
0000
0001
1000
0010
0000
,
0100
0001
0010
0000
0100
1000
0010
0000
,
0100
0010
0100
0000
0010
1000
0100
0000
,
1000
1000
0001
0000
0100
0100
0010
0000
,
1000
0010
0100
0000
0001
1000
0010
0000
,
0100
0001
0010
0000
0100
1000
0010
0000
,
2001
0000
0000
3100
,
1002
0000
0000
0013
,
0200
0000
0310
0110
,
0002
0000
0103
0101
,
0001
0100
1000
0100
,
0010
1000
0010
0100
,
0002
0000
1000
1003
,
2000
0000
0001
3010
,
0220
0000
0000
0330
;

//---------------dance-single - ----------------
#NOTES:
     dance-single:
     :
     Hard:
     8:
     :
0000
0000
0000
0000
,
0000
0000
0000
0000
,
0000
0000
0000
0000
,
0000
1010
0011
0101
,
0010
0100
1100
0000
0101
0000
0011
0000
,
1000
0100
0110
0000
1001
0000
0110
0000
,
0010
0001
1000
0100
0010
0001
1001
0000
,
0010
0001
0101
0000
1100
0000
1010
0000
,
0010
0000
1000
0000
1100
0000
0000
0000
0011
0000
0000
0000
2200
0000
0000
3300
,
0011
0110
1001
1100
,
0010
0100
0110
0000
0101
0000
1100
0000
,
1000
0100
0001
0100
0101
0000
1100
0000
,
0010
0100
1000
0100
0110
0000
1001
0000
,
0001
1000
1001
0000
1010
0000
0101
0000
,
0010
0001
0100
1000
1100
0000
0101
0000
,
1000
0001
0100
1000
0100
0010
0110
0000
,
0010
0100
1100
0000
0101
0000
0011
0000
,
1000
1000
0001
0001
0100
0100
0010
0010
,
1000
1000
0001
0001
0100
0100
1001
0000
,
0010
0100
0000
0000
0100
0000
0000
0001
0000
0001
0100
0000
0100
0000
1000
0000
,
1000
0000
0100
0000
0001
0000
0001
0100
0000
0100
0001
0000
0100
0000
0010
0000
,
1000
1000
0010
0010
0100
0100
0001
0001
,
0010
0010
0100
0100
0010
0010
0110
0000
,
0100
0010
0000
0000
0010
0000
0000
0001
0000
0001
0100
0000
0100
0000
1000
0000
,
1000
0000
0100
0000
0001
0000
0001
0100
0000
0100
0010
0000
0010
0000
1000
0000
,
1000
0001
0001
0010
0010
0001
0001
1000
,
1000
0100
0100
0010
0010
0100
1100
0000
,
0101
0000
0010
0100
1100
0000
0110
0000
,
1000
0001
1000
0001
1001
0000
0110
0000
,
1001
0000
0100
0010
0110
0000
1001
0000
,
0001
1000
0001
1000
1001
0000
0011
0000
,
0010
0100
0000
0000
0100
0000
0000
1000
0000
1000
0100
0000
0100
0000
0001
0000
,
0001
0000
0100
0000
0100
0000
0010
0001
0000
0001
0100
0000
0100
0000
1000
0000
,
1000
0100
0100
0010
0010
1000
1000
0001
,
0001
0100
0100
0010
0010
1000
1001
0000
,
1100
0101
0011
1010
,
0110
1001
2002
0000
,
3003
0000
0110
0000
1010
0100
0001
0000
,
0101
0000
0010
0001
0100
0001
0101
0000
,
1010
0000
1100
0100
0001
0000
0110
0000
,
0001
0100
1000
0100
1001
0000
0110
0000
,
1001
0000
0110
0100
0010
0000
1010
0000
,
0010
1000
0100
0010
0011
0000
1100
0000
,
0101
0000
1100
0100
0010
0000
0101
0000
,
0100
0010
0100
0010
1010
0000
1001
0000
,
1001
0100
0010
0000
1001
0010
0100
0000
,
1000
0001
0100
0001
1000
0100
1001
0000
,
0010
0001
0100
1000
0100
0001
0110
0000
,
0010
1000
0100
0001
0100
1000
0110
0000
,
0010
0010
0001
0001
1000
1000
0100
0100
,
0010
0010
0001
0001
1000
1000
1001
0000
,
1001
0000
0100
1001
0000
0000
0110
0000
,
1000
0000
0100
0000
1001
0000
0000
0000
1000
0001
0000
0000
1000
0000
0001
0000
,
2002
0000
0000
3003
;

//---------------dance-double - ----------------
#NOTES:
     dance-double:
     :
     Beginner:
     1:
     :
00000000
00000000
00000000
00000000
,
00000000
00000000
00000000
00000000
,
00000000
00000000
00000000
00000000
,
00000000
00001000
00000000
00001000
,
00000000
00000000
01000000
00000000
,
01000000
00000000
00000000
01000000
,
00000000
10000000
00000000
00010000
,
00000000
01000000
00000000
00010000
,
00000000
00100000
00000000
01000000
,
00100000
00000000
00000000
10000000
,
00000000
00010000
00000000
00001000
,
00000000
00000001
00000000
00000001
,
00000000
00001000
00000000
00010000
,
00000000
10000000
00000000
10000000
,
00000000
00010000
00000000
00001000
,
00000000
00000001
00000000
00000001
,
00000000
00001000
00000000
00010000
,
00000000
10000000
00000000
01000000
,
00000000
01000000
00000000
01000000
,
00000000
01000000
00000000
01000000
,
00000000
01000000
00000000
01000000
,
00000000
00000000
00000000
00000000
,
00001000
00000000
00000000
00000000
,
00001001
00000000
00000000
00000100
,
00000000
00000100
00000000
00000100
,
00000000
00000000
00000000
00000000
,
00010000
00000000
00000000
00000000
,
01000000
00000000
00000000
00000000
,
01000000
00000000
00000000
00000000
,
10000000
00000000
00000000
00000000
,
10000000
00000000
00000000
00000000
,
10010000
00000000
00000000
01000000
,
00000000
01000000
00000000
01000000
,
00000000
00000000
00000000
00000000
,
00001000
00000000
00000000
00000000
,
00000000
00000010
00000000
00000010
,
00000000
00000010
00000000
00000000
,
00001001
00000000
00000001
00000000
,
00001000
00000000
00001000
00000000
,
00010000
00000000
00010000
00000000
,
10000000
00000000
10000000
00000000
,
00100000
00000000
01000000
00000000
,
00100000
00000000
01000000
00000000
,
10000000
00000000
00010000
00000000
,
00001000
00000000
00000001
00000000
,
00000010
00000000
00000100
00000000
,
00000010
00000000
00000100
00000000
,
00000001
00000000
00001000
00000000
,
00010000
00000000
10000000
00000000
,
10000000
00000000
00000000
00000000
,
01000000
00000000
00000000
00000000
,
00001000
00000000
00000000
00000000
,
00000100
00000000
00000100
00000000
,
00001001
00000000
00000000
00000000
;

//---------------dance-double - ----------------
#NOTES:
     dance-double:
     :
     Easy:
     3:
     :
00000000
00000000
00000000
00000000
,
00000000
00000000
00000000
00000000
,
00000000
00000000
00000000
00000000
,
00000000
00001000
00000000
00001000
,
00010000
00000000
01000000
00100000
,
01000000
10000000
00000000
01000000
,
00000000
10000000
00000000
00010000
,
00000000
01000000
00000000
00010000
,
00000000
00100000
00000000
01000000
,
00100000
00100000
00000000
10000000
,
01000000
00010000
00000000
00001000
,
00000100
00000001
00000000
00000001
,
00000100
00001000
00000000
00010000
,
01000000
10000000
00000000
10000000
,
01000000
00010000
00000000
00001000
,
00000100
00000001
00000000
00000001
,
00000100
00001000
00000000
00010000
,
01000000
10000000
00000000
01000000
,
00000000
01000000
00000000
01000000
,
10010000
01000000
00000000
01000000
,
00000000
01000000
00000000
01000000
,
00020000
00000000
00000000
00030000
,
00002000
00000000
00000000
00003000
,
00001001
00000100
00000000
00000100
,
00000000
00000100
00000000
00000100
,
00002000
00000000
00000000
00003000
,
00020000
00000000
00000000
00030000
,
01000000
00100000
00000000
00000000
,
01000000
00100000
00000000
00000000
,
10000000
00010000
00000000
00000000
,
10000000
00010000
00000000
00000000
,
10010000
01000000
00000000
01000000
,
00000000
01000000
00000000
01000000
,
00020000
00000000
00000000
00030000
,
00002000
00000000
00000000
00003000
,
00000000
00000010
00000000
00000010
,
00000000
00000020
00000000
00000030
,
00001001
00000000
00000001
00000000
,
00001000
00000000
00001000
00000000
,
00010000
00000000
00010000
00000000
,
10000000
00000000
10000000
00000000
,
00100000
00000000
01000000
00000000
,
00100000
00000000
01000000
00000000
,
10000000
00000000
00010000
00000000
,
00001000
00000000
00000001
00000000
,
00000010
00000000
00000100
00000000
,
00000010
00000000
00000100
00000000
,
00000001
00000000
00001000
00000000
,
00010000
00000000
10000000
00000000
,
10000000
01000000
00000000
00000000
,
01000000
00010000
00000000
00000000
,
00001000
00000100
00000000
00000000
,
00000100
00000000
00000100
00000000
,
00001001
00000000
00000000
00000000
;

//---------------dance-double - ----------------
#NOTES:
     dance-double:
     :
     Medium:
     6:
     :
00000000
00000000
00000000
00000000
,
00000000
00000000
00000000
00000000
,
00000000
00000000
00000000
00000000
,
00000000
00000010
00010000
00000010
,
00010000
00001000
01000000
00000000
00100000
00000000
01000000
00000000
,
00100000
10000000
10000000
01000000
,
01000000
00100000
00100000
00001000
,
00001000
00010000
00000100
00000000
00000100
00000000
00001000
00000000
,
00001000
00000000
00000000
00000000
00000001
00000000
00000000
00000000
00000001
00000000
00000000
00000000
00002002
00000000
00000000
00003003
,
00001001
00000000
00000100
00000000
00000001
00000010
00000100
00000000
,
00001100
00000000
00000001
00000000
00001000
00000010
00000100
00000000
,
00000101
00000000
00001000
00000000
00010000
01000000
10000000
00000000
,
11000000
00000000
01000000
00000000
00100000
00010000
01000000
00000000
,
10100000
00000000
00010000
00000000
10000000
00100000
01000000
00000000
,
10010000
00000000
01000000
00000000
00010000
00001000
00010000
00000000
,
00011000
00000000
00000010
00000000
00001000
00000100
00001000
00000000
,
00000101
00000000
00000010
00000000
00000100
00000001
00001000
00000001
,
00000100
00000001
00000100
00000000
00000000
00001010
00000000
00000010
,
00001000
00000010
00001000
00000000
00000000
00001010
00000000
00000000
,
00000001
00000000
00001001
00000000
00000100
00000001
00001000
00000000
,
00000001
00000100
00001000
00000100
00001000
00010000
00001000
00000000
,
00010000
00001000
00010000
01000000
00100000
00010000
01000000
00000000
,
00100000
10000000
00100000
10000000
01000000
00100000
00010000
00000000
,
10000000
00000000
10010000
00000000
01000000
10000000
00010000
00000000
,
10000000
01000000
00010000
01000000
00010000
00001000
00010000
00000000
,
00001000
00010000
00001000
00000100
00000010
00001000
00000100
00000000
,
00000010
00000001
00000010
00000001
00000100
00000010
00001000
00000000
,
00000001
00000001
00000100
00000000
00000100
00000100
00000010
00000000
,
00000010
00000010
00001000
00000000
00001000
00001000
00000100
00000000
,
00000100
00000100
00010000
00000000
00010000
00010000
01000000
00000000
,
01000000
01000000
00100000
00000000
00100000
00100000
00010000
00000000
,
10000000
00000000
11000000
00000000
10000000
01000000
00010000
00000000
,
01000000
10000000
00100000
00010000
00100000
10000000
01000000
00000000
,
10000000
00010000
01000000
00010000
10000000
01000000
00100000
00000000
,
01000000
10000000
00010000
01000000
00001000
00010000
00001000
00000000
,
00010000
00000000
00001000
00000000
00000100
00000000
00000010
00001000
,
00000010
00000000
00000100
00000000
00002000
00000002
00000000
00003003
,
00001001
00000001
00000100
00000001
,
00000100
00001000
00010000
00000000
00001000
00010000
01000000
00000000
,
10010000
10000000
01000000
10000000
,
01000000
00010000
00001000
00000000
00010000
00001000
00000100
00000000
,
00001001
00000001
00000010
00000001
,
00000010
00001000
00010000
00000000
00001000
00010000
00100000
00000000
,
10010000
10000000
00100000
10000000
,
00100000
00010000
00001000
00000000
00010000
00001000
00000010
00000000
,
00000110
00000100
00001000
00010000
,
01000000
10000000
01000000
00000000
10000000
01000000
10000000
00000000
,
01100000
01000000
00010000
00001000
,
00000100
00000001
00000100
00000000
00000001
00000100
00000001
00000000
,
00001001
00000010
00000100
00000100
,
00001000
00000001
00001000
00000000
00000001
00001000
00000001
00000000
,
00000100
00000000
00000010
00001000
00000000
00001001
00000000
00000000
,
00000001
00000000
00000100
00000000
00000000
00000100
00000000
00000000
00000100
00000000
00000000
00000000
00000001
00000000
00001000
00000000
,
00002002
00000000
00000000
00003003
;

//---------------dance-double - ----------------
#NOTES:
     dance-double:
     :
     Hard:
     8:
     :
00000000
00000000
00000000
00000000
,
00000000
00000000
00000000
00000000
,
00000000
00000000
00000000
00000000
,
00000000
00012000
00010000
00000100
,
00003100
00000102
00000100
00000010
,
00000013
00000021
00000001
00000100
,
00000130
00001200
00001000
00010000
,
00010300
00001000
00021000
00000000
00001000
00000000
01000000
00000000
,
01030000
00000000
00000000
00000000
21000000
00000000
00000000
00000000
30010000
00000000
00000000
00000000
20020000
00000000
00000000
30030000
,
10010000
00000000
00100000
00010000
00001000
00000000
00010000
00000000
,
00011000
00000000
00001000
00000010
00000001
00000000
00001000
00000000
,
00001100
00000000
00000010
00000100
00001000
00000000
00000001
00000000
,
00001100
00000000
00000001
00000100
00000010
00000000
00000100
00000100
,
00000001
00001000
00000100
00010000
00001000
00000000
00011000
00000000
,
00010000
00100000
10000000
01000000
10000000
00000000
10010000
00000000
,
01000000
00100000
10000000
01000000
00100000
00000000
01100000
00000000
,
00010000
10000000
00010000
01000000
00100000
00000000
10010000
10000000
,
01000000
10000000
01000000
00000000
00000000
00110000
00000000
00100000
,
00010000
00100000
00010000
00000000
00000000
00110000
00000000
00000000
,
01000000
00010000
00000000
00000000
01010000
00000000
00000000
00100000
00000000
10000000
00010000
00000000
10000000
00000000
01000000
00000000
,
00010000
00000000
00001000
00000000
00000100
00000000
00000001
00000010
00000000
00000001
00000010
00000000
00000001
00000000
00000100
00000000
,
00000010
00000100
00000001
00000010
00001000
00010000
00000010
00001000
,
00000100
00000001
00000100
00001000
00000100
00000010
00000001
00001000
,
00000001
00000100
00000000
00000000
00000101
00000000
00000000
00000010
00000000
00000001
00001000
00000000
00000010
00000000
00001000
00000000
,
00000001
00000000
00000100
00000000
00001000
00000000
00000100
00000001
00000000
00001000
00000100
00000000
00010000
00000000
00001000
00000000
,
01000000
00100000
00010000
00100000
10000000
01000000
00100000
01000000
,
00100000
00010000
00100000
00001000
00010000
00000010
00000100
00000001
,
00001000
00000001
00000000
00000000
00001001
00000000
00000000
00000000
00000010
00000000
00000100
00000000
00010000
00000000
00000100
00000000
,
00010000
00001000
00000000
00000000
00011000
00000000
00000000
00000000
00001000
00000000
00010000
00000000
00100000
00000000
01000000
00000000
,
00010000
10000000
00000000
00000000
10010000
00000000
00000000
00000000
00100000
00000000
01000000
00000000
00001000
00000000
00010000
00000000
,
00001000
00010000
00000000
00000000
00011000
00000000
00000000
00000000
00010000
00000000
01000000
00000000
10000000
00000000
00100000
00000000
,
10000000
01000000
00000000
00000000
11000000
00000000
00000000
00010000
00000000
01000000
00010000
00000000
10000000
00000000
01000000
00000000
,
00100000
00000000
00001000
00000000
00010000
00000000
01000000
10000000
00000000
01000000
10000000
00000000
01000000
00000000
00010000
00000000
,
00001000
00000010
00001000
00010000
01000000
00010000
00001000
00000100
,
00000001
00000010
00000100
00001000
00000001
00000010
00000100
00000100
,
00001001
00000000
00001001
00000000
00001001
00000000
00000100
00000100
,
00001001
00000000
00000000
00000000
00001001
00000000
00000000
00000000
00000110
00000000
00001000
00000001
00001000
00000001
00001000
00000001
,
00001000
00000010
00000100
00001000
00000100
00000001
00000010
00001000
,
00010000
00000010
00001000
00000100
00001000
00000001
00000100
00000001
,
00001000
00000010
00000000
00000000
00001000
00000010
00000000
00000000
00000100
00000000
00000001
00000000
00001000
00000000
00000100
00000000
,
00000010
00000001
00000000
00000000
00000010
00000001
00000000
00000000
00001000
00000000
00000100
00000000
00010000
00000000
00001000
00000000
,
00010000
00100000
01000000
00010000
10000000
01000000
00100000
00001000
,
00010000
00000100
00000010
00000001
00000100
00000010
00010000
00001000
,
01000000
00010000
00000000
00000000
10000000
00100000
00000000
00000000
01000000
00000000
00100000
00000000
10000000
00000000
01000000
00000000
,
00100000
00010000
00000000
00000000
10000000
01000000
00000000
00000000
00100000
00000000
00001000
00000000
00010000
00000000
00000000
00000000
,
00001010
00001000
00000100
00000010
00000001
00000100
00001000
00000000
,
00110000
00010000
00100000
01000000
10000000
01000000
00010000
00000000
,
01100000
00100000
01000000
10000000
01000000
00010000
00001000
00000100
,
00000110
00000010
00000100
00000001
00000100
00001000
00010000
01000000
,
10000000
00000000
00010000
01000000
00010000
00000000
00100000
00000000
00001000
00000000
00010000
00000000
00100000
00000000
10000000
00000000
,
01000000
00000000
00100000
00010000
00100000
00000000
00001000
00000000
00010000
00000000
00000100
00000000
00000010
00000000
00000001
00000000
,
00000100
00000000
00000000
00000000
00000001
00001000
00000001
00000000
00000000
00000000
00000110
00000000
00000000
00000000
00000000
00000000
,
00001000
00000000
00001000
00000000
00000001
00000100
00000000
00000001
00000100
00000000
00000000
00000000
00001000
00000000
00010000
00000000
,
00022000
00000000
00000000
00033000
;
