#TITLE:There 4 You;
#ARTIST:Thuggie D.;
#BANNER:There 4 You.png;
#BACKGROUND:There 4 You-bg.png;
#CDTITLE:./CDTITLES/DANCE DANCE REVOLUTION ULTRAMIX.PNG;
#MUSIC:There 4 You.ogg;
#SAMPLESTART:31.836;
#SAMPLELENGTH:15;
#BPMS:0=113;

//---------------dance-single - ----------------
#NOTES:
     dance-single:
     :
     Beginner:
     1:
     :
0000
0000
0000
0000
,
0000
0000
0000
0000
,
0000
0000
0000
0000
,
0000
0001
0000
0001
,
0000
1000
0000
1000
,
0000
1000
0000
0100
,
0000
0000
0000
0000
,
0100
0000
0010
0000
,
0100
0000
0001
0000
,
0010
0000
1000
0000
,
0010
0000
0001
0000
,
1001
0000
0100
0000
,
1001
0000
0100
0000
,
0001
0000
0010
0000
,
1001
0000
0000
0000
,
0010
0000
0001
0000
,
0010
0000
0100
0000
,
1000
0000
0001
0000
,
0100
0000
0010
0000
,
1001
0000
0100
0000
,
0110
0000
0001
0000
,
0110
0000
1000
0000
,
0110
0000
0000
0000
,
1001
0000
0000
0000
,
1001
0000
0000
0110
,
0000
1000
0000
1000
,
0000
0001
0000
0001
,
0000
0000
0001
0000
,
0110
0000
1000
0000
,
0010
0000
0001
0000
,
0010
0000
1000
0000
,
1001
0000
0010
0000
,
1001
0000
0010
0000
,
1001
0000
0110
0000
,
1000
0000
0000
0010
,
0000
0100
0000
0100
,
0000
0000
0010
0000
,
0100
0000
0001
0000
,
0100
0000
0001
0000
,
0100
0000
0100
0000
,
0100
0000
0001
0000
,
0001
0000
0000
1000
,
0000
0100
0000
0100
,
0000
1000
0000
0010
,
0000
0010
0000
1000
;

//---------------dance-single - ----------------
#NOTES:
     dance-single:
     :
     Easy:
     3:
     :
0000
0000
0000
0000
,
0000
0000
0000
0000
,
0000
0000
0000
0000
,
0000
0001
0000
0001
,
0000
1000
0100
1000
,
0010
1000
0001
0100
,
1001
0000
0000
0000
,
0100
0100
0010
0010
,
0100
0100
0001
0001
,
0010
0100
1000
1000
,
0010
0100
0001
0001
,
1010
0000
0100
0100
,
0011
0000
0100
0100
,
0001
0100
0010
0100
,
2002
0000
0000
3003
,
0020
0030
0002
0003
,
0020
0030
0200
0300
,
2000
3000
0002
0003
,
0200
0300
0020
0030
,
1002
0000
0100
0003
,
2100
0000
0001
3000
,
0120
0000
1000
0030
,
0110
0000
0000
0000
,
1001
0000
0000
0000
,
1001
0000
0000
0110
,
1000
1000
1000
1000
,
0001
0001
0001
0001
,
0110
0000
0001
0001
,
0110
0000
1000
1000
,
0010
0100
0001
0001
,
0010
0100
1000
1000
,
1001
0000
0010
0010
,
1001
0000
0110
1001
,
2000
0010
0000
0010
,
0000
0100
0000
3100
,
0002
0000
0000
0000
,
0000
0000
0000
0000
0010
0010
0003
0000
,
0100
1000
0001
0010
,
0100
1000
0001
0010
,
0100
0010
0100
1000
,
0100
0010
0001
1000
,
0002
1000
0000
1003
,
0020
0100
0000
0130
,
0010
1000
0100
0010
,
0001
0010
0100
1000
,
2002
0000
0000
3003
;

//---------------dance-single - ----------------
#NOTES:
     dance-single:
     :
     Medium:
     5:
     :
0000
0000
0000
0000
,
0000
0000
0000
0000
,
0000
0000
0000
0000
,
0000
0001
0001
0001
,
0000
1000
0100
1000
,
0010
1000
0001
0100
,
1002
0000
1000
1003
,
0010
0010
1000
0001
,
0010
0010
0001
1000
,
0100
0000
0010
0000
0001
1000
0001
0000
,
0100
0000
0010
0000
1000
0001
1000
0000
,
1010
1000
0100
0100
,
0011
0001
0100
0100
,
0001
0000
0100
0000
0010
1000
0100
0000
,
2001
0100
0100
3100
,
0020
0031
2000
3100
,
0020
0031
2000
3100
,
0200
0310
0002
1003
,
0200
0310
2000
3001
,
0012
0100
0100
0103
,
0120
1000
1000
1030
,
0102
1000
1000
1003
,
0110
1000
0001
0010
,
2001
0001
0010
3010
,
1001
0000
0000
0000
0000
0110
0110
0000
,
1002
1000
1000
1003
,
2001
0001
0001
3001
,
0120
0000
0001
0031
,
0210
0000
1000
1300
,
0010
0100
0001
1000
,
0010
0100
0001
1000
,
1002
0000
0010
0013
,
1001
0000
0110
1001
,
2000
0010
0001
0010
,
0010
0100
0010
3100
,
0002
2000
0000
3000
,
0000
0000
0000
0000
0000
0000
0000
0000
0100
0000
0100
0000
0000
0103
0000
0000
,
0010
1000
0001
0100
,
0010
0100
0001
0010
,
0100
0010
0001
1000
,
0100
0100
1000
0000
0001
0001
0010
0000
,
2001
0001
0010
3010
,
0120
0100
1000
1030
,
0010
0000
1000
0000
0100
0100
1000
0000
,
0001
1000
0010
0000
1000
0001
0100
0000
,
2002
0000
0000
3003
;

//---------------dance-single - ----------------
#NOTES:
     dance-single:
     :
     Hard:
     6:
     :
0000
0000
0000
0000
,
0000
0000
0000
0000
,
0000
0000
0000
0000
,
0010
0000
0001
0000
0001
0000
0001
0001
,
1000
0000
0100
0000
0100
0000
0100
0100
,
0010
0001
1000
0000
0001
1000
0100
0000
,
1001
0000
0000
0000
0010
0000
0000
0000
1000
0000
1000
0000
0100
1000
0001
0000
,
0010
0000
0010
0000
0001
0001
1000
0000
,
0010
0000
0010
0000
1000
1000
0001
0000
,
0100
0001
0010
0000
0001
1000
0001
0000
,
0100
0000
0010
0000
1000
0001
1000
0000
,
1010
0000
1000
0000
0100
0100
0100
0000
,
0011
0000
0001
0000
0100
0100
0100
0000
,
0001
0000
0100
0000
0010
1000
0100
0000
,
2001
0000
3100
0000
0100
1000
0100
1000
,
0020
1000
1030
0000
0002
0100
0103
0000
,
0020
1000
1030
0000
2000
0100
3100
0000
,
0200
0010
0310
0000
0002
1000
1003
0000
,
0200
0010
0310
0000
0002
1000
1003
0000
,
2010
0000
0100
0000
0001
0001
3001
0000
,
0102
0000
0010
0000
1000
1000
1003
0000
,
0120
0100
0100
0000
1000
1000
1030
0000
,
0010
1000
0001
0000
0100
0000
0100
0000
0100
0001
1000
0000
0010
0000
0010
0000
,
2002
0000
0000
0000
,
0000
0000
0000
0000
3003
0110
0110
1001
,
0000
0010
1000
0001
0100
0001
1000
0010
,
1000
0001
0100
0001
0100
0001
0010
0001
,
0120
0000
0000
0001
0001
0001
0031
0001
,
0210
0000
0000
1000
1000
1300
0001
1000
,
0010
1000
0100
0010
0001
1000
0100
0010
,
0001
1000
0010
0100
0001
0010
0001
1000
,
0120
0000
0000
0001
0001
0001
0031
0001
,
1100
1000
0010
0000
1010
1000
0100
0000
,
2000
0000
0000
0001
0001
0000
0000
0010
,
0010
0000
0000
0100
0100
0100
3100
0000
,
0002
2003
3020
0230
,
0300
0000
0000
0000
0000
0000
0000
0000
0010
0000
0010
0000
0000
1001
0000
0000
,
0010
0001
1000
0100
0010
0001
1000
0100
,
1000
0001
0100
0010
1000
0001
0100
0010
,
1000
0010
0100
0010
1000
0100
0010
0100
,
1000
0100
0010
0000
0011
0001
1000
0000
,
2000
0100
0000
0100
0000
0100
3000
0100
,
0020
0001
0000
0001
0000
0001
0030
1000
,
0200
1000
0300
1000
0020
0100
0030
0100
,
0001
0100
0001
0100
0010
1000
0010
1000
,
2002
0000
0000
3003
;

//---------------dance-double - ----------------
#NOTES:
     dance-double:
     :
     Easy:
     3:
     :
00000000
00000000
00000000
00000000
,
00000000
00000000
00000000
00000000
,
00000000
00000000
00000000
00000000
,
00000000
00010000
00000000
00010000
,
00000000
10000000
00000000
10000000
,
00010000
01000000
00001000
00010000
,
00011000
00000000
00000000
00000000
,
00000010
00000010
00000100
00000100
,
00000001
00001000
00000100
00000100
,
00001000
00001000
00000010
00000010
,
00010000
00001000
00010000
00010000
,
00110000
00000000
01000000
01000000
,
10000000
00100000
01000000
00001000
,
00010000
00000010
00001000
00000001
,
00000220
00000000
00000000
00000330
,
00000002
00000003
00000020
00000030
,
00000200
00000300
00020000
00030000
,
00002000
00003000
00200000
00300000
,
02000000
03000000
20000000
30000000
,
00120000
00000000
01000000
00030000
,
00012000
00000000
00010000
00003000
,
00001020
00000000
00001000
00000030
,
00001100
00000000
00000000
00000000
,
00022000
00000000
00000000
00033000
,
00011000
00000000
00100000
00010000
,
00010000
01000000
00100000
10000000
,
00010000
00100000
00010000
00100000
,
01100000
00000000
10010000
10010000
,
01100000
00000000
01100000
01100000
,
00100000
01000000
01000000
01000000
,
00010000
00010000
00100000
00001000
,
00011000
00000000
00000010
00001000
,
00001001
00000000
00000110
00001001
,
00000020
00000001
00000000
00000001
,
00000000
00000100
00000000
00000130
,
00000002
00000000
00000000
00000000
,
00000000
00000000
00000000
00000000
00001000
00001000
00000003
00000000
,
00000100
00010000
00001000
00100000
,
00010000
01000000
00010000
00010000
,
00100000
00010000
10000000
00100000
,
01000000
00010000
10000000
00100000
,
20000000
01000000
00000000
31000000
,
00200000
00010000
00000000
00310000
,
10000000
00100000
01000000
00010000
,
00100000
00001000
00010000
00000010
,
00002002
00000000
00000000
00003003
;

//---------------dance-double - ----------------
#NOTES:
     dance-double:
     :
     Medium:
     5:
     :
00000000
00000000
00000000
00000000
,
00000000
00000000
00000000
00000000
,
00000000
00000000
00000000
00000000
,
00000000
00100000
10000000
10000000
,
00000000
10000000
01000000
00100000
,
00100000
00010000
10000000
01000000
,
10020000
00000000
01000000
01030000
,
00100000
00100000
10000000
00010000
,
00100000
00100000
00001000
00010000
,
00000010
00000000
00001000
00000000
00000001
00000001
00000100
00000000
,
00000010
00000000
00001000
00000000
00000001
00000010
00000100
00000000
,
00000011
00000001
00000100
00000100
,
00001010
00000010
00001000
00001000
,
00000001
00000000
00000010
00000000
00000100
00000010
00000100
00000000
,
00020000
00001000
00001000
00031000
,
00200000
00310000
20000000
31000000
,
00200000
00310000
20000000
31000000
,
00200000
00301000
00020000
00031000
,
00000020
00001030
00000200
00000310
,
00000012
00000100
00000100
00000013
,
00000020
00000001
00000100
00000031
,
00000201
00000010
00000010
00000301
,
00001001
00000010
00000100
00000010
,
00002001
00000010
00000001
00003010
,
00011000
00000000
00000000
00000000
00000000
00011000
00011000
00000000
,
00210000
01000000
01000000
00310000
,
02010000
00100000
00100000
03010000
,
20010000
00000000
01000000
31000000
,
02100000
00000000
10000000
13000000
,
00100000
01000000
00010000
10000000
,
00100000
01000000
00010000
00100000
,
00021000
00000000
00001000
00031000
,
00001100
00000000
00001001
00001001
,
00000002
00000100
00001000
00000100
,
00000100
00000010
00000100
00000013
,
00002000
00000002
00000000
00000003
,
00000000
00000000
00000000
00000000
00000000
00000000
00000000
00000000
00000010
00000000
00000010
00000000
00000000
00003010
00000000
00000000
,
00000100
00000001
00001000
00000010
,
00000100
00000001
00001000
00000100
,
00010000
00001000
00100000
00010000
,
00010000
00010000
10000000
00000000
00010000
00010000
01000000
00000000
,
20010000
00010000
00100000
30100000
,
01200000
01000000
10000000
10300000
,
01000000
00000000
00001000
00000000
00010000
00001000
00010000
00000000
,
00000100
00001000
00000100
00000000
00001000
00000001
00000100
00000000
,
00002002
00000000
00000000
00003003
;

//---------------dance-double - ----------------
#NOTES:
     dance-double:
     :
     Hard:
     7:
     :
00000000
00000000
00000000
00000000
,
00000000
00000000
00000000
00000000
,
00000000
00000000
00000000
00000000
,
00100000
00000000
10000000
00000000
10000000
00000000
10000000
10000000
,
00100000
00000000
01000000
00000000
01000000
00000000
01000000
01000000
,
00100000
10000000
00010000
00000000
00010000
00100000
00010000
00000000
,
00100000
00000000
00000000
00000000
00001000
00000000
00000000
00000000
00010000
00000000
00001000
00000000
00010000
00001000
00010000
00000000
,
00001000
00000000
00001000
00000000
00010000
00000010
00000100
00000000
,
00000010
00000000
00000010
00000000
00001000
00000001
00000100
00000000
,
00000100
00000001
00001000
00000000
00000010
00010000
00001000
00000000
,
00100000
00000000
00010000
00000000
10000000
01000000
10000000
00000000
,
10100000
00000000
10000000
00000000
01000000
01000000
01000000
00000000
,
00110000
00000000
00010000
00000000
00100000
00100000
00100000
00000000
,
00010000
00000000
01000000
00000000
00100000
10000000
00100000
00000000
,
02000000
00000000
03010000
00000000
00010000
00100000
00001000
00010000
,
00002000
00010000
00013000
00000000
00002000
00010000
00013000
00000000
,
00000020
00001000
00001030
00000000
00000002
00000100
00000103
00000000
,
00000200
00000010
00000310
00000000
00020000
00001000
00031000
00000000
,
02000000
00100000
03100000
00000000
20000000
00010000
30010000
00000000
,
00120000
00000000
01000000
00000000
10000000
10000000
10030000
00000000
,
21000000
00000000
00100000
00000000
00010000
00010000
30010000
00000000
,
01020000
01000000
01000000
00000000
00100000
00100000
00130000
00000000
,
00001000
00010000
00001000
00000000
00010000
00000000
00001000
00000000
00010000
00001000
00010000
00000000
00001000
00000000
00010000
00000000
,
00002020
00000000
00000000
00000000
,
00000000
00000000
00000000
00000000
00003030
00000010
00001000
00000001
,
00000000
00000010
00000100
00010000
00001000
00100000
00010000
01000000
,
00001000
00010000
00001000
00010000
00001000
00010000
00001000
00100000
,
00210000
00000000
00000000
00010000
00010000
00010000
00310000
00010000
,
02100000
00000000
00000000
10000000
10000000
13000000
00010000
10000000
,
00100000
10000000
01000000
10000000
00100000
10000000
01000000
00100000
,
00001000
00010000
00000010
00001000
00000010
00001000
00000001
00000010
,
00000201
00000000
00000000
00000010
00000010
00000010
00000310
00000010
,
00001010
00001000
00000100
00000000
00000101
00000001
00000010
00000000
,
00000002
00000000
00000000
00001000
00001000
00000000
00000000
00000100
,
00000100
00000000
00000000
00000010
00000010
00000010
00000013
00000000
,
00000020
00000230
00002300
00003002
,
00000003
00000000
00000000
00000000
00000000
00000000
00000000
00000000
00000100
00000000
00000100
00000000
00000000
00001001
00000000
00000000
,
00000100
00001000
00000001
00000010
00000100
00001000
00000001
00000010
,
00000001
00001000
00000100
00010000
00001000
00100000
00010000
10000000
,
00100000
10000000
01000000
10000000
00010000
01000000
00100000
01000000
,
00010000
01000000
00010000
00000000
00110000
00010000
10000000
00000000
,
00020000
01000000
00000000
10000000
00000000
10000000
00030000
10000000
,
20000000
00100000
00000000
00100000
00000000
00100000
30000000
10000000
,
00020000
01000000
00030000
01000000
00002000
00010000
00003000
00010000
,
00000010
00001000
00000010
00001000
00000001
00000100
00000001
00000010
,
00002002
00000000
00000000
00003003
;
