#TITLE:Shiny Disco Balls;
#ARTIST:Who Da Funk;
#BANNER:Shiny Disco Balls.png;
#BACKGROUND:Shiny Disco Balls-bg.png;
#CDTITLE:./CDTITLES/Dance Dance Revolution ULTRAMIX.png;
#MUSIC:Shiny Disco Balls.ogg;
#SAMPLESTART:16.7;
#SAMPLELENGTH:15;
#BPMS:0=132;

//---------------dance-single - ----------------
#NOTES:
     dance-single:
     :
     Easy:
     4:
     :
0000
0000
0000
0000
,
0000
0000
0000
0000
,
0000
0000
0000
0000
,
1000
0000
0000
0001
,
1000
0000
0000
1000
,
0001
0000
0010
0100
0010
0100
0000
0000
,
1001
0000
0000
0010
,
0001
0000
0000
0100
,
1000
0000
0000
0010
,
0001
0000
0010
0100
0010
0100
0010
0000
,
0100
1000
0100
0100
,
0000
1000
0100
0010
,
0100
1000
0100
0100
,
0000
1000
0100
0010
,
0100
1000
0100
0100
,
0000
0001
0100
0010
,
0100
0001
0100
0100
,
0000
0001
0100
0010
,
1000
1000
0010
0000
,
1000
0001
1000
0000
0010
0000
1000
0000
,
1000
1000
0001
0000
,
1000
0001
1000
0000
0100
0000
0010
0000
,
0001
0001
0010
0000
,
0001
1000
0001
0000
0010
0000
0001
0000
,
0001
0001
1000
0000
,
0001
1000
0001
0000
0100
0000
0010
0000
,
1000
0000
0000
0010
0000
0000
0000
0000
,
0100
0000
0000
0001
0000
0000
0000
0000
,
0001
0000
0000
1000
0000
0000
0000
0000
,
0022
0000
0000
0033
,
1000
0100
0000
0010
,
0000
0100
0000
0010
,
0000
1000
0000
0001
,
0000
1000
0000
0001
,
0000
0010
0000
0100
,
0000
0010
0000
0100
,
0000
1000
0000
0001
,
0000
0000
0010
0100
0010
0100
0010
0000
,
0100
1000
0100
0100
,
0000
1000
0100
0010
,
0100
1000
0100
0100
,
0000
1000
0100
0010
,
0001
0001
0100
0100
,
0000
0001
0100
0010
,
0100
0001
0100
0100
,
0000
0000
0001
0000
0100
0000
0000
0001
,
1000
0000
1000
0001
0000
0001
1000
0000
,
1000
0001
0000
0010
0100
0000
0100
0010
,
0000
0010
1000
0000
1000
0001
0000
0001
,
0100
0000
0000
0000
1000
0001
0000
0001
,
1000
0000
1000
0001
0000
0010
0100
0000
,
0100
0010
0000
0010
0100
0000
0001
1000
,
0000
1000
0001
0000
0001
1000
0000
1000
,
0001
0000
0010
0100
0010
0100
0010
0000
,
0101
0000
0000
0000
;

//---------------dance-single - ----------------
#NOTES:
     dance-single:
     :
     Medium:
     6:
     :
0000
0000
0000
0000
,
0000
0000
0000
0000
,
0000
0000
0000
0000
,
1000
1000
0010
0100
,
0001
0100
0001
1000
,
0100
0000
0010
0100
0010
0100
0000
1000
,
0001
0000
1000
0010
0000
0010
1000
0000
,
0001
0100
0000
0100
0001
0000
1000
0010
,
0000
0100
0001
0000
1000
0001
0000
0010
,
0100
0000
0010
0100
0010
0100
0010
0000
,
0001
0000
1000
0000
0100
0010
0100
0000
,
1000
0001
1000
0000
0010
1000
0010
0000
,
1000
0000
0001
0000
0100
0001
0100
0000
,
0001
0100
0010
0000
0100
0010
0100
0000
,
0001
0000
1000
0000
0100
1000
0100
0000
,
0010
0001
0100
0000
0010
1000
0001
0000
,
1000
0000
0001
0000
0100
0010
0100
0000
,
0010
1000
0100
0000
0010
0001
1000
0001
,
1000
0000
0010
0100
0000
0001
1000
0000
,
0001
1000
0000
0010
0100
0000
0010
0001
,
0000
1000
0100
0000
0010
0001
0000
0001
,
1000
0000
1000
0010
0100
0001
0000
1000
,
0001
0000
0010
0100
0000
0010
0001
0000
,
1000
0010
0000
0100
0010
0000
1000
0001
,
0000
0100
0010
0000
0100
0001
0000
0010
,
0100
0000
0010
0100
1000
0100
0010
0000
,
0100
0000
0000
0000
0010
0000
0100
0000
0000
0100
0000
0000
0010
0000
0000
0000
,
0100
0000
0000
0000
1000
0000
0001
0000
0000
1000
0000
0000
0001
0000
0000
0000
,
1000
0000
0000
0000
0010
0000
1000
0000
0000
1000
0000
0000
0010
0000
0000
0000
,
0022
0000
0000
0033
,
0001
0100
0000
0010
,
0000
0100
0000
0010
,
0000
1000
0000
0001
,
0000
1000
0000
0001
,
1000
0000
0010
0000
0100
0001
0100
0000
,
0001
0000
1000
0000
0010
0100
0010
0000
,
1000
0000
0010
0000
1000
0001
0100
0000
,
0000
0000
0010
0100
0010
0100
0010
0000
,
1000
0001
0100
0001
,
1000
0010
0100
0010
,
0100
0001
0100
0010
,
1000
0001
1000
0010
0100
0001
0010
0000
,
0100
1000
0001
0000
0100
0000
0001
0000
,
1000
0001
0100
0010
,
0100
0000
0001
0000
0100
0001
0100
0000
,
0010
1000
0001
0000
0100
0001
1000
0001
,
1000
0000
1000
0001
0000
0001
1000
0000
,
1000
0001
0000
0010
0100
0000
0100
0010
,
0000
0010
1000
0000
1000
0001
0000
0001
,
0100
0000
0000
0000
0001
1000
0000
0001
,
1000
0000
1000
0001
0000
0010
0100
0000
,
0100
0010
0000
0010
0001
0000
0001
1000
,
0000
1000
0001
0000
0001
1000
0000
1000
,
0001
0000
0010
0100
0010
0100
0010
0000
,
1100
0000
0000
0000
;

//---------------dance-single - ----------------
#NOTES:
     dance-single:
     :
     Hard:
     7:
     :
0000
0000
0000
0000
,
0000
0000
0000
0000
,
0000
0000
0000
0000
,
1000
1000
0010
0100
,
0001
0100
0001
1000
,
0100
0000
0010
0100
0010
0100
0000
0001
,
1000
0000
1000
0010
0000
0010
1000
0000
,
0001
0100
0000
0100
0001
0000
1000
0010
,
0000
0100
0010
0000
1000
0001
0000
0010
,
0100
0000
0010
0100
0010
0100
0010
0000
,
0001
0000
1000
0000
0100
0010
0100
0000
,
1000
0001
1000
0000
0010
1000
0010
0000
,
1000
0000
0001
0000
0100
0001
0100
0000
,
0001
0100
0010
0000
0100
0010
0100
0000
,
0001
0000
1000
0000
0100
1000
0100
0000
,
0010
0001
0100
0000
0010
1000
0001
0000
,
0100
0000
0001
0000
0100
0010
0100
0000
,
0001
1000
0001
0000
0100
0001
0000
0001
,
1000
0000
0010
0100
0000
0001
1000
0000
,
0001
1000
0000
0010
0100
0000
0010
0001
,
0000
1000
0100
0000
0010
0001
0000
1000
,
0001
0000
1000
0010
0100
0001
0000
1000
,
0001
0000
0010
0100
0000
0010
0001
0000
,
1000
0010
0000
0100
0010
0000
1000
0001
,
0000
0100
0010
0000
0100
0001
0000
0010
,
0100
0000
0010
0100
1000
0100
0010
0000
,
0100
0000
0000
0000
0010
0000
0100
0000
0000
0100
0000
0000
0010
0000
0000
0000
,
0100
0000
0000
0000
1000
0000
0001
0000
0000
0001
0000
0000
1000
0000
0000
0000
,
1000
0000
0000
0000
0010
0000
1000
0000
0000
1000
0000
0000
0010
0000
0000
0000
,
2002
0000
0000
3003
,
2000
3200
0320
0031
,
1000
0000
0000
0000
0100
0000
0000
0000
0000
0000
1000
0001
1000
0001
1000
0000
,
0002
0023
0230
1300
,
0001
0000
0000
0000
0010
0000
0000
0000
0000
0000
0001
1000
0001
1000
0001
0000
,
0000
0000
0010
0000
0100
1000
0100
0000
,
1000
0000
0000
0000
0001
0000
0000
0000
0010
0000
0001
1000
0001
1000
0001
0000
,
0000
0000
0010
0000
0001
1000
0100
0000
,
1000
0100
0010
0001
1000
0100
0010
0001
,
1000
0000
0001
1000
0100
0010
0001
0000
,
0100
0000
0010
0000
1000
0100
0010
0001
,
0100
0001
0100
0010
,
1000
0001
1000
0010
0100
0001
0010
0000
,
0100
1000
0001
0000
0100
0000
0001
0000
,
0001
1000
0001
0000
0100
0010
0100
0010
,
0100
0000
0001
0000
0100
0001
0100
0000
,
0010
1000
0001
0000
0100
0001
1000
0001
,
1000
0000
1000
0001
0000
1000
0001
0000
,
0001
1000
0000
0010
0100
0000
0100
0010
,
0000
0010
1000
0000
1000
0001
0000
0001
,
0100
0000
0001
0000
0001
1000
0000
0001
,
1000
0000
1000
0001
0000
0010
0100
0000
,
0100
0010
0000
0010
0001
0000
0001
1000
,
0000
1000
0100
0000
0001
1000
0000
1000
,
0001
0000
0010
0100
0010
0100
0010
0000
,
1100
0000
0000
0000
;

//---------------dance-double - ----------------
#NOTES:
     dance-double:
     :
     Easy:
     5:
     :
00000000
00000000
00000000
00000000
,
00000000
00000000
00000000
00000000
,
00000000
00000000
00000000
00000000
,
10000000
00000000
00000000
00010000
,
01000000
00000000
00000000
00001000
,
00010000
00000000
00000010
00000100
00000010
00000100
00000000
00000000
,
00001001
00000000
00000000
00000010
,
00000001
00000000
00000000
00000100
,
00010000
00000000
00000000
00001000
,
01000000
00000000
00100000
01000000
00100000
01000000
00100000
00000000
,
01000000
00010000
01000000
01000000
,
00000000
10000000
01000000
00100000
,
01000000
10000000
01000000
01000000
,
00000000
10000000
01000000
00100000
,
00001000
00010000
00000010
00000010
,
00000000
00000001
00000100
00000010
,
00000100
00000010
00010000
00001000
,
00100000
00000000
01000000
00100000
,
10000000
10000000
00100000
00000000
,
10000000
00010000
10000000
00000000
00100000
00000000
10000000
00000000
,
10000000
10000000
00010000
00000000
,
00010000
10000000
00010000
00000000
01000000
00000000
00100000
00000000
,
10000000
00010000
00100000
00000000
,
00010000
10000000
00010000
00000000
00100000
00000000
00010000
00000000
,
00010000
00010000
10000000
00000000
,
00010000
10000000
00010000
00000000
01000000
00000000
00100000
00000000
,
10000000
00000000
00000000
00100000
00000000
00000000
00000000
00000000
,
01000000
00000000
00000000
00010000
00000000
00000000
00000000
00000000
,
00010000
00000000
00000000
10000000
00000000
00000000
00000000
00000000
,
00220000
00000000
00000000
00330000
,
10000000
01000000
00000000
00100000
,
00000000
01000000
00000000
00100000
,
00000000
00001000
00000000
00010000
,
00000000
00001000
00000000
00010000
,
00000000
00000010
00000000
00000100
,
00000000
00000010
00000000
00010000
,
00000000
00001000
00000000
01000000
,
00000000
00000000
00010000
00100000
01000000
10000000
01000000
00000000
,
00100000
00001000
00010000
00000100
,
00000000
00001000
00000100
00000010
,
00000100
00001000
00000100
00010000
,
00000000
00001000
01000000
00100000
,
01000000
00010000
01000000
01000000
,
00000000
00010000
01000000
00100000
,
01000000
00010000
01000000
01000000
,
00000000
00000000
00010000
00000000
01000000
00000000
00000000
00010000
,
10000000
00000000
10000000
00010000
00000000
00010000
10000000
00000000
,
10000000
00010000
00000000
00100000
01000000
00000000
01000000
00100000
,
00000000
00100000
10000000
00000000
10000000
00010000
00000000
00010000
,
01000000
00000000
00000000
00000000
00001000
00010000
00000000
00000010
,
00001000
00000000
00001000
00000001
00000000
00000010
00000100
00000000
,
00000100
00000010
00000000
00000010
00001000
00000000
00001000
00000001
,
00000000
00000001
00000100
00000000
00000010
00001000
00000000
00001000
,
00000100
00000000
00000010
00001000
00000010
00001000
00000010
00000000
,
00001100
00000000
00000000
00000000
;

//---------------dance-double - ----------------
#NOTES:
     dance-double:
     :
     Medium:
     7:
     :
00000000
00000000
00000000
00000000
,
00000000
00000000
00000000
00000000
,
00000000
00000000
00000000
00000000
,
10000000
10000000
00100000
01000000
,
00001000
00010000
00000100
00000000
,
00000100
00000000
00000010
00000100
00000010
00000100
00000000
00001000
,
00000001
00000000
00001000
00000010
00000000
00000010
00001000
00000000
,
00000001
00000100
00000000
00000100
00000001
00000000
00001000
00000010
,
00000000
00000100
00000010
00000000
00010000
00001000
00000000
00100000
,
01000000
00000000
00100000
01000000
00100000
01000000
00100000
00000000
,
00010000
00000000
10000000
00000000
01000000
00100000
01000000
00000000
,
10000000
00010000
10000000
00000000
00100000
10000000
00100000
00000000
,
10000000
00000000
00010000
00000000
01000000
00010000
01000000
00000000
,
00010000
01000000
00100000
00000000
01000000
00100000
01000000
00000000
,
00001000
00000000
00010000
00000000
00000100
00001000
00000100
00000000
,
00000010
00000001
00000100
00000000
00000010
00001000
00000100
00000000
,
00010000
00000000
00001000
00000000
01000000
00100000
01000000
00000000
,
00010000
10000000
00010000
00000000
01000000
00010000
00000000
00010000
,
10000000
00000000
00100000
01000000
00000000
00010000
10000000
00000000
,
00010000
10000000
00000000
00100000
01000000
00000000
00100000
10000000
,
00000000
10000000
01000000
00000000
00100000
00010000
00000000
00001000
,
00010000
00000000
00000100
00000010
00000100
00001000
00000000
00000001
,
00001000
00000000
00000010
00000100
00000000
00000010
00001000
00000000
,
00000001
00000010
00000000
00000100
00000010
00000000
00000001
00001000
,
00000000
00000100
00000010
00000000
00000100
00001000
00000000
00000010
,
00000100
00000000
00000010
00000100
00000001
00000100
00000010
00000000
,
00000100
00000000
00000000
00000000
00000010
00000000
00000100
00000000
00000000
00000100
00000000
00000000
00000010
00000000
00000000
00000000
,
00010000
00000000
00000000
00000000
00001000
00000000
00010000
00000000
00000000
00010000
00000000
00000000
00001000
00000000
00000000
00000000
,
01000000
00000000
00000000
00000000
00100000
00000000
10000000
00000000
00000000
10000000
00000000
00000000
00010000
00000000
00000000
00000000
,
00220000
00000000
00000000
00330000
,
10000000
01000000
00000000
00100000
,
00000000
01000000
00000000
00100000
,
00000000
00001000
00000000
00010000
,
00000000
00000100
00000000
00001000
,
00000001
00000000
00000010
00000000
00000100
00001000
00000100
00000000
,
00001000
00000000
00000001
00000000
00000010
00000100
00000010
00000000
,
00000001
00000000
00000010
00000000
00000001
00001000
00000100
00000000
,
00000000
00000000
00000010
00000100
00000010
00000100
00000010
00000000
,
00000100
00010000
00001000
00100000
,
00010000
00100000
01000000
00100000
,
01000000
10000000
01000000
00100000
,
00010000
10000000
00010000
00100000
01000000
10000000
00100000
00000000
,
01000000
00010000
10000000
00000000
01000000
00000000
10000000
00000000
,
00010000
10000000
01000000
00100000
,
01000000
00000000
10000000
00000000
01000000
10000000
01000000
00000000
,
00100000
00001000
00010000
00000000
00000100
00001000
00000001
00001000
,
00000001
00000000
00001000
00000001
00000000
00001000
00000001
00000000
,
00000001
00001000
00000000
00000010
00000100
00000000
00000100
00000010
,
00000000
00000010
00010000
00000000
00001000
00100000
00000000
00010000
,
01000000
00000000
00000000
00000000
00010000
10000000
00000000
00010000
,
10000000
00000000
10000000
00010000
00000000
00100000
01000000
00000000
,
01000000
00100000
00000000
00100000
00001000
00000000
00010000
00000010
,
00000000
00001000
00000100
00000000
00000001
00001000
00000000
00001000
,
00000001
00000000
00000010
00000100
00000010
00000100
00000010
00000000
,
00001100
00000000
00000000
00000000
;

//---------------dance-double - ----------------
#NOTES:
     dance-double:
     :
     Hard:
     8:
     :
00000000
00000000
00000000
00000000
,
00000000
00000000
00000000
00000000
,
00000000
00000000
00000000
00000000
,
00001000
00001000
00000010
00000100
,
00000001
00000100
00000001
00001000
,
00000100
00000000
00000010
00000100
00000010
00000100
00000000
00000001
,
00001000
00000000
00001000
00000010
00000000
00000010
00001000
00000000
,
00000001
00000100
00000000
00000100
00000001
00000000
00001000
00000010
,
00000000
00000100
00000010
00000000
00001000
00000001
00000000
00000010
,
00000100
00000000
00000010
00000100
00000010
00000100
00000010
00000000
,
00000001
00000000
00001000
00000000
00000100
00000010
00000100
00000000
,
00001000
00000001
00001000
00000000
00000010
00001000
00000010
00000000
,
00010000
00000000
00001000
00000000
01000000
00010000
01000000
00000000
,
00010000
01000000
00100000
00000000
01000000
00100000
01000000
00000000
,
00010000
00000000
10000000
00000000
01000000
10000000
01000000
00000000
,
00100000
00010000
00100000
00000000
00001000
00010000
00001000
00000000
,
00010000
00000000
00000010
00000000
00000100
00000010
00000100
00000000
,
00000001
00001000
00000001
00000000
00000100
00000001
00000000
00000001
,
00001000
00000000
00000010
00000100
00000000
00000010
00010000
00000000
,
00001000
01000000
00000000
00100000
01000000
00000000
00100000
10000000
,
00000000
10000000
01000000
00000000
00100000
00010000
00000000
00010000
,
10000000
00000000
10000000
00100000
01000000
00010000
00000000
10000000
,
00010000
00000000
00100000
01000000
00000000
00100000
00001000
00000000
,
00010000
00000010
00000000
00000100
00000010
00000000
00001000
00000001
,
00000000
00000100
00000010
00000000
00000100
00000001
00000000
00000010
,
00000100
00000000
00000010
00000100
00001000
00000100
00000010
00000000
,
00000100
00000000
00000000
00000000
00000010
00000000
00000100
00000000
00000000
00000100
00000000
00000000
00000010
00000000
00000000
00000000
,
00000100
00000000
00000000
00000000
00001000
00000000
00000001
00000000
00000000
00000001
00000000
00000000
00001000
00000000
00000000
00000000
,
00000001
00000000
00000000
00000000
00000010
00000000
00000001
00000000
00000000
00000001
00000000
00000000
00000010
00000000
00000000
00000000
,
00002002
00000000
00000000
00003003
,
00002000
00003200
00000320
00000031
,
00001000
00000000
00000000
00000000
00000100
00000000
00000000
00000000
00000000
00000000
00001000
00000001
00001000
00000001
00001000
00000000
,
00000002
00000023
00000230
00001300
,
00000001
00000000
00000000
00000000
00000010
00000000
00000000
00000000
00000000
00000000
00000001
00001000
00000001
00001000
00000001
00000000
,
00000000
00000000
00000010
00000000
00000100
00001000
00000100
00000000
,
00001000
00000000
00000000
00000000
00000001
00000000
00000000
00000000
00000010
00000000
00000001
00001000
00000001
00001000
00000001
00000000
,
00000000
00000000
00000010
00000000
00000001
00001000
00000001
00000000
,
00000000
00000000
00000001
00000010
00000100
00010000
00001000
00100000
,
01000000
10000000
00010000
10000000
01000000
00100000
00010000
01000000
,
00100000
10000000
00100000
00000000
01000000
00010000
00100000
00010000
,
01000000
00010000
01000000
00100000
,
10000000
00010000
10000000
00100000
01000000
00010000
00100000
00000000
,
00001000
00010000
00000010
00000000
00000100
00000000
00000001
00001000
,
00000001
00001000
00000001
00000000
00000100
00000010
00000100
00000010
,
00000100
00000000
00000010
00000000
00010000
00001000
00010000
00000000
,
00001000
00010000
00001000
00000000
01000000
00010000
01000000
00010000
,
00000000
00000000
10000000
00010000
00000000
10000000
00010000
00000000
,
00010000
10000000
00000000
00100000
01000000
00000000
01000000
00100000
,
00000000
00100000
10000000
00000000
10000000
00010000
00000000
00010000
,
01000000
00000000
00001000
00000000
00010000
00001000
00000000
00010000
,
00000010
00000000
00000100
00000001
00000000
00000010
00000100
00000000
,
00000100
00000010
00000000
00000010
00000001
00000000
00000001
00001000
,
00000000
00001000
00000100
00000000
00000001
00001000
00000000
00001000
,
00000001
00000000
00000010
00000100
00000010
00000100
00000010
00000000
,
00001100
00000000
00000000
00000000
;
