#TITLE:SOMETHING WONDERFUL;
#ARTIST:L.E.D.;
#BANNER:SOMETHING WONDERFUL.png;
#BACKGROUND:SOMETHING WONDERFUL-bg.png;
#CDTITLE:./CDTITLES/Song Pack 2.png;
#MUSIC:SOMETHING WONDERFUL.ogg;
#SAMPLESTART:83.188;
#SAMPLELENGTH:15;
#DISPLAYBPM:150;
#BPMS:0=153.191,4=150,164=149.951;

//---------------dance-single - ----------------
#NOTES:
     dance-single:
     :
     Beginner:
     1:
     :
0000
0000
0000
0000
,
0000
0000
0000
0000
,
0000
0000
0000
0000
,
0000
0000
0000
0000
,
0010
0000
1000
0000
,
0100
0000
0010
0000
,
0001
0000
1000
0000
,
0100
0000
0010
0000
,
1001
0000
0000
0000
,
0000
0000
0000
0000
,
0001
0000
0010
0000
,
0001
0000
0010
0000
,
1001
0000
0010
0000
,
1001
0000
0100
0000
,
1001
0000
0100
0000
,
0010
0000
0100
0000
,
0010
0000
0001
0000
,
0100
0000
0010
0000
,
1000
0000
0010
0000
,
1000
0000
0100
0000
,
1001
0000
0000
0000
,
0000
0000
0000
0000
,
0000
0000
0000
0000
,
0000
0000
0010
0000
,
0001
0000
0000
0000
,
0000
0000
0100
0000
,
0001
0000
0000
0000
,
0000
0000
0000
0000
,
0010
0000
0001
0000
,
0100
0000
1000
0000
,
0001
0000
0010
0000
,
1000
0000
0010
0000
,
0100
0000
0000
0000
,
0000
0000
0001
0000
,
0100
0000
0000
0000
,
0000
0000
0000
0000
,
0001
0000
0010
0000
,
0000
0000
0000
0000
,
0100
0000
0010
0000
,
0000
0000
0000
0000
,
0100
0000
0010
0000
,
0000
0000
0000
0000
,
0100
0000
0010
0000
,
0000
0000
0000
0000
,
0100
0000
0001
0000
,
0010
0000
1000
0000
,
0001
0000
0100
0000
,
1000
0000
0100
0000
,
0010
0000
0001
0000
,
0010
0000
1000
0000
,
0001
0000
0010
0000
,
0100
0000
0100
0000
,
1001
0000
0100
0000
,
1000
0000
0010
0000
,
0010
0000
0010
0000
,
1000
0000
0100
0000
,
0001
0000
0010
0000
,
0001
0000
0100
0000
,
0010
0000
0001
0000
,
0110
0000
0000
0000
,
0001
0000
1000
0000
,
0100
0000
0001
0000
,
0110
0000
0010
0000
,
1000
0000
0001
0000
,
0010
0000
1000
0000
,
0010
0000
0100
0000
,
0001
0000
0100
0000
,
0010
0000
0001
0000
,
0001
0000
0100
0000
,
0001
0000
0010
0000
,
0100
0000
0001
0000
,
0010
0000
0100
0000
,
1000
0000
0010
0000
,
1000
0000
0100
0000
,
0010
0000
1000
0000
,
0100
0000
1000
0000
,
0010
0000
0000
0000
;

//---------------dance-single - ----------------
#NOTES:
     dance-single:
     :
     Easy:
     3:
     :
0000
0000
0000
0000
,
0000
0000
0000
0000
,
0000
0000
0000
0000
,
0000
0000
0000
0000
,
0020
0000
2030
3000
,
0200
0000
0320
0030
,
0002
0000
2003
3000
,
0200
0000
0320
0030
,
2002
0000
0000
0000
,
0000
0000
0003
3000
,
0001
1000
0010
0100
,
0001
1000
0010
0100
,
1001
0000
0010
0100
,
1001
0000
0100
0010
,
1001
0000
0100
0001
,
1010
0000
0100
0001
,
0020
0001
0001
0030
,
0200
0010
0010
0300
,
2000
3100
0020
0031
,
2000
3020
0230
0300
,
2002
0000
0000
0000
,
0000
0000
0000
0000
,
0000
0000
0000
0000
,
0000
0003
3020
0230
,
0302
0020
0000
0000
,
0000
0003
0230
2300
,
3002
0200
0000
0000
,
0000
0000
0000
0303
,
0020
2030
3002
0000
,
0203
0320
2030
0000
,
3002
0203
0320
0000
,
2030
3200
0320
0032
,
0203
0020
0000
0000
,
0000
0030
0302
2003
,
3200
0020
0000
0000
,
0000
0000
0000
0330
,
0001
1000
0020
0000
,
0000
0000
0000
0030
,
0100
0001
0020
0000
,
0000
0000
0000
0030
,
0100
1000
0020
0000
,
0000
0000
0000
0030
,
0100
0001
0020
0000
,
0000
0000
0000
0030
,
0100
1000
0002
0003
,
0010
0100
2000
3000
,
0001
0010
0200
0300
,
1000
0001
0200
0300
,
0010
1000
0002
0003
,
0010
0100
2000
3000
,
0002
2003
3020
2030
,
3200
1300
0100
0010
,
1001
0001
0100
0010
,
1000
0100
0020
0031
,
1010
0001
0010
0100
,
1000
0001
0200
0301
,
0101
0100
0010
1000
,
0001
0010
0100
1000
,
0010
0100
0001
1000
,
0220
0000
0000
0330
,
0002
0003
1000
0010
,
0200
0300
0001
1000
,
0220
0330
0010
0100
,
2000
3000
0001
0100
,
0020
0030
1000
0001
,
0020
0030
0100
1000
,
0002
0023
0230
2300
,
3020
0230
0302
2003
,
3001
1000
0100
0010
,
0001
0100
0020
1030
,
0011
0010
0001
0100
,
0010
1000
0200
1300
,
1100
0100
0010
0001
,
1000
0010
0100
0001
,
0020
0230
2300
3002
,
0203
0320
2030
3000
,
2020
0000
0000
0000
,
3030
0000
0000
0000
;

//---------------dance-single - ----------------
#NOTES:
     dance-single:
     :
     Medium:
     5:
     :
0000
0000
0000
0000
,
0000
0000
0000
0000
,
0000
0000
0000
0000
,
0000
0000
0000
0000
,
0200
0010
2300
3000
,
0020
1000
0230
0300
,
0002
1000
0023
0030
,
0002
0100
2003
3000
,
0100
0010
0200
0000
1300
0001
0100
0000
,
0010
0100
0020
0000
1030
0001
0100
0000
,
0010
0000
1000
0000
0001
0010
0100
0000
,
1000
0000
0001
0000
0010
0100
0100
0000
,
2000
0000
3001
0000
0010
0100
0010
0000
,
0200
0000
0310
0000
0001
1000
0100
0000
,
2000
0000
3001
0000
0010
0001
0100
0000
,
0200
0000
0310
0000
1000
0010
0100
0000
,
0002
0000
0010
0010
0010
0000
0003
0000
,
0200
0000
1000
1000
1000
0000
0300
0000
,
0002
0010
0013
0000
0200
1000
1300
0000
,
0010
0010
1000
1000
0001
0001
1001
0000
,
2002
0000
0000
3003
,
0220
0000
0000
0330
,
0202
0000
0000
0303
,
0002
0003
1000
0000
0100
2000
3000
0000
,
0001
0000
1000
0002
0000
0000
0000
0000
0000
0000
0000
0000
0000
0000
0000
0000
,
0000
0000
0000
0000
0000
0000
0000
0000
0203
0000
0300
0000
0020
0000
0000
2000
,
0030
0000
0000
0002
0000
0000
0000
0000
0000
0000
0000
0000
0000
0000
0000
0000
,
0000
0000
0000
3003
,
0020
0000
0000
0230
0000
0000
0300
2000
0000
0000
0000
0000
0000
0000
0000
0000
,
3020
0000
0000
0030
0100
0000
0000
0002
0000
0000
0000
0000
0000
0000
0000
0000
,
0023
0000
0000
0032
0000
0000
0003
2000
0000
0000
0000
0000
0000
0000
0000
0000
,
3020
0000
0000
0030
0200
0000
0300
0001
0000
0000
1000
0000
0001
0000
0000
0001
,
1000
0001
2000
0000
0000
0000
0000
0000
,
0000
0000
0000
0000
3000
0000
0000
0000
0020
0000
0000
0030
0000
0200
0000
0002
,
0300
2000
0000
0000
0000
0000
0000
0000
,
0000
0000
0000
3003
,
0010
0001
0010
0002
0000
0000
0000
0000
,
0000
0000
0000
0003
,
1000
0100
1000
0200
0000
0000
0000
0000
,
0000
0000
0000
0300
,
0010
0001
0010
0002
0000
0000
0000
0000
,
0000
0000
0000
0003
,
1000
0100
1000
0200
0000
0000
0000
0000
,
0000
0000
0000
0300
,
0002
0013
0000
0002
0000
0000
0003
0000
,
0020
0130
0000
0020
0000
0000
0030
0000
,
0200
1300
0000
0020
0000
0000
0030
0000
,
2000
3001
0000
2000
0000
0000
3000
0000
,
0001
1000
0001
2000
0000
0000
3000
0000
,
0010
1000
0001
0020
0000
0000
0030
0000
,
0100
1000
0002
0000
0013
0001
2000
0000
,
3100
1000
0200
0000
0310
0001
2000
0000
,
3001
0000
1000
0001
2000
0000
3001
0000
,
0010
0000
0001
1000
0200
0000
0310
0000
,
0001
0000
1000
0001
2000
0000
3001
0000
,
0100
0000
0001
1000
0020
0000
0130
0000
,
0001
0000
1000
0001
2000
0000
3001
0000
,
0010
0000
0001
1000
0200
0000
0310
0000
,
0001
0000
1000
0001
2000
0000
3001
0000
,
2002
0000
0000
3003
,
0200
0000
1300
1000
0002
0000
0013
0000
,
0200
0000
1300
1000
0020
0000
0130
0000
,
0002
0000
1003
1000
0020
0000
0130
0000
,
0002
0000
0013
0010
0200
0000
1300
0000
,
0001
0000
1000
0001
2000
0000
3001
0000
,
0100
0000
0001
1000
0020
0000
0130
0000
,
0002
0000
0000
0003
2000
0000
0000
3000
0200
0000
0000
0300
1000
0000
0001
0000
,
0020
0000
0000
0030
0002
0000
0000
0003
0200
0000
0000
0300
0001
0000
1000
0000
,
0001
0000
1000
0001
2000
0000
3001
0000
,
0010
0000
0001
1000
0200
0000
0310
0000
,
0001
0000
1000
0001
2000
0000
3001
0000
,
0100
0000
0001
1000
0020
0000
0130
0000
,
0001
0000
1000
0001
2000
0000
3001
0000
,
0100
0000
0001
1000
0020
0000
0130
0000
,
0002
0000
0000
0003
2000
0000
0000
3000
0200
0000
0000
0300
1000
0000
0001
0000
,
0020
0000
0000
0030
0002
0000
0000
0003
0200
0000
0000
0300
0001
0000
1000
0000
,
2002
0000
0000
0000
,
3003
0000
0000
0000
;

//---------------dance-single - ----------------
#NOTES:
     dance-single:
     :
     Hard:
     7:
     :
0000
0000
0000
0000
,
0000
0000
0000
0000
,
0000
0000
0000
0000
,
0000
0000
0000
0000
,
0001
0001
0012
0000
2003
0000
3000
0000
,
1000
1000
2001
0000
3200
0000
0300
0000
,
0100
0100
1200
0000
0320
0000
0030
0000
,
0010
0010
0120
0000
0032
0000
0003
0000
,
1000
0001
0100
0100
0001
1000
0200
0000
,
0310
0001
0100
0100
0001
0010
0200
0000
,
0310
0001
0100
0100
0001
1000
0200
0000
,
0310
0001
1000
1000
0100
0010
2002
0000
,
3003
1000
0000
0001
1000
2000
0000
3000
,
0110
0100
0000
0010
0001
0002
0000
0003
,
0101
0010
0000
1000
0001
0200
0000
0300
,
0011
1000
0000
0010
0100
0020
0000
0030
,
2000
0000
3001
0001
2001
0000
3000
0000
,
0020
0000
1030
1000
1020
0000
0030
0000
,
2000
3001
0002
0103
0200
0310
0020
0130
,
0200
0301
0002
1003
2000
3000
0002
1003
,
0200
0000
0000
2300
0000
0000
3000
0020
0000
0000
0000
0000
0000
0000
0000
0000
,
2030
0000
0000
3000
0100
0000
0000
0020
0000
0000
0000
0000
0000
0000
0000
0000
,
0032
0000
0000
2003
0000
0000
3000
0200
0000
0000
0000
0000
0000
0000
0000
0000
,
0320
0000
0000
0030
0002
0000
0003
1000
0000
0000
0002
0000
0003
0000
0000
2000
,
0000
0000
3000
0002
0000
0000
0000
0000
0000
0000
0000
0000
0000
0000
0000
0000
,
0000
0000
0000
0000
0003
0000
0000
0000
0200
0000
0300
0000
0020
0000
0000
2000
,
0030
0000
0000
0002
0000
0000
0000
0000
0000
0000
0000
0000
0000
0000
0000
0000
,
0000
0000
0000
3003
,
0200
0000
0000
0302
0000
0000
0003
0020
0000
0000
0000
0000
0000
0000
0000
0000
,
0032
0000
0000
0003
0100
0000
0000
0020
0000
0000
0000
0000
0000
0000
0000
0000
,
2030
0000
0000
3002
0000
0000
0003
0200
0000
0000
0000
0000
0000
0000
0000
0000
,
0320
0000
0000
0030
2000
0000
3000
0001
0000
0000
1000
0000
0100
0000
0000
1000
,
0001
1000
0002
0000
0000
0000
0000
0000
,
0000
0000
0000
0000
0003
0000
0000
0000
0020
0000
0000
0030
0000
0200
0000
2000
,
0300
0002
0000
0000
0000
0000
3000
0000
,
2003
0000
0000
0000
3020
0000
0030
0200
0000
0000
0300
0002
0000
0000
0000
0003
,
1000
2000
3001
1000
0002
0000
0000
0000
,
0000
0000
0000
0003
,
0001
0002
0013
0001
0020
0000
0000
0000
,
0000
0000
0000
0030
,
0100
0200
0310
0100
0020
0000
0000
0000
,
0000
0000
0000
0030
,
0001
0002
1003
0100
2000
0000
0000
0000
,
0000
0000
0000
3000
,
2000
0000
3001
0000
0100
0000
0001
0200
0000
0000
0000
0000
0300
0000
0000
0000
,
0002
0000
1003
0000
0010
0000
1000
0020
0000
0000
0000
0000
0030
0000
0000
0000
,
0200
0000
0301
0000
0010
0000
0001
0020
0000
0000
0000
0000
0030
0000
0000
0000
,
0002
0000
1003
0000
0100
0000
1000
0200
0000
0000
0000
0000
0300
0000
0000
0000
,
2000
0000
3001
0000
0010
0000
0001
0020
0000
0000
0000
0000
0030
0000
0000
0000
,
0002
0000
1003
0000
0100
0000
1000
0200
0000
0000
0000
0000
0300
0000
0000
0000
,
0020
0000
0031
0000
0100
0000
0001
0200
0000
0000
0000
0000
0300
0000
0000
0001
,
0002
0000
0003
0010
0020
0000
0030
0100
0200
0000
0300
1000
1000
0001
1000
0000
,
0001
1000
0001
2000
0000
0000
0000
0000
3001
0000
1000
0000
0002
0000
0003
0000
,
1000
0100
1000
0200
0000
0000
0000
0000
1300
0000
0100
0000
2000
0000
3000
0000
,
0001
0010
0001
0020
0000
0000
0000
0000
0031
0000
0010
0000
0002
0000
0003
0000
,
0100
0010
0100
0020
0000
0000
0000
0000
0130
0000
0010
0000
0200
0000
0300
0000
,
0001
1000
0001
2000
0000
0000
0000
0000
3001
0000
1000
0000
0002
0000
0003
0000
,
1000
0010
1000
0020
0000
0000
0000
0000
1030
0000
0010
0000
2000
0000
3000
0000
,
0001
0100
0001
0200
0000
0000
0000
0000
0301
0000
0100
0000
0002
0000
0003
0000
,
0010
0100
0010
0200
0000
0000
0000
0000
0310
0000
0100
0000
0020
0000
0030
0000
,
0200
0000
1000
0000
0300
0000
1000
0000
0000
0000
0001
0010
0002
0000
0003
0000
,
0020
0000
0100
0000
0030
0000
0100
0000
0000
0000
1000
0001
2000
0000
3000
0000
,
0002
0000
0010
0000
0003
0000
0010
0000
0000
0000
0100
1000
0200
0000
0300
0000
,
2000
0000
0001
0000
3000
0000
0001
0000
0000
0000
0010
0100
0010
0000
0001
0000
,
0200
0000
0001
0000
0300
0000
0001
0000
0000
0000
1000
0010
2000
0000
3000
0000
,
0020
0000
0100
0000
0030
0000
0100
0000
0000
0000
0001
1000
0002
0000
0003
0000
,
2000
0000
0010
0000
3000
0000
0010
0000
0000
0000
0100
0001
0200
0000
0300
0000
,
0002
1000
0003
1000
0000
1000
0000
0000
,
0001
1000
0001
2000
0000
0000
0000
0000
3001
0000
1000
0000
0002
0000
0003
0000
,
1000
0100
1000
0200
0000
0000
0000
0000
1300
0000
0100
0000
2000
0000
3000
0000
,
0001
0010
0001
0020
0000
0000
0000
0000
0031
0000
0010
0000
0002
0000
0003
0000
,
0100
0010
0100
0020
0000
0000
0000
0000
0130
0000
0010
0000
0200
0000
0300
0000
,
0001
1000
0001
2000
0000
0000
0000
0000
3001
0000
1000
0000
0002
0000
0003
0000
,
1000
0010
1000
0020
0000
0000
0000
0000
1030
0000
0010
0000
2000
0000
3000
0000
,
0001
0100
0001
0200
0000
0000
0000
0000
0301
0000
0100
0000
0002
0000
0003
0000
,
2000
0000
0000
3000
0020
0000
0000
0030
0200
0000
0000
0300
0010
0000
0010
0000
,
2002
0000
0000
0000
,
3003
0000
0000
0000
;

//---------------dance-single - ----------------
#NOTES:
     dance-single:
     :
     Challenge:
     8:
     :
0000
0000
0000
0000
,
0000
0000
0000
0000
,
0000
0000
0000
0000
,
0000
0000
0000
0000
,
0010
0010
1000
0001
0100
0010
1000
0100
,
0010
0100
1000
1000
0100
0010
0001
1000
,
0002
0000
1000
0000
2003
0000
0000
0000
3200
0000
0000
0000
0320
0000
0000
0030
,
0001
1000
0001
0100
0010
0100
0020
0030
,
0100
0100
0010
1000
0001
1000
0001
0100
,
0010
0100
0010
1000
0001
1000
0010
0100
,
0020
0000
0000
0030
2000
0000
0000
0000
3200
0000
0000
0000
0320
0000
0000
0030
,
0001
0000
1000
0000
0010
0000
0100
0000
0001
0000
1000
0000
0200
0000
0000
0300
,
0010
0010
0001
1000
0010
0100
0010
1000
,
0100
0010
0001
0001
1000
0010
0100
0010
,
2000
3200
0320
0032
,
1003
0010
0100
0001
1000
0100
0010
0000
,
0010
0010
0001
1000
0010
0100
0001
1000
,
0020
0000
0000
0000
2030
0000
0000
0000
3200
0000
0000
0000
0320
0000
0000
0030
,
0001
0001
0100
0100
0010
0010
1000
1000
,
0200
0000
0000
0300
,
0010
0000
0010
0000
0001
1000
0000
0000
0001
0000
0100
0000
0010
0000
0000
0000
,
1000
0001
0010
0100
2000
0000
0000
0000
,
3001
0000
1000
0000
0001
0100
0000
0000
0010
0000
0100
0000
0001
0000
0000
0000
,
0100
0100
0010
0100
0000
0001
1000
0100
,
0010
0000
0001
2000
0000
0000
0000
0000
0000
0000
0000
0000
0000
0000
0000
0000
,
0000
0000
3002
0003
1000
0000
0100
0020
,
0000
0200
0000
0000
0000
0000
0000
0000
,
0300
0100
0100
0130
,
1000
0000
1000
0000
0001
1000
0000
0000
0001
0000
0100
0000
0010
0000
0000
0000
,
1000
0000
0001
0200
0020
0000
0300
0000
,
1030
0000
1000
0000
0001
0100
0000
0000
0000
0000
0010
0000
0100
0000
0000
0000
,
1000
0000
0100
0010
0001
0100
0010
1000
,
0001
0200
0020
0000
0000
0000
0000
0000
,
0000
0000
0300
0000
1030
0000
1000
0001
,
0000
0200
0000
0000
0000
0000
0300
0000
,
0010
1000
0100
0010
0001
0100
1000
0000
,
0202
0000
0000
0000
,
0000
0000
0000
0303
,
2002
0000
0000
0000
,
0000
0000
0000
3003
,
2200
0000
0000
0000
,
0000
0000
0000
3300
,
0220
0000
0000
0000
,
0000
0000
0000
0330
,
1000
1000
0010
0100
0001
1000
0100
0010
,
0001
1000
0001
1000
0000
0200
0010
0300
,
0001
0001
0010
0100
1000
0001
0100
0010
,
1000
0001
1000
0001
0100
0010
0200
0000
,
0001
0301
1000
0010
0100
0001
1000
0100
,
0010
0100
0010
0002
0000
1003
0100
0000
,
0010
0010
0001
1000
0010
0100
0001
1000
,
0001
1000
0001
0100
0010
1000
0100
0010
,
0001
0001
0100
0010
1000
0100
0010
0100
,
0001
1000
0001
2000
0000
3100
0010
0000
,
0001
0001
1000
0100
0010
0001
0100
0010
,
1000
0001
1000
0001
1000
0010
0100
0000
,
1000
1000
0010
0100
0001
1000
0100
0010
,
1000
0001
1000
0002
0000
0103
0010
0000
,
0001
0001
0010
0100
1000
0001
0100
0010
,
0001
1000
0001
1000
0001
0100
0020
0000
,
1030
1000
0010
0100
0001
1000
0100
0010
,
0100
0010
0001
0100
0010
1000
0100
0000
,
0010
0010
0001
1000
0010
0100
0001
1000
,
0100
0010
0100
0010
0001
1000
0002
0000
,
1003
1000
0010
0100
0001
1000
0100
0010
,
0100
0010
0100
1000
0100
0010
0001
0200
,
0010
0310
1000
0100
0010
0001
1000
0000
,
0100
0010
0001
1000
0010
0100
0002
0000
,
1003
1000
0010
0001
0100
0010
1000
0100
,
0010
0001
0100
1000
0010
1000
0200
0000
,
0301
0001
1000
0010
0001
0100
1000
0010
,
0001
1000
0001
0100
0001
1000
0001
0100
,
0010
1000
0100
0010
0001
1000
0001
1000
,
0100
0010
0100
0010
0001
1000
0001
0100
,
0010
0100
0001
1000
0010
1000
0100
0010
,
0001
0100
0010
1000
0100
0010
0001
0000
,
2200
0000
0000
0000
,
3300
0000
0000
0000
;

//---------------dance-double - ----------------
#NOTES:
     dance-double:
     :
     Beginner:
     1:
     :
00000000
00000000
00000000
00000000
,
00000000
00000000
00000000
00000000
,
00000000
00000000
00000000
00000000
,
00000000
00000000
00000000
00000000
,
00000010
00000000
00000001
00000000
,
00000100
00000000
00000010
00000000
,
00000100
00000000
00001000
00000000
,
00010000
00000000
00001000
00000000
,
00011000
00000000
00000000
00000000
,
00000000
00000000
00000000
00000000
,
00001000
00000000
00010000
00000000
,
00001000
00000000
00010000
00000000
,
00011000
00000000
00001000
00000000
,
00011000
00000000
00010000
00000000
,
00011000
00000000
00100000
00000000
,
01000000
00000000
00100000
00000000
,
01000000
00000000
10000000
00000000
,
00100000
00000000
01000000
00000000
,
00010000
00000000
00100000
00000000
,
00010000
00000000
00100000
00000000
,
00011000
00000000
00000000
00000000
,
00000000
00000000
00000000
00000000
,
00000000
00000000
00000000
00000000
,
00000000
00000000
00000010
00000000
,
00000100
00000000
00000000
00000000
,
00000000
00000000
00000001
00000000
,
00001000
00000000
00000000
00000000
,
00000000
00000000
00000000
00000000
,
00000100
00000000
00010000
00000000
,
00001000
00000000
00100000
00000000
,
00010000
00000000
01000000
00000000
,
00100000
00000000
10000000
00000000
,
00010000
00000000
00000000
00000000
,
00000000
00000000
00100000
00000000
,
01000000
00000000
00000000
00000000
,
00000000
00000000
00000000
00000000
,
00010000
00000000
00001000
00000000
,
00000000
00000000
00000000
00000000
,
00000100
00000000
00000010
00000000
,
00000000
00000000
00000000
00000000
,
00000001
00000000
00001000
00000000
,
00000000
00000000
00000000
00000000
,
00000100
00000000
00010000
00000000
,
00000000
00000000
00000000
00000000
,
00001000
00000000
00010000
00000000
,
00001000
00000000
01000000
00000000
,
00010000
00000000
00100000
00000000
,
01000000
00000000
10000000
00000000
,
00100000
00000000
01000000
00000000
,
00100000
00000000
10000000
00000000
,
00010000
00000000
00100000
00000000
,
00001000
00000000
00010000
00000000
,
00011000
00000000
00001000
00000000
,
00000100
00000000
00000010
00000000
,
00000010
00000000
00000010
00000000
,
00001000
00000000
00000001
00000000
,
00000010
00000000
00000100
00000000
,
00001000
00000000
00000100
00000000
,
00010000
00000000
00001000
00000000
,
00011000
00000000
00000000
00000000
,
00010000
00000000
00100000
00000000
,
01000000
00000000
00010000
00000000
,
10010000
00000000
10000000
00000000
,
01000000
00000000
00100000
00000000
,
00010000
00000000
10000000
00000000
,
00100000
00000000
00010000
00000000
,
00001000
00000000
00010000
00000000
,
00001000
00000000
00000100
00000000
,
00000010
00000000
00001000
00000000
,
00000010
00000000
00000100
00000000
,
00000001
00000000
00000010
00000000
,
00000100
00000000
00000010
00000000
,
00001000
00000000
00010000
00000000
,
00100000
00000000
01000000
00000000
,
00100000
00000000
10000000
00000000
,
00010000
00000000
10000000
00000000
,
10010000
00000000
00000000
00000000
;

//---------------dance-double - ----------------
#NOTES:
     dance-double:
     :
     Easy:
     4:
     :
00000000
00000000
00000000
00000000
,
00000000
00000000
00000000
00000000
,
00000000
00000000
00000000
00000000
,
00000000
00000000
00000000
00000000
,
00200000
00000000
00320000
00030000
,
20000000
00000000
32000000
03000000
,
20000000
00000000
30020000
00030000
,
02000000
00000000
03200000
00300000
,
20020000
00000000
00000000
00000000
,
00000000
00000000
00030000
30000000
,
01000000
00100000
00001000
00010000
,
00000010
00001000
00000001
00001000
,
00000110
00000000
00000010
00000100
,
00001001
00000000
00000010
00010000
,
00011000
00000000
01000000
00010000
,
01010000
00000000
00100000
01000000
,
00020000
10000000
10000000
00030000
,
00200000
01000000
01000000
00300000
,
00020000
10030000
02000000
03100000
,
02000000
23000000
30020000
00030000
,
20020000
00000000
00000000
00000000
,
00000000
00000000
00000000
00000000
,
00000000
00000000
00000000
00000000
,
00000000
00030000
30200000
02300000
,
03020000
20000000
00000000
00000000
,
00000000
00030000
32000000
03200000
,
00320000
20000000
00000000
00000000
,
00000000
00000000
00000000
30030000
,
00200000
02300000
03020000
00000000
,
00230000
00302000
00023000
00000000
,
00030200
00002300
00003020
00000000
,
00000230
00000302
00000023
00000230
,
00002300
00000002
00000000
00000000
,
00000000
00000003
00003020
00000230
,
00000302
00002000
00000000
00000000
,
00000000
00000000
00000000
00003003
,
00000100
00000010
00000002
00000000
,
00000000
00000000
00000000
00000003
,
00001000
00000010
00000200
00000000
,
00000000
00000000
00000000
00000300
,
00000001
00000010
00000200
00000000
,
00000000
00000000
00000000
00000300
,
00001000
00000010
00020000
00000000
,
00000000
00000000
00000000
00030000
,
00001000
00100000
02000000
03000000
,
00100000
00010000
20000000
30000000
,
01000000
00100000
00020000
00030000
,
10000000
01000000
00200000
00300000
,
01000000
10000000
00020000
00030000
,
00100000
00001000
00020000
00030000
,
00000200
00002300
00003020
00000230
,
00000302
00001003
00001000
00000001
,
00001001
00000001
00001000
00000010
,
00001000
00000100
00002000
00003001
,
00000110
00000001
00000010
00000100
,
00001000
00000001
00000200
00000301
,
00001010
00001000
00000100
00010000
,
00001000
00100000
00010000
01000000
,
00100000
10000000
00010000
01000000
,
20200000
00000000
00000000
30300000
,
02000000
03000000
00010000
00100000
,
02000000
03000000
10000000
00010000
,
02200000
03300000
00010000
10000000
,
00020000
00030000
00100000
00001000
,
00020000
00030000
00000010
00001000
,
00000002
00000003
00000100
00000010
,
00002000
00003200
00000320
00000032
,
00000203
00000320
00002030
00003002
,
00001003
00000001
00000100
00000010
,
00001000
00000100
00020000
00031000
,
00011000
01000000
00010000
00100000
,
01000000
10000000
00020000
00130000
,
01100000
01000000
00100000
00010000
,
10000000
00100000
01000000
00010000
,
00200000
00320000
20030000
30200000
,
02300000
03020000
20030000
30000000
,
02200000
00000000
00000000
00000000
,
03300000
00000000
00000000
00000000
;

//---------------dance-double - ----------------
#NOTES:
     dance-double:
     :
     Medium:
     5:
     :
00000000
00000000
00000000
00000000
,
00000000
00000000
00000000
00000000
,
00000000
00000000
00000000
00000000
,
00000000
00000000
00000000
00000000
,
02000000
10000000
03200000
00300000
,
00020000
10000000
02030000
03000000
,
00002000
00010000
00023000
00030000
,
00000020
00001000
00000230
00000300
,
00000001
00001000
00000020
00000000
00001030
00000001
00000100
00000000
,
00000010
00001000
00000002
00000000
00001003
00000010
00000100
00000000
,
00000001
00000000
00001000
00000000
00000100
00000010
00000100
00000000
,
00001000
00000000
00000010
00000000
00010000
00001000
00010000
00000000
,
00002000
00000000
00013000
00000000
00001000
00010000
00001000
00000000
,
02000000
00000000
03010000
00000000
10000000
00010000
01000000
00000000
,
00200000
00000000
10300000
00000000
00010000
10000000
01000000
00000000
,
02000000
00000000
03100000
00000000
00010000
10000000
00100000
00000000
,
02000000
00000000
00010000
00010000
00010000
00000000
03000000
00000000
,
20000000
00000000
01000000
01000000
01000000
00000000
30000000
00000000
,
00200000
00010000
00310000
00000000
20000000
01000000
31000000
00000000
,
00100000
00100000
01000000
01000000
00100000
00100000
00110000
00000000
,
00220000
00000000
00000000
00330000
,
00022000
00000000
00000000
00033000
,
00002020
00000000
00000000
00003030
,
00000200
00000300
00000001
00000000
00001000
00000020
00000030
00000000
,
00000100
00000001
00002000
00000000
00000000
00000000
00000000
00000000
,
00000000
00000000
00000000
00000000
00000000
00000000
00000000
00000000
00003200
00000000
00000300
00000000
00020000
00000000
00000000
00002000
,
00030000
00000000
00000000
00020000
00000000
00000000
00000000
00000000
00000000
00000000
00000000
00000000
00000000
00000000
00000000
00000000
,
00000000
00000000
00000000
00033000
,
00002000
00000000
00000000
02003000
00000000
00000000
03000000
00020000
00000000
00000000
00000000
00000000
00000000
00000000
00000000
00000000
,
20030000
00000000
00000000
30000000
01000000
00000000
00000000
00200000
00000000
00000000
00000000
00000000
00000000
00000000
00000000
00000000
,
00320000
00000000
00000000
20030000
00000000
00000000
30000000
02000000
00000000
00000000
00000000
00000000
00000000
00000000
00000000
00000000
,
03200000
00000000
00000000
00300000
00020000
00000000
00030000
10000000
00000000
00000000
00010000
00000000
01000000
00000000
00000000
00010000
,
10000000
00010000
02000000
00000000
00000000
00000000
00000000
00000000
,
00000000
00000000
00000000
00000000
03000000
00000000
00000000
00000000
00200000
00000000
00000000
00300000
00000000
02000000
00000000
00020000
,
03000000
20000000
00000000
00000000
00000000
00000000
00000000
00000000
,
00000000
00000000
00000000
30030000
,
00010000
01000000
00010000
02000000
00000000
00000000
00000000
00000000
,
00000000
00000000
00000000
03000000
,
00001000
00010000
00001000
00020000
00000000
00000000
00000000
00000000
,
00000000
00000000
00000000
00030000
,
00000010
00001000
00000010
00002000
00000000
00000000
00000000
00000000
,
00000000
00000000
00000000
00003000
,
00000001
00000100
00000001
00000020
00000000
00000000
00000000
00000000
,
00000000
00000000
00000000
00000030
,
00000001
00001000
00000000
00000020
00000000
00000000
00000030
00000000
,
00001000
00000001
00000000
00000020
00000000
00000000
00000030
00000000
,
00000100
00001000
00000000
00000002
00000000
00000000
00000003
00000000
,
00000010
00000100
00000000
00002000
00000000
00000000
00003000
00000000
,
00000100
00000010
00000001
00000020
00000000
00000000
00000030
00000000
,
00000100
00001000
00000001
00000020
00000000
00000000
00000030
00000000
,
00000001
00000010
00000200
00000000
00001300
00000001
00000020
00000000
,
00000130
00001000
00000002
00000000
00001003
00000010
00020000
00000000
,
00031000
00000000
00010000
00001000
00200000
00000000
01300000
00000000
,
10000000
00000000
00010000
01000000
00020000
00000000
00130000
00000000
,
00010000
00000000
01000000
00100000
02000000
00000000
03010000
00000000
,
01000000
00000000
00100000
10000000
00020000
00000000
01030000
00000000
,
00010000
00000000
00100000
00010000
02000000
00000000
03010000
00000000
,
00100000
00000000
01000000
00100000
00020000
00000000
10030000
00000000
,
10000000
00000000
00010000
10000000
02000000
00000000
13000000
00000000
,
02020000
00000000
00000000
03030000
,
20000000
00000000
30100000
00100000
02000000
00000000
03010000
00000000
,
00200000
00000000
00310000
00010000
20000000
00000000
30010000
00000000
,
02100000
00000000
03100000
00100000
20000000
00000000
30010000
00000000
,
02000000
00000000
03010000
00010000
02000000
00000000
03001000
00000000
,
00010000
00000000
00001000
00010000
00002000
00000000
00013000
00000000
,
00000100
00000000
00001000
00000010
00002000
00000000
00003001
00000000
,
00000100
00000000
00000010
00000000
00001000
00000000
00000010
00000100
,
00000001
00000000
00001000
00000000
00000100
00000000
00000010
00000010
,
00000001
00000000
00001000
00000100
00020000
00000000
00031000
00000000
,
00001000
00000000
00100000
00010000
02000000
00000000
03010000
00000000
,
10000000
00000000
00100000
10000000
00020000
00000000
00130000
00000000
,
01000000
00000000
10000000
00010000
02000000
00000000
03001000
00000000
,
00010000
00000000
00001000
00010000
00000200
00000000
00001300
00000000
,
00000001
00000000
00001000
00000100
00000020
00000000
00000031
00000000
,
00001000
00000000
00000010
00000000
00000100
00000000
00000001
00001000
,
00000001
00000000
00001000
00000000
00000010
00000000
00000100
00000100
,
00002002
00000000
00000000
00000000
,
00003003
00000000
00000000
00000000
;

//---------------dance-double - ----------------
#NOTES:
     dance-double:
     :
     Hard:
     8:
     :
00000000
00000000
00000000
00000000
,
00000000
00000000
00000000
00000000
,
00000000
00000000
00000000
00000000
,
00000000
00000000
00000000
00000000
,
10000000
10000000
02100000
00000000
03020000
00000000
00030000
00000000
,
01000000
00100000
20100000
00000000
30020000
00000000
00030000
00000000
,
00100000
00100000
00012000
00000000
00023000
00000000
00030000
00000000
,
00001000
00001000
00012000
00000000
00023000
00000000
00030000
00000000
,
00000010
00001000
00000010
00000010
00001000
00000001
00000200
00000000
,
00000310
00001000
00000001
00000001
00001000
00000001
00000200
00000000
,
00000310
00001000
00000001
00000001
00000100
00000010
00002000
00000000
,
00003001
00000100
00000010
00001000
00000001
00000100
00002020
00000000
,
00003030
00000001
00000000
00000100
00000010
00002000
00000000
00003000
,
00000101
00000001
00000000
00000100
00000010
00002000
00000000
00003000
,
00001100
00000001
00000000
00000100
00000010
00002000
00000000
00003000
,
00000011
00000001
00000000
00001000
00000010
00000020
00000000
00000030
,
00020000
00000000
00031000
00001000
00021000
00000000
00030000
00000000
,
00200000
00000000
00310000
00010000
20010000
00000000
30000000
00000000
,
00200000
10300000
20000000
30010000
00020000
00130000
00200000
01300000
,
02000000
13000000
20000000
30100000
00200000
00300000
02000000
03010000
,
20000000
00000000
00000000
30200000
00000000
00000000
00300000
02000000
00000000
00000000
00000000
00000000
00000000
00000000
00000000
00000000
,
03020000
00000000
00000000
00030000
10000000
00000000
00000000
00200000
00000000
00000000
00000000
00000000
00000000
00000000
00000000
00000000
,
02300000
00000000
00000000
03020000
00000000
00000000
00030000
20000000
00000000
00000000
00000000
00000000
00000000
00000000
00000000
00000000
,
30200000
00000000
00000000
00300000
02000000
00000000
03000000
00010000
00000000
00000000
20000000
00000000
30000000
00000000
00000000
02000000
,
00000000
03000000
00200000
00000000
00000000
00000000
00000000
00000000
,
00000000
00000000
00000000
00000000
00300000
00000000
00000000
00000000
00020000
00000000
00030000
00000000
20000000
00000000
00000000
00020000
,
30000000
00000000
00000000
02000000
00000000
00000000
00000000
00000000
00000000
00000000
00000000
00000000
00000000
00000000
00000000
00000000
,
00000000
00000000
00000000
03030000
,
00002000
00000000
00000000
00023000
00000000
00000000
00030000
00000020
00000000
00000000
00000000
00000000
00000000
00000000
00000000
00000000
,
00002030
00000000
00000000
00003000
00000001
00000000
00000000
00000200
00000000
00000000
00000000
00000000
00000000
00000000
00000000
00000000
,
00000320
00000000
00000000
00002030
00000000
00000000
00003000
00000002
00000000
00000000
00000000
00000000
00000000
00000000
00000000
00000000
,
00000203
00000000
00000000
00000300
00000020
00000000
00000030
00001000
00000000
00000000
00000001
00000000
00000010
00000000
00000000
00000001
,
00001000
00000001
00000200
00000000
00000000
00000000
00000000
00000000
,
00000000
00000000
00000000
00000000
00000300
00000000
00000000
00000000
00000020
00000000
00000000
00000030
00000000
00002000
00000000
00000002
,
00003000
00000020
00000000
00000000
00000000
00000000
00000003
00000000
,
00000230
00000000
00000000
00000000
00002300
00000000
00003000
00000200
00000000
00000000
00000300
00002000
00000000
00000000
00000000
00003000
,
00000010
00000020
00001030
00000010
00020000
00000000
00000000
00000000
,
00000000
00000000
00000000
00030000
,
00001000
02000000
03010000
01000000
00020000
00000000
00000000
00000000
,
00000000
00000000
00000000
00030000
,
10000000
20000000
30100000
10000000
00020000
00000000
00000000
00000000
,
00000000
00000000
00000000
00030000
,
01000000
02000000
03001000
00010000
00000020
00000000
00000000
00000000
,
00000000
00000000
00000000
00000030
,
00002000
00000000
00003010
00000000
00000100
00000000
00000001
00000200
00000000
00000000
00000000
00000000
00000300
00000000
00000000
00000000
,
00000020
00000000
00001030
00000000
00000001
00000000
00000100
00000020
00000000
00000000
00000000
00000000
00000030
00000000
00000000
00000000
,
00002000
00000000
00003001
00000000
00000100
00000000
00000010
00000200
00000000
00000000
00000000
00000000
00000300
00000000
00000000
00000000
,
00000002
00000000
00001003
00000000
00000010
00000000
00001000
00000020
00000000
00000000
00000000
00000000
00000030
00000000
00000000
00000000
,
00020000
00000000
00031000
00000000
00100000
00000000
00010000
00200000
00000000
00000000
00000000
00000000
00300000
00000000
00000000
00000000
,
00020000
00000000
10030000
00000000
01000000
00000000
10000000
02000000
00000000
00000000
00000000
00000000
03000000
00000000
00000000
00000000
,
00200000
00000000
00310000
00000000
10000000
00000000
00010000
20000000
00000000
00000000
00000000
00000000
30000000
00000000
00000000
00100000
,
00200000
00000000
00300000
10000000
20000000
00000000
30000000
01000000
02000000
00000000
03000000
00100000
00100000
00010000
00100000
00000000
,
00010000
00100000
00010000
00200000
00000000
00000000
00000000
00000000
00301000
00000000
00010000
00000000
00000020
00000000
00000030
00000000
,
00001000
00000010
00001000
00000020
00000000
00000000
00000000
00000000
00001030
00000000
00000010
00000000
00000200
00000000
00000300
00000000
,
00000001
00001000
00000001
00002000
00000000
00000000
00000000
00000000
00003010
00000000
00000100
00000000
00000002
00000000
00000003
00000000
,
00001000
00000010
00001000
00000020
00000000
00000000
00000000
00000000
00000130
00000000
00000010
00000000
00002000
00000000
00003000
00000000
,
00000100
00001000
00000100
00002000
00000000
00000000
00000000
00000000
00003001
00000000
00001000
00000000
00000002
00000000
00000003
00000000
,
00000010
00000100
00000010
00000200
00000000
00000000
00000000
00000000
00001300
00000000
00000100
00000000
00002000
00000000
00003000
00000000
,
00000001
00000010
00000001
00000020
00000000
00000000
00000000
00000000
00000031
00000000
00000010
00000000
00000002
00000000
00000003
00000000
,
00001000
00000100
00001000
00000200
00000000
00000000
00000000
00000000
00000310
00000000
00000100
00000000
00002000
00000000
00003000
00000000
,
00000002
00000000
00000100
00000000
00000003
00000000
00000100
00000000
00000000
00000000
00000010
00001000
00000020
00000000
00000030
00000000
,
00020000
00000000
00001000
00000000
00030000
00000000
00001000
00000000
00000000
00000000
00010000
00001000
00020000
00000000
00030000
00000000
,
00002000
00000000
00010000
00000000
00003000
00000000
00001000
00000000
00000000
00000000
00100000
00010000
00200000
00000000
00300000
00000000
,
02000000
00000000
00100000
00000000
03000000
00000000
00100000
00000000
00000000
00000000
00010000
01000000
00010000
00000000
00010000
00000000
,
02000000
00000000
00010000
00000000
03000000
00000000
00010000
00000000
00000000
00000000
10000000
00010000
20000000
00000000
30000000
00000000
,
00200000
00000000
01000000
00000000
00300000
00000000
01000000
00000000
00000000
00000000
00010000
10000000
00020000
00000000
00030000
00000000
,
02000000
00000000
00100000
00000000
03000000
00000000
00100000
00000000
00000000
00000000
01000000
00010000
02000000
00000000
03000000
00000000
,
00002000
00010000
00003000
00010000
00000000
00000010
00000000
00000000
,
00001000
00000001
00001000
00000002
00000000
00000000
00000000
00000000
00000013
00000000
00000001
00000000
00000020
00000000
00000030
00000000
,
00000001
00000100
00000001
00000200
00000000
00000000
00000000
00000000
00000310
00000000
00000100
00000000
00000002
00000000
00000003
00000000
,
00001000
00000010
00001000
00000020
00000000
00000000
00000000
00000000
00000130
00000000
00000010
00000000
00000200
00000000
00000300
00000000
,
00000001
00000010
00000001
00000020
00000000
00000000
00000000
00000000
00000130
00000000
00000010
00000000
00000200
00000000
00000300
00000000
,
00001000
00000001
00001000
00000020
00000000
00000000
00000000
00000000
00000130
00000000
00000010
00000000
00000200
00000000
00000300
00000000
,
00000001
00001000
00000001
00002000
00000000
00000000
00000000
00000000
00003010
00000000
00001000
00000000
00000020
00000000
00000030
00000000
,
00001000
00000001
00001000
00000002
00000000
00000000
00000000
00000000
00001003
00000000
00000001
00000000
00000200
00000000
00000300
00000000
,
00000020
00000000
00000000
00000030
00002000
00000000
00000000
00003000
00000200
00000000
00000000
00000300
00000010
00000000
00000010
00000000
,
00002002
00000000
00000000
00000000
,
00003003
00000000
00000000
00000000
;
