#TITLE:Ready Steady Go;
#ARTIST:Paul Oakenfold;
#BANNER:Ready Steady Go.png;
#BACKGROUND:Ready Steady Go-bg.png;
#CDTITLE:./CDTITLES/DANCE DANCE REVOLUTION ULTRAMIX.PNG;
#MUSIC:Ready Steady Go.ogg;
#SAMPLESTART:26.27;
#SAMPLELENGTH:15;
#DISPLAYBPM:64:256;
#BPMS:0=128,92=64,108=128,132=255.5,148=128;

//---------------dance-single - ----------------
#NOTES:
     dance-single:
     :
     Easy:
     7:
     :
0000
0000
0000
0000
,
0000
0000
0000
0000
,
0000
0000
0000
0000
,
0020
0000
0000
0000
,
2000
0000
0000
0030
,
0002
0000
0000
3000
,
0000
0000
0100
0103
,
0010
0100
0001
0100
,
0001
1000
0100
1000
,
0110
0000
0001
1000
,
0100
0010
0001
0100
,
0001
0010
0001
1000
,
0100
1000
0010
0100
,
1001
0000
0100
0010
,
0100
0010
0100
1001
,
0010
0000
0010
0000
0010
1000
0010
0000
,
1000
0000
1000
0000
1000
0010
1000
0000
,
0001
0000
0001
0000
0001
0100
0001
0000
,
0100
0000
0100
0000
0100
0001
0100
0000
,
0001
0010
0001
1000
,
1000
0000
0010
0000
1000
0100
1000
0000
,
0001
0000
0100
0000
0001
0100
0001
0000
,
0010
0100
0010
1001
,
0020
0000
2000
0000
,
3000
0000
0000
0000
,
0000
0000
2000
0000
,
3000
0000
0000
0000
0000
0100
1030
0100
,
1000
1000
1000
1000
,
0100
0100
0100
0100
,
0010
0010
0010
0010
,
0001
0001
0001
0001
,
1000
0100
0010
0001
,
0010
0100
1000
0100
,
1000
0000
0100
0000
,
0010
0000
0001
0000
,
0010
0000
0100
0000
,
1000
0000
0100
0000
,
0002
0000
0100
0000
0100
0100
0103
0000
,
2000
0000
0100
0000
0100
0100
3100
0000
,
0002
0103
2000
3100
,
0020
0230
2300
3002
,
1003
1000
1000
0000
0001
0001
0001
0000
,
1000
0100
0010
0001
0010
0100
1000
0000
,
0010
1000
0001
0000
1000
0001
0100
0000
,
0010
0100
0010
0000
0100
0010
0100
0000
,
0001
0002
0000
0103
,
1000
2000
0000
3010
,
0001
0020
0000
0130
,
1000
0200
0000
0310
,
1000
1000
0100
1000
,
0001
0001
0100
0001
,
0010
0001
0100
0001
,
0010
1000
0100
1000
,
2002
0000
0000
3003
;

//---------------dance-single - ----------------
#NOTES:
     dance-single:
     :
     Medium:
     8:
     :
0000
0000
0000
0000
,
0000
0000
0000
0000
,
0000
0000
0000
0000
,
2000
0000
0000
0010
,
0020
0000
3000
0100
,
0200
0000
0030
0001
,
0001
0000
0000
0000
0001
0001
0301
0000
,
1000
0001
0100
0000
0001
1000
0100
0000
,
1000
0010
0100
0000
0010
0100
0001
0000
,
0100
0001
0010
0000
0100
1000
0001
0000
,
1000
0100
0010
0001
0100
0001
1000
0000
,
0001
1000
0100
0000
1000
0001
0100
0000
,
0001
1000
0010
0000
1000
0001
0010
0000
,
0001
0100
0010
0100
0001
0100
0010
0100
,
0010
0100
0010
1000
0010
0000
0110
0000
,
1001
0000
1000
0100
0000
0001
0100
0000
,
0101
0000
0000
0010
0001
0000
1000
0000
,
1100
0000
0000
0010
1000
0000
0001
0000
,
0110
0000
0000
0001
1000
0000
0001
0000
,
0110
0000
0001
0010
0000
1000
0010
0000
,
1010
0000
0000
0100
1000
0000
0001
0000
,
0011
0000
0000
0100
0001
0000
1000
0000
,
1001
0000
0000
0010
0100
0000
0010
0000
,
2002
0000
0000
0000
0000
0000
3000
0000
0100
0000
0000
0000
0000
0000
0000
1000
,
2000
0000
0000
3000
,
0010
0000
0000
0000
0000
0000
0000
0100
0200
0000
0000
0000
0000
0000
0300
1000
,
2000
0000
0000
0000
3000
0100
1003
1000
,
0001
0010
0100
1000
,
1000
0100
1000
0100
,
0010
0001
0100
0000
0010
1000
0100
0000
,
1000
0001
0010
0000
0001
1000
0100
0000
,
0001
0100
0001
0100
0001
0010
0001
0000
,
1000
0010
1000
0010
1000
0100
1000
0000
,
0010
1000
0010
1000
,
0001
0100
0001
0100
,
0001
1000
0001
1000
,
0100
1000
0100
1000
,
0020
0000
0000
0000
0000
0000
0100
0000
0000
0100
0000
0000
0130
0000
0000
0000
,
0200
0000
0000
0000
0000
0000
0010
0000
0000
0010
0000
0000
0310
0000
0000
0000
,
0002
0000
0000
0000
0000
0000
1000
0000
0000
1000
0000
0000
1003
0000
0000
0000
,
2000
0000
0000
0000
0000
0000
0001
0000
0000
0001
0000
0000
3001
0000
0000
0000
,
0010
0000
0010
0000
0010
0000
1000
0000
0000
0001
0000
0000
0100
0000
0000
0000
,
0001
0000
0001
0000
0001
0000
0010
0000
0000
0100
0000
0000
0010
0000
0000
0000
,
0100
0000
0100
0000
0100
0000
1000
0000
0000
0001
0000
0000
0010
0000
0000
0000
,
1001
0110
1001
0110
,
0010
1000
0010
0100
0000
0100
0001
0000
,
2000
0000
0000
0010
0010
0000
3001
0000
,
0002
0000
0000
0100
0100
0000
1003
0000
,
0010
0100
0001
1000
0010
0100
0001
1000
,
0001
0010
0001
1000
0000
1000
0100
0000
,
0002
0000
0000
0010
0010
0000
1003
0000
,
2000
0000
0000
0100
0100
0000
3001
0000
,
0000
0101
1010
0110
,
2002
0000
0000
0000
,
3003
0000
0000
0000
;

//---------------dance-single - ----------------
#NOTES:
     dance-single:
     :
     Hard:
     9:
     :
0000
0000
0000
0000
,
0000
0000
0000
0000
,
0000
0000
0000
0000
,
0200
0000
0000
0000
0000
0000
0001
0002
0000
0000
0000
0000
0300
0000
1000
2000
,
0000
0000
0000
0000
0003
0000
0010
0020
0000
0000
0000
0000
3000
0000
0100
0200
,
0000
0000
0000
0000
0030
0000
0001
0002
0000
0000
0000
0000
0300
0000
1000
2000
,
0000
3003
0110
1001
,
0010
0000
0010
0000
0001
0000
0000
0001
1000
0000
0001
0000
1000
0000
0000
1000
,
0001
0000
1000
0000
0001
0000
0000
0100
0010
0000
0100
0000
0010
0000
0000
0000
,
0100
0000
0100
0000
1000
0000
0000
0001
1000
0000
0001
0000
1000
0000
0000
1000
,
0001
0000
1000
0000
0001
0000
0000
0010
0100
0000
0010
0000
0100
0000
0000
0000
,
0010
0000
0010
0000
0010
0000
0000
0001
0100
0000
0100
0000
0100
0000
0000
0010
,
1000
0000
1000
0000
1000
0000
0000
0001
0100
0000
0100
0000
0100
0000
0000
0000
,
0010
0000
1000
0000
0010
0000
0000
0001
0100
0000
0001
0000
0100
0000
0000
0010
,
0001
0000
0010
0000
0001
0000
0000
0100
1000
0000
0100
0000
1000
0000
0000
0000
,
0010
0001
1000
0000
1000
0001
0100
0000
,
0010
1000
0010
0000
0100
1000
0100
0000
,
1000
1000
0100
0000
0001
0001
0100
0000
,
0010
0010
1000
0000
0100
0100
0001
0000
,
2000
0001
3001
0000
0002
1000
1003
0000
,
0200
1000
1300
0000
0020
0001
0031
0000
,
2000
0010
3010
0000
0002
1000
1003
0000
,
0020
0100
0130
0000
0200
0010
0310
0000
,
0020
0000
0000
0000
0000
0000
0000
0000
2000
0000
0000
0000
0030
0000
0000
0001
,
0002
0000
0000
3000
,
0200
0000
0000
0000
0003
0000
0000
0010
0020
0000
0000
0000
0300
0000
0000
1000
,
2000
0000
0000
0000
0030
0000
0000
0001
0002
0000
0000
0000
0000
0000
3003
0000
,
0010
1000
0010
1000
0010
1000
0010
1000
,
0001
1000
0001
1000
0001
1000
0001
1000
,
0100
0010
0100
0010
0100
0010
0100
0010
,
0100
1000
0100
1000
0100
1000
0100
0000
,
0010
0001
0010
0001
0010
0001
0010
0001
,
1000
0100
1000
0100
1000
0100
1000
0100
1000
0100
1000
0100
1000
0100
1000
0100
,
0010
0001
0010
0001
0010
0001
0010
0001
,
0010
0001
0010
0001
0010
0001
0010
0001
,
1000
0010
0100
0001
,
1000
0010
0100
0001
,
1000
0000
1000
0000
1000
0000
0010
0000
0000
1000
0000
0000
0001
0000
0000
0000
,
0001
0000
0001
0000
0001
0000
0010
0000
0000
0001
0000
0000
1000
0000
0000
0000
,
0010
0000
0010
0000
0010
0000
0100
0000
0000
0001
0000
0000
1000
0000
0000
0000
,
0100
0100
0100
0010
1000
0001
1000
0001
,
2000
0000
0010
0000
0010
0000
0010
0000
0000
0010
0000
0000
3010
0000
0000
0000
,
0002
0000
0100
0000
0100
0000
0100
0000
0000
0100
0000
0000
0103
0000
0000
0000
,
0020
0000
1000
0000
1000
0000
1000
0000
0000
1000
0000
0000
1030
0000
0000
0000
,
0101
1100
1010
0011
,
0010
0000
0010
0000
0001
0000
0000
0001
1000
0000
0001
0000
1000
0000
0000
1000
,
0001
0000
1000
0000
0001
0000
0000
0100
0010
0000
0100
0000
0010
0000
0000
0000
,
0100
0000
0100
0000
1000
0000
0000
0001
1000
0000
0001
0000
1000
0000
0000
1000
,
0001
0000
1000
0000
0001
0000
0000
0010
0100
0000
0010
0000
0100
0000
0000
0000
,
0010
1000
0010
0100
0000
0100
0001
0000
,
2010
0000
0000
0010
0010
0000
3001
0000
,
0102
0000
0000
0100
0100
0000
1003
0000
,
0101
1100
1010
0011
,
2002
0000
0000
0000
,
3003
0000
0000
0000
;

//---------------dance-double - ----------------
#NOTES:
     dance-double:
     :
     Easy:
     6:
     :
00000000
00000000
00000000
00000000
,
00000000
00000000
00000000
00000000
,
00000000
00000000
00000000
00000000
,
00000020
00000000
00000000
00000000
,
00020000
00000000
00000000
00000030
,
00002000
00000000
00000000
00030000
,
00000000
00000000
00010000
00013000
,
00001000
01000000
00010000
01000000
,
00010000
10000000
01000000
10000000
,
00110000
01000000
00001000
00010000
,
00000010
00001000
00000001
00000100
,
00000001
00000010
00000001
00001000
,
00000100
00001000
00000010
00000100
,
00000010
00010000
00001000
00100000
,
01000000
00100000
01000000
10010000
,
00100000
00000000
10000000
00000000
00100000
10000000
00100000
00000000
,
00010000
00000000
01000000
00000000
00010000
01000000
00010000
00000000
,
10000000
00000000
00100000
00000000
10000000
00100000
10000000
00000000
,
01000000
00000000
00010000
00000000
01000000
00010000
01000000
00000000
,
00010000
00100000
00001000
00010000
,
00000010
00001000
00000010
00000100
,
00000001
00000100
00000001
00001000
,
00000010
00000100
00000010
00001001
,
00000020
00000000
00002000
00000000
,
00003000
00000000
00000000
00000000
,
00000000
00000000
00000200
00000000
,
00000300
00000000
00000000
00000000
00000000
00001000
00001030
00001000
,
00000001
00000001
00000001
00000010
,
00000100
00001000
00001000
00001000
,
00000100
00010000
00001000
00100000
,
00010000
00100000
00010000
01000000
,
00010000
00100000
01000000
10000000
,
01000000
00100000
00010000
10000000
,
00010000
10000000
00000000
01000000
,
00000000
00100000
00000000
00001000
,
00000000
00010000
00000000
00000100
,
00000000
00000010
00000000
00000001
,
00002000
00000000
00000100
00000000
00000100
00000100
00003100
00000000
,
00020000
00000000
00001000
00000000
00001000
00001000
00031000
00000000
,
00200000
00310000
00020000
01030000
,
00200000
02300000
03020000
20030000
,
30010000
00010000
00010000
00000000
01000000
01000000
01000000
00000000
,
00001000
00010000
00010000
00000100
,
00000010
00000001
00001000
00000000
00000001
00001000
00000100
00000000
,
00001000
00000010
00000100
00000000
00000001
00000010
00000100
00000000
,
00001000
00002000
00000000
00003010
,
00010000
00002000
00000000
00013000
,
00100000
00020000
00000000
00130000
,
10000000
02000000
00000000
03100000
,
10000000
00000000
10000000
01000000
00000000
00000000
00100000
00000000
,
00010000
00000000
00010000
01000000
00000000
00000000
00001000
00000000
,
00010000
00000000
00000100
00001000
00000000
00000000
00001000
00000000
,
00000010
00000000
00001000
00000100
00000000
00000000
00001001
00000000
,
00002002
00000000
00000000
00003003
;

//---------------dance-double - ----------------
#NOTES:
     dance-double:
     :
     Medium:
     8:
     :
00000000
00000000
00000000
00000000
,
00000000
00000000
00000000
00000000
,
00000000
00000000
00000000
00000000
,
02000000
00000000
00000000
00010000
,
00002000
00000000
03000000
00100000
,
00020000
00000000
00003000
00000000
,
00001000
00000000
00001000
00000000
00001000
00001000
00031000
00000000
,
00100000
00001000
00010000
00000000
00010000
00000100
00001000
00000000
,
00001000
00000010
00000100
00000000
00000100
00000001
00000010
00000000
,
00000010
00000001
00000100
00000000
00000001
00001000
00000010
00000000
,
00010000
00001000
00100000
00010000
10000000
00010000
10000000
00000000
,
00010000
10000000
01000000
00000000
10000000
00010000
01000000
00000000
,
00001000
00010000
00000100
00000000
00001000
00000001
00000010
00000000
,
00000001
00000100
00000001
00000100
00000001
00001000
00000100
00001000
,
00000010
00010000
00001000
01000000
00010000
10000000
00100000
00000000
,
10010000
00000000
10000000
01000000
00000000
00010000
01000000
00000000
,
01010000
00000000
00000000
00100000
00010000
00000000
10000000
00000000
,
11000000
00000000
00000000
00100000
10000000
00000000
00010000
00000000
,
01100000
00000000
00000000
00001000
00010000
00000000
00000100
00000000
,
00001000
00000000
00000001
00000010
00000000
00001000
00000100
00000000
,
00001100
00000000
00000000
00000001
00001000
00000000
00000010
00000000
,
00001010
00000000
00000000
00010000
00001000
00000000
00100000
00000000
,
00110000
00000000
00000000
00100000
01000000
00000000
00100000
00000000
,
20020000
00000000
00000000
00000000
00000000
00000000
30000000
00000000
01000000
00000000
00000000
00000000
00000000
00000000
00000000
00100000
,
00200000
00000000
00000000
00330000
,
02000000
00000000
00000000
00000000
00000000
00000000
00000000
00010000
00020000
00000000
00000000
00000000
00030000
00000000
00000000
00010000
,
00020000
00000000
00000000
03030000
00000000
00011000
00001010
00001001
,
00000010
00000001
00000010
00000001
,
00001000
00000100
00001000
00000100
,
00000010
00000001
00000100
00000000
00000010
00001000
00000100
00000000
,
00010000
00001000
00100000
00000000
00010000
10000000
01000000
00000000
,
00010000
01000000
00010000
01000000
00010000
01000000
00010000
00000000
,
10000000
00100000
10000000
00100000
10000000
00100000
10000000
00000000
,
00100000
10000000
00100000
10000000
,
00010000
01000000
00010000
01000000
,
00001000
00010000
00001000
00010000
,
00000010
00001000
00000010
00001000
,
00000002
00000000
00000000
00000000
00000000
00000000
00000100
00000000
00000000
00000100
00000000
00000000
00000103
00000000
00000000
00000000
,
00002000
00000000
00000000
00000000
00000000
00000000
00000010
00000000
00000000
00000010
00000000
00000000
00003010
00000000
00000000
00000000
,
00000200
00000000
00000000
00000000
00000000
00000000
00010000
00000000
00000000
00010000
00000000
00000000
00010300
00000000
00000000
00000000
,
00002000
00000000
00000000
00000000
00000000
00000000
00100000
00000000
00000000
00100000
00000000
00000000
00103000
00000000
00000000
00000000
,
00010000
00000000
00010000
00000000
00010000
00000000
10000000
00000000
00000000
10000000
00000000
00000000
01000000
00000000
00000000
00000000
,
00100000
00000000
00100000
00000000
00100000
00000000
00001000
00000000
00000000
00010000
00000000
00000000
00000010
00000000
00000000
00000000
,
00000100
00000000
00000100
00000000
00000100
00000000
00000001
00000000
00000000
00001000
00000000
00000000
00000010
00000000
00000000
00000000
,
00000100
00000110
00001001
00000110
,
00000010
00001000
00000010
00010000
00000000
00010000
00001000
00000000
,
02000000
00000000
00000000
00010000
00010000
00000000
03100000
00000000
,
20000000
00000000
00000000
00100000
00100000
00000000
30010000
00000000
,
00100000
00001000
00010000
00000010
,
00001000
00000010
00001000
00000100
00000000
00000100
00000010
00000000
,
00000002
00000000
00000000
00000010
00000010
00000000
00001003
00000000
,
00000200
00000000
00000000
00001000
00001000
00000000
00001300
00000000
,
00000000
00000101
00000011
00001010
,
00022000
00000000
00000000
00000000
,
00033000
00000000
00000000
00000000
;

//---------------dance-double - ----------------
#NOTES:
     dance-double:
     :
     Hard:
     9:
     :
00000000
00000000
00000000
00000000
,
00000000
00000000
00000000
00000000
,
00000000
00000000
00000000
00000000
,
00200000
00000000
00000000
00000000
00000000
00000000
00001000
00002000
00000000
00000000
00000000
00000000
00300000
00000000
00010000
00020000
,
00000000
00000000
00000000
00000000
00003000
00000000
00000010
00000020
00000000
00000000
00000000
00000000
00030000
00000000
00001000
00002000
,
00000000
00000000
00000000
00000000
00000030
00000000
00000100
00000200
00000000
00000000
00000000
00000000
00003000
00000000
00010000
00020000
,
00000000
00030300
00101000
01010000
,
00100000
00000000
00100000
00000000
10000000
00000000
00000000
10000000
00010000
00000000
10000000
00000000
00010000
00000000
00000000
00010000
,
10000000
00000000
00010000
00000000
10000000
00000000
00000000
10000000
00010000
00000000
01000000
00000000
00001000
00000000
00000000
00000000
,
00010000
00000000
00000100
00000000
00001000
00000000
00000000
00000001
00001000
00000000
00000001
00000000
00001000
00000000
00000000
00001000
,
00000001
00000000
00001000
00000000
00000001
00000000
00000000
00000010
00000100
00000000
00000010
00000000
00000100
00000000
00000000
00000000
,
00000001
00000000
00000001
00000000
00000001
00000000
00000000
00000010
00000100
00000000
00000100
00000000
00000100
00000000
00000000
00010000
,
00001000
00000000
00001000
00000000
00001000
00000000
00000000
01000000
00010000
00000000
00010000
00000000
00010000
00000000
00000000
00000000
,
10000000
00000000
00100000
00000000
10000000
00000000
00000000
00010000
01000000
00000000
00010000
00000000
01000000
00000000
00000000
00000000
,
00010000
01000000
00001000
00010000
00001100
00000000
00001001
00000000
,
00000010
00000001
00001000
00000000
00001000
00000001
00000100
00000000
,
00000001
00001000
00000010
00000000
00010000
00001000
00100000
00000000
,
00010000
10000000
01000000
00000000
00010000
01000000
00010000
00000000
,
01000000
00001000
00010000
00000000
00000010
00001000
00000001
00000000
,
00002000
00000001
00003001
00000000
00000002
00001000
00001003
00000000
,
00002000
00000100
00003100
00000000
00020000
00001000
00031000
00000000
,
02000000
00100000
03100000
00000000
00200000
01000000
01300000
00000000
,
00020000
01000000
01030000
00000000
20000000
01000000
31000000
00000000
,
00200000
00000000
00000000
00000000
00000000
00000000
00000000
00000000
00002000
00000000
00000000
00000000
00300000
00000000
00000000
00010000
,
00020000
00000000
00000000
00003000
,
00000020
00000000
00000000
00000000
00030000
00000000
00000000
00001000
00002000
00000000
00000000
00000000
00000030
00000000
00000000
00000001
,
00000002
00000000
00000000
00000000
00003000
00000000
00000000
00000100
00000200
00000000
00000000
00000000
00000303
00000000
00000000
00000000
,
00000010
00000001
00000010
00000001
00000010
00000001
00000010
00000001
,
00001000
00000100
00001000
00000100
00001000
00000100
00001000
00000100
,
00010000
00001000
00010000
00001000
00010000
00001000
00010000
00001000
,
01000000
00010000
01000000
00010000
01000000
00010000
01000000
00000000
,
00001000
00010000
00001000
00010000
00001000
00010000
00001000
00010000
,
00001000
00010000
00001000
00010000
00001000
00010000
00001000
00010000
00001000
00010000
00001000
00010000
00001000
00010000
00001000
00010000
,
00001000
00010000
00001000
00010000
00001000
00010000
00001000
00010000
,
00001000
00010000
00001000
00010000
00001000
00010000
00001000
00010000
,
00001000
00010000
00000010
00001000
,
00000001
00000100
00000010
00001000
,
00000001
00000000
00000001
00000000
00000001
00000000
00000010
00000000
00000000
00000100
00000000
00000000
00001000
00000000
00000000
00000000
,
00001000
00000000
00001000
00000000
00001000
00000000
00000001
00000000
00000000
00000010
00000000
00000000
00000100
00000000
00000000
00000000
,
00010000
00000000
00010000
00000000
00010000
00000000
00001000
00000000
00000000
00100000
00000000
00000000
00010000
00000000
00000000
00000000
,
01000000
01000000
01000000
00100000
10000000
00010000
10000000
00010000
,
20000000
00000000
00100000
00000000
00100000
00000000
00100000
00000000
00000000
00100000
00000000
00000000
30100000
00000000
00000000
00000000
,
00020000
00000000
01000000
00000000
01000000
00000000
01000000
00000000
00000000
01000000
00000000
00000000
01030000
00000000
00000000
00000000
,
00002000
00000000
00010000
00000000
00010000
00000000
00010000
00000000
00000000
00010000
00000000
00000000
00013000
00000000
00000000
00000000
,
00001010
00000011
00000101
00001100
,
00000010
00000000
00000010
00000000
00000001
00000000
00000000
00000001
00001000
00000000
00000010
00000000
00000100
00000000
00000000
00000010
,
00010000
00000000
00001000
00000000
01000000
00000000
00000000
00100000
10000000
00000000
10000000
00000000
00010000
00000000
00000000
01000000
,
00001000
00000000
00010000
00000000
00000100
00000000
00000000
00001000
00000010
00000000
00000100
00000000
00000001
00000000
00000000
00000100
,
00000001
00000000
00001000
00000000
00000010
00000000
00000000
00001000
00000100
00000000
00010000
00000000
00001000
00000000
00000000
00000000
,
00100000
00010000
00100000
01000000
00000000
01000000
10000000
00000000
,
21000000
00000000
00000000
00100000
00100000
00000000
30010000
00000000
,
01020000
00000000
00000000
01000000
01000000
00000000
10030000
00000000
,
01010000
00011000
00001100
00000101
,
00000220
00000000
00000000
00000000
,
00000330
00000000
00000000
00000000
;
