#TITLE:PUT YOUR FAITH IN ME (SATURDAY NIGHT MIX);
#ARTIST:UZI-LAY;
#BANNER:PUT YOUR FAITH IN ME (SATURDAY NIGHT MIX).png;
#BACKGROUND:PUT YOUR FAITH IN ME (SATURDAY NIGHT MIX)-bg.png;
#CDTITLE:./CDTITLES/DanceManiaX.PNG;
#MUSIC:PUT YOUR FAITH IN ME (SATURDAY NIGHT MIX).ogg;
#SAMPLESTART:73.55;
#SAMPLELENGTH:15;
#BPMS:0=120;

//---------------dance-single - ----------------
#NOTES:
     dance-single:
     :
     Beginner:
     1:
     :
0000
0000
0000
0000
,
0000
0000
0000
0000
,
0000
0000
0000
0000
,
0000
0000
0000
0000
,
0000
0000
0000
0000
,
0000
0001
0000
0000
,
0000
0001
0000
0000
,
0000
1000
0000
0000
,
1000
1000
0000
0000
,
0000
0001
0000
0001
,
0000
0100
0000
0100
,
0000
0100
0000
1000
,
0000
0010
0010
0010
,
0000
0001
0000
0001
,
0000
0010
0000
0010
,
0000
0010
0000
1000
,
0000
0100
0100
0100
,
0000
0100
0000
0100
,
0000
0100
0000
0100
,
0000
0100
0000
0100
,
0000
1000
0000
1000
,
0000
1000
0000
0100
,
0000
0010
0000
0100
,
0000
0100
0000
0100
,
0000
0000
0001
0000
,
0000
1000
0000
1000
,
0000
0100
0000
1000
,
0000
0010
0000
0010
,
0000
0010
0000
0000
,
0001
0000
1000
0000
,
0000
1000
0000
0100
,
0000
0000
0001
0000
,
0001
0000
0100
0000
,
1000
0000
0100
0000
,
0010
0000
1000
0000
,
0010
0000
1000
0000
,
1000
0000
0100
0000
,
0010
0000
0100
0100
,
0000
0001
0000
0001
,
0000
0100
0000
0001
,
0000
0100
0100
0000
,
0010
0000
0100
0100
,
0000
1000
0000
1000
,
0000
1000
0000
1000
,
0000
0010
0000
1000
;

//---------------dance-single - ----------------
#NOTES:
     dance-single:
     :
     Easy:
     3:
     :
0000
0000
0000
0000
,
0000
0000
0000
0000
,
0000
0000
0000
0000
,
0000
0000
0000
0000
,
0000
0000
0000
0000
,
0000
0001
0000
0000
,
0000
0001
0000
0000
,
0000
1000
0000
0000
,
1000
1000
0000
0000
,
0000
0001
0000
0001
,
0000
0100
0000
0100
,
0010
0100
0001
1000
,
0200
0010
0010
0310
,
0000
0001
0000
0001
,
0000
0010
0000
0010
,
0100
0010
0001
1000
,
0020
0100
0100
0130
,
0001
0100
0001
0100
,
0001
0100
0001
0100
,
0010
0100
0010
0100
,
0010
1000
0100
1000
,
0001
1000
0100
0100
,
1000
0010
1000
0100
,
1000
0100
0010
0100
,
2000
3000
0002
0003
,
0000
1000
0000
1000
,
0010
0100
0001
1000
,
0000
0010
0000
0010
,
0100
0010
1001
0000
,
0101
0000
1000
0100
,
0000
1000
0100
0100
,
1010
0000
0001
0010
,
0001
0010
0100
1000
,
1000
0010
0100
0001
,
0010
0100
1000
0001
,
0010
0100
1000
0001
,
1000
0100
0100
1000
,
0010
1000
0100
0100
,
0010
0001
0100
0001
,
0010
0100
1000
0001
,
2000
0100
0100
3001
,
0010
0001
0100
0100
,
0010
1000
0100
1000
,
0010
1000
0100
1000
,
0002
0010
0100
1003
,
0010
0000
0000
0000
;

//---------------dance-single - ----------------
#NOTES:
     dance-single:
     :
     Medium:
     5:
     :
0000
0000
0000
0000
,
0000
0000
0000
0000
,
0000
0000
0000
0000
,
0000
0000
0000
0000
,
0000
0000
0000
0000
,
0000
0002
0000
0003
,
0000
0002
0000
0003
,
0000
2000
0000
3000
,
1000
0000
1000
0000
0010
1000
0001
0000
,
0000
0010
0000
0001
,
0000
1000
0001
1000
,
0100
0000
1000
0001
,
2000
0010
0010
3000
,
0000
0100
0000
0001
,
0000
1000
0001
1000
,
0010
0000
1000
0001
,
2000
0100
0100
3000
,
0010
0100
1000
0001
,
0100
0010
1000
0001
,
0000
1010
0000
0101
,
0010
0001
0100
1001
,
0010
1000
0001
0000
0100
0001
1000
0000
,
0001
0010
0001
0100
,
0100
0001
0100
0000
0010
1000
0010
0000
,
2000
3200
0320
0032
,
0003
1000
0000
1000
,
0010
0100
0001
1000
,
0000
0010
0000
0010
,
0100
0010
1001
0000
,
0101
0000
0010
0000
1000
0001
0100
0000
,
0010
1000
0100
1000
,
1010
0000
0100
0000
0001
1000
0010
0100
,
0001
0010
0100
1000
,
0010
1000
0001
0000
0100
0001
1000
0000
,
0000
0000
0011
0000
0100
0010
1000
0000
,
0100
1000
0100
0000
0010
0001
0010
0000
,
0000
0000
1001
0000
0100
0010
1001
0000
,
0000
0010
0100
0001
,
1000
0100
0010
0101
,
0000
0100
0010
1000
,
0002
0010
0103
1010
,
0100
0001
0100
0000
0010
1000
0010
0000
,
1000
0001
1100
0011
,
0100
1000
0010
1001
,
0200
0010
0301
0101
,
1001
0000
0000
0000
;

//---------------dance-single - ----------------
#NOTES:
     dance-single:
     :
     Hard:
     6:
     :
0000
0000
0000
0000
,
0000
0000
0000
0000
,
0000
0000
0000
0000
,
0000
0000
0000
0000
,
0000
0000
0000
0000
,
0000
0002
0000
1003
,
0000
2000
0000
3001
,
0000
0020
0100
0031
,
1000
0000
0100
0000
0010
0001
1000
0000
,
0100
1000
0010
1000
,
0100
0000
1000
0000
0010
0100
1001
0000
,
0010
1000
0010
0100
,
0020
0000
0030
0000
0010
1000
0101
0000
,
0010
1000
0100
1000
,
0010
0000
1000
0000
0100
0010
1001
0000
,
0100
0001
0100
0010
,
0200
0000
0300
0000
0100
0001
1010
0000
,
0100
1000
0100
0000
0010
0001
1000
0000
,
0010
0000
0010
0000
1000
0100
1001
0000
,
0010
0001
0010
0000
0100
1000
0001
0000
,
0100
0001
1000
0010
1000
0100
1001
0000
,
0010
0001
0010
0000
0100
1000
0100
0000
,
1000
0100
0010
0001
1000
0100
0010
0001
,
0100
0001
0100
0000
0010
1000
0010
0000
,
2000
3200
2300
3200
,
2300
0001
3001
1000
,
1000
0001
0001
0110
,
1000
1000
0100
0010
,
1001
0000
0000
0000
0010
0100
1001
0000
,
0010
1000
0010
0000
0100
0001
0100
0000
,
0010
1000
0100
0010
0001
1000
0001
0000
,
0010
0001
0010
0000
0100
1000
0100
0000
,
0100
1000
0010
0100
0001
1000
0001
0000
,
0100
0001
0100
0000
0010
1000
0010
0000
,
1001
0000
0100
0001
1000
0010
1000
0000
,
0001
0010
0001
0000
1000
0100
1000
0001
,
0110
0000
1000
0001
0100
0010
1001
0000
,
0010
0010
0100
0100
,
0001
1000
0100
0010
0001
0010
0001
0000
,
0100
0100
0010
1000
,
0002
1000
0003
1000
0020
0100
0030
0100
,
0001
1000
0010
0000
0100
0001
0110
0000
,
1000
0100
0010
0001
0010
0100
1000
0000
,
0010
0000
1100
0000
0001
0100
0010
0000
,
2002
0000
3003
0001
0100
0001
1000
0001
,
0110
0000
0000
0000
;

//---------------dance-double - ----------------
#NOTES:
     dance-double:
     :
     Beginner:
     1:
     :
00000000
00000000
00000000
00000000
,
00000000
00000000
00000000
00000000
,
00000000
00000000
00000000
00000000
,
00000000
00000000
00000000
00000000
,
00000000
00000000
00000000
00000000
,
00000000
10000000
00000000
00000000
,
00000000
00010000
00000000
00000000
,
01000000
00000000
00000000
00000000
,
00001000
00000000
00000000
00000000
,
00000000
00010000
00000000
00000010
,
00000000
00001000
00000000
00000100
,
00000000
00010000
00000000
00001000
,
00000000
00000000
00010000
00000000
,
00000000
01000000
00000000
00001000
,
00000000
00010000
00000000
00001000
,
00000000
00100000
00000000
00010000
,
00000000
00000000
00010000
00000000
,
00100000
00000000
00100000
00000000
,
10000000
00000000
01000000
00000000
,
00001000
00000000
00010000
00000000
,
00001000
00000000
00000100
00000000
,
00000010
00000000
00000010
00000000
,
00000001
00000000
00000100
00000000
,
00010000
00000000
00001000
00000000
,
00100000
00000000
01000000
00000000
,
00000000
10010000
00000000
01000000
,
00000000
10000000
00000000
00000000
,
00100000
00000000
00010000
00000000
,
00001001
00000000
00000000
00000000
,
00000100
00000000
00001000
00000000
,
00000010
00000000
00000100
00000000
,
00010000
00000000
01000000
00000000
,
10000000
00000000
01000000
00000000
,
00001000
00000000
00010000
00000000
,
00000010
00000000
00000010
00000000
,
00001000
00000000
00000010
00000000
,
00000010
00000000
00001000
00000000
,
01100000
00000000
01000000
00000000
,
10000000
00000000
00100000
00000000
,
00010000
00000000
00000010
00000000
,
00001000
00000000
00000100
00000000
,
00001001
00000000
00000010
00000000
,
00001000
00000000
00000010
00000000
,
00000001
00000000
00000001
00000000
,
00000010
00000000
00001000
00000000
,
01100000
00000000
00000000
00000000
;

//---------------dance-double - ----------------
#NOTES:
     dance-double:
     :
     Easy:
     3:
     :
00000000
00000000
00000000
00000000
,
00000000
00000000
00000000
00000000
,
00000000
00000000
00000000
00000000
,
00000000
00000000
00000000
00000000
,
00000000
00000000
00000000
00000000
,
00000000
10000000
00000000
00000000
,
00000000
00010000
00000000
00000000
,
02000000
03000000
00000000
00000000
,
00002000
00003000
00000000
00000000
,
00000000
00010000
00000000
00000010
,
00000000
00001000
00000000
00000100
,
00000000
00010000
00000000
00001000
,
00200000
00300000
00020000
00030000
,
00000000
01000000
00000000
00001000
,
00000000
00010000
00000000
00001000
,
00000000
00100000
00000000
00010000
,
02000000
03000000
00020000
10030000
,
00100000
00000000
00100000
00000000
,
10000000
00100000
01000000
00000000
,
00001000
00000000
00010000
00000000
,
00001000
00010000
00000100
00000000
,
00000010
00000000
00000010
00000000
,
00000001
00000010
00000100
00000000
,
00010000
00000000
00001000
00000000
,
00200000
00320000
02030000
03200000
,
00300000
10010000
00100000
01000000
,
00010000
10000000
01000000
00000000
,
00100000
00001000
00010000
00000010
,
00002020
00000000
00000000
00003030
,
00000100
00010000
00001000
00010000
,
00000010
00001000
00000100
00000000
,
00010000
00001000
01000000
00100000
,
10000000
00100000
01000000
00000000
,
00001000
00000000
00010000
00000100
,
00000010
00000100
00000010
00000001
,
00001000
00000000
00000010
00000100
,
00000010
00010000
00001000
01000000
,
01010000
00000000
01000000
00100000
,
10000000
01000000
00100000
00001000
,
00010000
00000100
00000010
00000001
,
00002000
00000010
00000100
00003010
,
00001001
00000000
00000010
00000001
,
00001000
00000100
00000010
00000000
,
00000001
00000010
00000001
00000100
,
00000010
00010000
00001000
01000000
,
01010000
00000000
00000000
00000000
;

//---------------dance-double - ----------------
#NOTES:
     dance-double:
     :
     Medium:
     5:
     :
00000000
00000000
00000000
00000000
,
00000000
00000000
00000000
00000000
,
00000000
00000000
00000000
00000000
,
00000000
00000000
00000000
00000000
,
00000000
00000000
00000000
00000000
,
20000000
30000000
02000000
03000000
,
00200000
00300000
00002000
00003000
,
00020000
00001000
00000000
00031000
,
00100000
01000000
10000000
00010000
,
01000000
00001000
00010000
00000000
,
00000100
00001000
00002002
00003003
,
00000010
00000100
00000010
00010000
,
00002000
00010000
00010000
00013000
,
00001000
01000000
00100000
00000000
,
10000000
00010000
01000000
00000000
,
00001000
00000000
00010000
00000000
,
00000020
00001000
00001000
00000130
,
00000010
00000000
00001000
00000000
,
00000001
00000010
00000100
00010000
,
00001000
00000000
00100000
00000000
,
00010000
01000000
00100000
10000000
,
01000000
10000000
00000000
00000000
01000000
00000000
00000000
00000000
,
01000000
10000000
00010000
01000000
,
00001000
00000000
00010000
00000000
,
00000200
00002000
00003300
00011000
,
01000000
00000000
00100000
01000000
,
00010000
10000000
01000000
00000000
,
00100000
00001000
00010000
00000010
,
00002002
00000000
00003003
00000000
00000010
00000100
00000110
00000000
,
00001001
00000100
00010000
00001000
,
00100000
01000000
00100000
00010000
,
10000000
01100000
10010000
01000000
,
00001000
00010000
00000010
00001000
,
00000001
00001000
00000010
00000000
00000100
00000000
00001001
00000000
,
00000010
00010000
00001000
01000000
,
00010000
10000000
00010000
00110000
,
00001000
00010000
00000100
00000010
,
00001001
00000010
00000100
00001001
,
00000100
00000010
00000100
00010000
,
00001000
01000000
00010000
00100000
,
02000000
10000000
00100000
13000000
,
00000000
10010000
00000000
00000000
01000000
00000000
00001000
00000000
,
00010000
00000100
00001000
00000001
,
00000100
00000010
00010000
00001000
,
00020000
00000000
00031000
00000000
00100000
01000000
00100000
00000000
,
10010000
00000000
00000000
00000000
;

//---------------dance-double - ----------------
#NOTES:
     dance-double:
     :
     Hard:
     6:
     :
00000000
00000000
00000000
00000000
,
00000000
00000000
00000000
00000000
,
00000000
00000000
00000000
00000000
,
00000000
00000000
00000000
00000000
,
00000000
00000000
00000000
00000000
,
00000000
10000000
00000000
10000000
,
00000000
00010000
00000000
00010000
,
00200000
00010000
01000000
00310000
,
20000000
01000000
00100000
30010000
,
01000000
00001000
00010000
00000000
,
00000010
00001000
00001001
00000000
,
00000010
00000100
00000010
00000100
,
00000002
00001000
00001000
00000000
00000100
00000100
00000103
00000000
,
00001000
00000100
00010000
00000000
00001000
00100000
00010000
00000000
,
01000000
00100000
01000000
10010000
,
01000000
00001000
00010000
00000100
,
00000020
00000001
00000001
00000001
00000001
00000001
00000130
00000000
,
00000010
00000100
00001000
00000100
,
00001000
00000000
00000010
00000000
00000100
00000001
00001000
00000000
,
00000100
00000010
00000001
00001000
,
00000100
00000000
00010000
00000000
00001000
00100000
00010000
00000000
,
01000000
00010000
00000000
00000000
01100000
00000000
10010000
00000000
,
01000000
00000000
00010000
00000000
10000000
01000000
00100000
00000000
,
00001000
00010000
00000010
00001000
,
00000200
00020300
00032000
00203000
,
00300000
10010000
00100000
01000000
,
00010000
10000000
01000000
00100000
,
00001000
00010000
00000010
00001000
,
00000220
00000000
00000030
00000000
00000010
00000010
00000310
00000000
,
00000110
00010000
00001000
00100000
,
00010000
01000000
00100000
10000000
,
00010000
10000000
01100000
00000000
10000000
00100000
01000000
00000000
,
00001000
00000000
00010000
00000000
00000010
00001000
00000001
00000000
,
00000100
00000001
00000010
00000000
00000100
00000000
00001001
00000000
,
00000010
00010000
00001000
01000000
,
00010000
00100000
00010000
00000000
10000000
00010000
01100000
00000000
,
00020000
10000000
01000000
00130000
,
00011000
00000010
00000100
00001001
,
00000100
00000010
00010000
00001000
,
00001000
01000000
00010000
00100000
,
02000000
10000000
10000000
00000000
03100000
00000000
00110000
00000000
,
00000000
00011000
00010000
00000000
00000010
00000000
00000100
00000000
,
00000001
00001000
00000100
00000010
,
00000011
00000100
00001001
00000100
,
00000010
00000100
00001000
00000010
00000100
00000001
00001000
00000010
,
00001001
00000000
00000000
00000000
;
