#TITLE:NEMESIS;
#ARTIST:D.J.SETUP;
#BANNER:NEMESIS.png;
#BACKGROUND:NEMESIS-bg.png;
#CDTITLE:./CDTITLES/Song Pack 3.png;
#MUSIC:NEMESIS.ogg;
#SAMPLESTART:95.08;
#SAMPLELENGTH:15;
#BPMS:0=164;
#STOPS:180=4.39;

//---------------dance-single - ----------------
#NOTES:
     dance-single:
     :
     Beginner:
     1:
     :
0000
0000
0000
0000
,
0000
0000
0000
0000
,
0000
0000
0000
0000
,
0000
0000
0000
0000
,
0000
0000
0000
0000
,
0000
0000
0000
0000
,
0000
0000
0000
0000
,
0000
0000
0000
0000
,
0000
0000
0000
0000
,
1000
0000
0001
0000
,
0010
0000
0100
0000
,
1000
0000
0010
0000
,
0100
0000
0001
0000
,
1001
0000
1000
0000
,
1000
0000
0010
0000
,
0010
0000
0100
0000
,
0001
0000
0100
0000
,
0110
0000
0100
0000
,
0001
0000
1000
0000
,
0010
0000
0100
0000
,
0001
0000
0100
0000
,
0110
0000
0010
0000
,
1000
0000
0001
0000
,
0100
0000
0010
0000
,
1000
0000
0010
0000
,
1000
0000
0100
0000
,
1000
0000
0010
0000
,
0001
0000
0010
0000
,
0001
0000
0100
0000
,
0001
0000
0010
0000
,
0001
0000
0100
0000
,
1000
0000
0100
0000
,
1000
0000
0010
0000
,
1000
0000
0010
0000
,
1000
0000
0010
0000
,
0010
0000
1000
0000
,
0010
0000
0100
0000
,
0100
0000
1000
0000
,
0100
0000
1000
0000
,
1000
0000
0100
0000
,
1000
0000
1000
0000
,
1001
0000
0000
0000
,
0000
0000
0000
0000
,
0000
0000
0000
0000
,
0000
0000
0000
0000
,
0000
0000
0000
0000
,
1000
0000
0000
0000
,
0000
0010
0000
0001
,
0000
0000
0000
0000
,
0000
0000
0001
0000
,
0100
0000
0000
0000
,
0000
0000
0100
0000
,
0100
0000
0000
0000
,
0000
0001
0000
0100
,
0000
0000
0000
0000
,
0000
1000
0000
0100
,
0000
0000
0000
0000
,
0000
0000
0010
0000
,
0010
0000
0000
0000
,
0000
0000
0001
0000
,
0100
0000
0000
0000
,
0000
0001
0000
0100
,
0000
0000
0000
0000
,
0000
0100
0000
0100
,
0000
0000
0000
0000
,
0000
0000
1000
0000
,
0100
0000
0000
0000
,
0000
0000
0010
0000
,
0001
0000
0000
0000
,
0000
0100
0000
1000
,
0000
0000
0000
0000
,
0000
0001
0000
0010
,
0000
0000
0000
0000
,
0000
0000
1000
0000
,
0100
0000
0000
0000
,
0000
0000
1000
0000
,
1000
0000
0000
0000
,
0000
1000
0000
0010
,
0000
0000
0000
0000
,
0000
0001
0000
0100
,
0000
0000
0000
0000
,
0000
0000
0010
0000
,
1000
0000
0000
0000
;

//---------------dance-single - ----------------
#NOTES:
     dance-single:
     :
     Easy:
     4:
     :
0000
0000
0000
0000
,
0000
0000
0000
0000
,
0000
0000
0000
0000
,
0000
0000
0000
0000
,
0000
0000
0000
0000
,
0000
0000
0000
0000
,
0000
0000
0000
0000
,
0000
0000
0000
0000
,
0000
0000
0000
0000
,
2000
0000
3001
0001
,
0020
0000
0130
0100
,
2000
0000
3010
0010
,
0200
0000
0301
0001
,
1002
0000
1003
1000
,
2000
0000
3010
0010
,
0020
0000
0130
0100
,
0001
0001
0100
0100
,
0110
0020
0130
0100
,
0001
0002
1003
1000
,
0010
0020
0130
0100
,
0001
0010
0100
1000
,
0110
0200
0310
0010
,
1000
2000
3001
0001
,
0100
0200
0310
0010
,
1000
0100
0010
0001
,
2000
3010
0200
0302
,
1003
1000
0020
0230
,
0302
0103
0020
2030
,
3001
0001
0200
0310
,
0002
0103
0020
2030
,
3001
0001
0200
0320
,
2030
3010
0200
0302
,
2003
3200
0320
0031
,
2000
3001
0020
0130
,
2000
3001
0010
0010
,
0020
0031
2000
3100
,
0020
0031
0100
0100
,
0200
0310
2000
3001
,
0200
0310
1000
1000
,
2000
3010
0200
0301
,
2000
3010
1000
1000
,
2002
0000
0000
0000
,
0000
0000
0000
0000
,
0000
0000
0000
0000
,
0000
0000
0000
0000
,
3003
0000
0000
0000
,
2000
0000
0000
3001
0000
0000
0000
0000
,
0000
0010
1000
0001
,
0020
0000
0000
0031
0000
0000
0000
0000
,
0000
0000
0001
1000
,
0200
0000
0000
0310
0000
0000
0000
0000
,
0000
0000
0100
1000
,
0200
0000
0000
1300
0000
0000
0000
0000
,
0000
0001
1000
0100
,
0020
0000
0000
0031
0000
0000
0000
0000
,
0000
1000
0001
0100
,
0020
0000
0000
1030
0000
0000
0000
0000
,
0000
0000
0010
1000
,
0020
0000
0000
0130
0000
0000
0000
0000
,
0000
0000
0001
1000
,
0200
0000
0000
0310
0000
0000
0000
0000
,
0000
0002
0023
0230
,
2300
0000
0000
3100
0000
0000
0000
0000
,
0000
0100
1000
0100
,
0020
0000
0000
0031
0000
0000
0000
0000
,
0000
0000
1000
0010
,
0200
0000
0000
0301
0000
0000
0000
0000
,
0000
0000
0010
1000
,
0002
0000
0000
0103
0000
0000
0000
0000
,
0000
0100
0010
1000
,
0002
0000
0000
0023
0000
0000
0000
0000
,
0030
0002
0203
0320
,
2030
0000
0000
3200
0000
0000
0000
0000
,
0300
0000
2000
3020
,
0230
0000
0000
0302
0000
0000
0000
0000
,
0003
0000
2000
3200
,
2300
0000
0000
3020
0000
0000
0000
0000
,
0030
2000
3200
0320
,
0032
0000
0000
2003
0000
0000
0000
0000
,
3000
0002
0023
0230
,
2300
0000
0000
3200
0000
0000
0000
0000
,
0300
0000
0020
0230
,
2300
0000
0000
0002
0000
0000
0000
0000
,
3003
0000
0000
0000
;

//---------------dance-single - ----------------
#NOTES:
     dance-single:
     :
     Medium:
     6:
     :
0000
0000
0000
0000
,
0000
0000
0000
0000
,
0000
0000
0000
0000
,
0000
0000
0000
0000
,
0000
0000
0000
0000
,
0000
0000
0000
0000
,
0000
0000
0000
0000
,
0000
0000
0000
0000
,
0000
0000
0000
0000
,
1000
0000
1000
0000
0001
1000
0001
0000
,
0010
0000
0010
0000
0100
0010
0100
0000
,
1000
0000
1000
0000
0010
1000
0010
0000
,
0100
0000
0100
0000
0001
0100
0001
0000
,
1001
0000
1000
0000
0100
1000
0001
0000
,
0100
0000
0010
0100
0010
0100
0001
0000
,
1001
0000
0001
0000
0010
0001
1000
0000
,
0001
1000
0100
1000
0010
1000
0001
0000
,
1000
0000
0001
0000
0010
0001
1000
0000
,
0010
0000
0100
0010
0100
0010
1000
0000
,
1001
0000
1000
0000
0100
1000
0001
0000
,
1000
0001
0010
0001
0100
0001
1000
0000
,
0001
0000
0001
0000
0100
0001
1000
0000
,
0100
0000
0010
0100
0010
0100
1000
0000
,
1001
0000
1000
0000
0010
1000
0001
0000
,
1000
0001
0100
0001
0010
0001
1000
0000
,
0100
1000
1000
0000
1000
0010
0100
0000
,
0100
0001
0001
0000
0001
0010
0100
0000
,
0100
1000
1000
0000
1000
0010
0100
0000
,
0100
0001
0001
0000
0001
0010
0100
0000
,
0100
1000
1000
0000
1000
0010
0100
0000
,
0100
0001
0001
0000
0001
0010
0100
0000
,
0100
1000
1000
0000
1000
0010
0100
0000
,
1000
0001
0001
1000
0001
0010
0100
0000
,
2001
0001
3001
0000
0100
0100
0100
0000
,
0010
0010
0010
0000
1000
1000
1000
0000
,
0001
0001
0001
0000
0010
0010
0010
0000
,
0100
0100
0100
0000
1000
1000
1000
0000
,
2001
0001
3001
0000
0010
0010
0010
0000
,
0120
0100
0130
0000
0001
0001
0001
0000
,
1002
1000
1003
0000
0120
0100
0130
0000
,
0210
0010
0310
0000
1002
1000
1003
0000
,
2002
0000
0000
0000
,
0000
0000
0000
0000
,
0000
0000
0000
0000
,
0000
0000
0000
3003
,
0110
0000
0000
0000
,
2000
0000
3001
1000
0000
0000
0000
0000
,
0000
0010
2000
3001
,
0020
0000
0031
0100
0000
0000
0000
0000
,
0000
0000
0001
1000
,
0200
0000
0310
0001
0000
0000
0000
0000
,
0000
0000
0100
0001
,
0200
0000
0301
0010
0000
0000
0000
0000
,
0000
0001
1000
0100
,
0020
0000
0031
1000
0000
0000
0000
0000
,
0000
0001
1000
0100
,
0020
0000
0031
0100
0000
0000
0000
0000
,
0000
0000
0010
1000
,
0020
0000
1030
0100
0000
0000
0000
0000
,
0000
0000
1000
0001
,
0200
0000
0301
0010
0000
0000
0000
0000
,
0000
0002
0023
0230
,
2300
0000
3001
0100
0000
0000
0000
0000
,
0000
0000
0100
1000
0001
1000
0100
0000
,
0020
0000
0031
1000
0000
0000
0000
0000
,
0000
0000
0000
0000
1000
0001
0010
0000
,
0200
0000
1300
0001
0000
0000
0000
0000
,
0000
0000
0000
0000
0010
0001
1000
0000
,
0002
0000
1003
0100
0000
0000
0000
0000
,
0000
0000
0100
1000
0010
0100
0001
0000
,
2000
0000
3100
0020
0000
0000
0000
0000
,
0030
0000
0002
1003
0020
1030
0200
1300
,
0002
0000
0103
0020
0000
0000
0000
0000
,
0030
0000
0000
0000
2000
3001
0200
0000
,
0320
0000
0130
0002
0000
0000
0000
0000
,
0003
0000
0000
0000
2000
3001
0200
0301
,
2000
0000
3001
0020
0000
0000
0000
0000
,
0030
0000
0001
0100
0010
1000
0010
0100
,
0002
0000
1003
0002
0000
0000
0000
0000
,
0003
0000
1000
0010
0100
0001
0100
0010
,
2000
0000
3001
2000
0000
0000
0000
0000
,
3000
0000
0000
0000
0020
1030
0200
1300
,
0002
0000
0000
2000
0000
0000
0000
0000
,
3003
0000
0000
0000
;

//---------------dance-single - ----------------
#NOTES:
     dance-single:
     :
     Hard:
     7:
     :
0000
0000
0000
0000
,
0000
0000
0000
0000
,
0000
0000
0000
0000
,
0000
0000
0000
0000
,
0000
0000
0000
0000
,
0000
0000
0000
0000
,
0000
0000
0000
0000
,
0000
0000
0000
0000
,
0000
0000
0000
0000
,
1001
0000
0000
0001
1000
0000
0010
0000
1000
0000
0000
0100
1000
0000
0000
0000
,
0010
0000
0000
0100
0000
0000
0000
0000
0001
0000
0000
1000
0001
0000
0000
0000
,
1001
0000
0000
1000
0001
0000
0100
0000
0001
0000
0000
0010
0001
0000
0000
0000
,
0100
0000
0000
0010
0000
0000
0000
0000
1000
0000
0000
0001
1000
0000
0000
0000
,
1010
0000
0000
0100
1000
0000
0010
0000
1000
0000
0000
0001
1000
0000
0000
0000
,
0100
0000
0000
1000
0000
0000
0000
0000
0001
0000
0000
1000
0001
0000
0000
0000
,
0011
0000
0000
0010
0001
0000
0100
0000
0001
0000
0000
1000
0001
0000
0000
0000
,
1000
0000
0100
0010
0001
0000
1000
0000
0001
0000
0100
0000
0001
0000
0000
0000
,
1001
0000
0000
0001
0100
0000
0000
0000
0010
0000
0000
1000
0001
0000
0000
0000
,
1000
0000
0000
0010
0100
0000
0001
0000
1000
0000
0001
0100
0001
0000
0000
0000
,
0100
0000
0000
0010
1000
0000
0000
0000
0001
0000
0000
0100
0010
0000
0000
0000
,
0100
0000
0000
0001
1000
0000
0010
0000
0100
0000
0010
1000
0001
0000
0000
0000
,
0000
0000
0000
1000
0001
0000
0000
0000
0010
0000
0000
0001
1000
0000
0000
0000
,
0001
0000
0000
0100
0010
0000
1000
0000
0001
0000
1000
0010
1000
0000
0000
0000
,
0010
0000
0000
0100
0001
0000
0000
0000
1000
0000
0000
0010
0100
0000
0000
0000
,
0001
0000
1000
0001
1000
0000
0001
0000
0010
0000
0100
0000
1000
0000
0000
0000
,
0001
0000
0000
1000
0001
0000
0000
0000
0010
0000
0000
0001
1000
0000
0000
0000
,
0001
0000
0000
0100
0010
0000
1000
0000
0001
0000
1000
0010
1000
0000
0000
0000
,
0010
0000
0000
0100
0001
0000
0000
0000
1000
0000
0000
0010
0100
0000
0000
0000
,
0010
0000
0000
1000
0001
0000
0100
0000
0010
0000
0100
0001
1000
0000
0000
0000
,
0010
0000
0000
1000
0001
0000
0000
0000
0100
0000
0000
0001
1000
0000
0000
0000
,
0001
0000
0000
0010
0100
0000
1000
0000
0001
0000
1000
0100
1000
0000
0000
0000
,
0100
0000
0000
0010
0001
0000
0000
0000
1000
0000
0000
0100
0010
0000
0000
0000
,
0001
0000
1000
0001
1000
0000
0001
0000
0100
0000
0010
0000
1000
0000
0000
0000
,
1001
1000
0001
0000
1000
0000
0000
0000
2010
0000
0010
0000
3010
0000
0000
0000
,
0100
0001
0100
0000
0001
0000
0000
0000
1002
0000
1000
0000
1003
0000
0000
0000
,
0010
0100
0010
0000
0100
0000
0000
0000
0201
0000
0001
0000
0301
0000
0000
0000
,
1000
0010
1000
0000
0010
0000
0000
0000
0120
0000
0100
0000
0130
0000
0000
0000
,
1000
0001
1000
0000
0001
0000
0000
0000
0102
0000
0100
0000
0103
0000
0000
0000
,
0010
1000
0010
0000
1000
0000
0000
0000
2001
0000
0001
0000
3001
0000
0000
0000
,
0100
0010
0100
0000
0010
0000
0000
0000
1020
0000
1000
0000
1030
0000
0000
0000
,
0001
0100
0001
0000
0100
0000
0000
0000
0210
0000
0010
0000
0310
0000
0000
0000
,
2002
0000
0000
0000
,
0000
0000
0000
0000
,
0000
0000
0000
0000
,
0000
0000
0000
3003
,
0110
0000
0000
0000
,
2002
3003
0100
0002
0000
0000
0003
0000
,
0000
0011
1001
1010
,
2020
3030
0001
2000
0000
0000
3000
0000
,
0000
0000
1001
1010
,
2020
3030
0100
0002
0000
0000
0003
0000
,
0000
0000
0110
0101
,
0202
0303
1000
0020
0000
0000
0030
0000
,
0000
0011
1010
1001
,
2002
3003
0010
0200
0000
0000
0300
0000
,
0000
0101
1001
0011
,
0022
0033
1000
0200
0000
0000
0300
0000
,
0000
0000
0110
1001
,
0220
0330
1000
0002
0000
0000
0003
0000
,
0000
0000
1100
0011
,
0022
0033
1000
0100
0000
0000
0000
0000
,
0000
0002
0023
0230
,
2300
0000
3001
0100
0000
0000
0000
0000
,
0000
0000
0000
0000
0020
0000
0030
2000
0000
0000
3001
0000
0100
0000
0000
0000
,
0220
0330
0001
1000
0000
0000
0000
0000
,
0000
0000
0000
0000
0000
0000
0000
0000
2000
0000
0000
3002
0000
0000
0003
0000
,
0202
0303
1000
0001
0000
0000
0000
0000
,
0000
0000
0000
0000
0000
0000
0000
0000
0020
0000
0000
2030
0000
0000
3000
0000
,
2002
3003
0010
0100
0000
0000
0000
0000
,
0000
0000
0000
0000
0200
0000
0300
2000
0000
0000
3010
0000
0100
0000
0000
0000
,
0202
0303
1000
0020
0000
0000
0000
0000
,
1030
0000
0000
0001
1000
0000
0000
0000
0001
0000
0000
1000
0001
0000
0000
0000
,
2020
3030
0001
0200
0000
0000
0000
0000
,
0310
0000
0000
1000
0010
0000
0000
0000
1000
0000
0000
0010
1000
0000
0000
0000
,
0022
0033
0100
2000
0000
0000
0000
0000
,
3001
0000
0000
0100
0001
0000
0000
0000
0100
0000
0000
0010
0100
0000
0000
0000
,
2020
3030
0001
0200
0000
0000
0000
0000
,
0300
0002
0023
0130
,
2002
3003
0010
0200
0000
0000
0000
0000
,
0300
0002
2003
3001
,
0220
0330
0001
2000
0000
0000
0000
0000
,
3000
0000
0000
0000
0110
0000
1001
1000
,
0002
0000
0000
2000
0000
0000
0000
0000
,
3003
0000
0000
0000
;

//---------------dance-single - ----------------
#NOTES:
     dance-single:
     :
     Challenge:
     8:
     :
0000
0000
0000
0000
,
0000
0000
0000
0000
,
0000
0000
0000
0000
,
0000
0000
0000
0000
,
0000
0000
0000
0000
,
0000
0000
0010
0100
0000
0000
0000
0000
,
0000
0000
0001
0100
0000
0000
0000
0000
,
0000
0000
0001
1000
0000
0000
0000
0000
,
0000
0000
0000
0000
,
1100
0000
0000
0001
1000
0000
0000
0010
0100
0000
0000
0001
1000
0000
0000
0000
,
0101
0000
0000
1000
0001
0000
0000
0010
0100
0000
0000
1000
0001
0000
0000
0000
,
0110
0000
0000
0001
0100
0000
0000
0001
1000
0000
0000
0010
0100
0000
0000
0000
,
0110
0000
0000
1000
0100
0000
0000
1000
0001
0000
0000
1000
0100
0000
0000
0000
,
0011
0000
0000
0001
0100
0000
0000
0001
0010
0000
0000
0001
0100
0000
0000
0000
,
1100
0000
0000
1000
0010
0000
0000
1000
0001
0000
0000
1000
0010
0000
0000
0000
,
1001
0000
0000
0010
0100
0000
0000
0001
1000
0000
0000
0010
0100
0000
0000
0000
,
0002
0000
0000
0000
2003
0000
0000
0000
3010
0000
1000
0100
1000
0000
0000
0000
,
0101
0000
0000
1000
0001
0000
0000
0010
0100
0000
0000
1000
0001
0000
0000
0000
,
1100
0000
0000
0001
1000
0000
0000
0010
0100
0000
0000
0001
1000
0000
0000
0000
,
0110
0000
0000
1000
0100
0000
0000
1000
0001
0000
0000
0010
0100
0000
0000
0000
,
0110
0000
0000
0001
0100
0000
0000
0001
1000
0000
0000
0001
0100
0000
0000
0000
,
1010
0000
0000
1000
0100
0000
0000
1000
0010
0000
0000
1000
0100
0000
0000
0000
,
0101
0000
0000
0001
0010
0000
0000
0001
1000
0000
0000
0001
0010
0000
0000
0000
,
1001
0000
0000
0010
0100
0000
0000
1000
0001
0000
0000
0010
0100
0000
0000
0000
,
2000
0000
0000
0000
3002
0000
0000
0000
0013
0000
0001
0100
0001
0000
0000
0000
,
0001
1000
0100
0000
0010
0000
0000
0000
0010
0000
0000
0000
1001
0000
0000
0000
,
0010
0100
0001
0000
1000
0000
0000
0000
1000
0000
0000
0000
0110
0000
0000
0000
,
0100
1000
0100
0000
0010
0000
0000
0000
0010
0000
0000
0000
0101
0000
0000
0000
,
0001
0010
0001
0000
0100
0000
0000
0000
0100
0000
0000
0000
1010
0000
0000
0000
,
1000
0001
0010
0000
0100
0000
0000
0000
0101
0000
0000
0000
1100
0000
0000
0000
,
0010
0100
1000
0000
0001
0000
0000
0000
0011
0000
0000
0000
0110
0000
0000
0000
,
0100
1000
0100
0000
0010
0000
0000
0000
1010
0000
0000
0000
0101
0000
0000
0000
,
1000
0001
0100
0000
0010
0000
0000
0000
0110
0000
0000
0000
1010
0000
0000
0000
,
0010
0100
0001
0000
1000
0000
0000
0000
0010
0000
0100
0000
1001
0000
0000
0000
,
1000
0001
0000
0000
0010
0000
0000
0000
0100
0000
1000
0000
0101
0000
0000
0000
,
0010
0100
0001
0000
0100
0000
0000
0000
0010
0000
1000
0000
0110
0000
0000
0000
,
1000
0001
1000
0000
0010
0000
0000
0000
0100
0000
0001
0000
1010
0000
0000
0000
,
0001
1000
0010
0000
0100
0000
0000
0000
0010
1000
0100
0000
1001
0000
0000
0000
,
0010
0001
0100
0000
0010
0000
0000
0000
0100
0001
1000
0000
0100
0000
0000
0000
,
0001
0100
1000
0000
0010
0000
0000
0000
1000
0100
0001
0000
1100
0000
0000
0000
,
1000
0100
0010
0000
0001
0000
0100
0000
1000
0001
0100
0000
0010
0000
0000
0000
,
2000
0000
0000
0000
,
0000
0000
0000
0000
,
0000
0000
0000
0000
,
0000
0000
0000
3000
,
0110
0000
0000
0000
,
2000
0000
3001
0020
0000
0000
0030
0000
,
0000
0011
1100
0110
,
0002
0000
0103
0020
0000
0000
0030
0000
,
0000
0000
0110
1001
,
0200
0000
0310
2000
0000
0000
3000
0000
,
0000
0000
0002
1003
,
0020
0000
0130
0002
0000
0000
0003
0000
,
0000
0011
1001
1100
,
0120
0000
1030
0002
0000
0000
0003
0000
,
0000
1010
0110
1001
,
0120
0000
0000
0030
0001
0000
2000
0000
0000
0000
0000
0000
3000
0000
0000
0000
,
0000
0000
0110
0011
,
2001
0000
3010
0200
0000
0000
0300
0000
,
0000
0000
2000
3002
,
0203
0000
0310
1000
0000
0000
0000
0000
,
0000
0011
1100
0110
,
2000
0000
3010
0100
0001
1000
0010
0100
,
0001
0010
0100
0010
0001
1000
0010
0100
,
0002
0000
1003
0010
0100
0001
0010
0100
,
1000
0010
0100
0010
1000
0001
0100
0010
,
0200
0000
0301
1000
0100
1000
0010
1000
,
0100
0010
0001
0100
0001
1000
0100
1000
,
0020
0000
1030
0001
0010
0100
0010
0001
,
1000
0010
0100
0010
0100
0010
1000
0100
,
2020
0000
0000
0030
3100
0000
1000
0000
0010
0000
1000
0000
0001
0000
0010
0000
,
0100
1000
0010
1000
0110
0001
0101
1000
,
2002
0003
3100
0010
1000
0001
0010
0001
,
1000
0001
0010
0100
1100
0010
0101
1000
,
0022
0003
0031
0100
0010
0100
0001
1000
,
0010
0100
0001
0010
0011
0100
1100
0001
,
2020
0000
0000
0030
3001
0000
0100
0000
0010
0000
0100
0000
0001
0000
1000
0000
,
0100
0010
0002
0000
0023
0000
0230
0000
,
2300
0000
3001
0200
0000
0000
0300
0000
,
0000
0020
2030
3002
,
0203
0000
0300
0001
0000
0000
0000
0000
,
0000
0000
1100
0011
,
2000
0000
3000
0100
0000
0000
0000
0000
;

//---------------dance-double - ----------------
#NOTES:
     dance-double:
     :
     Beginner:
     1:
     :
00000000
00000000
00000000
00000000
,
00000000
00000000
00000000
00000000
,
00000000
00000000
00000000
00000000
,
00000000
00000000
00000000
00000000
,
00000000
00000000
00000000
00000000
,
00000000
00000000
00000000
00000000
,
00000000
00000000
00000000
00000000
,
00000000
00000000
00000000
00000000
,
00000000
00000000
00000000
00000000
,
00010000
00000000
10000000
00000000
,
00100000
00000000
01000000
00000000
,
00010000
00000000
00100000
00000000
,
00001000
00000000
00010000
00000000
,
00001001
00000000
00000001
00000000
,
00000001
00000000
00000010
00000000
,
00000010
00000000
00000100
00000000
,
00010000
00000000
00001000
00000000
,
00011000
00000000
00010000
00000000
,
00001000
00000000
00010000
00000000
,
00100000
00000000
01000000
00000000
,
10000000
00000000
01000000
00000000
,
01100000
00000000
00001000
00000000
,
00010000
00000000
00001000
00000000
,
00010000
00000000
00001000
00000000
,
00000001
00000000
00000010
00000000
,
00000001
00000000
00000100
00000000
,
00000001
00000000
00000010
00000000
,
00001000
00000000
00000010
00000000
,
00001000
00000000
00000100
00000000
,
00001000
00000000
00100000
00000000
,
00010000
00000000
01000000
00000000
,
10000000
00000000
01000000
00000000
,
10000000
00000000
00100000
00000000
,
00010000
00000000
00010000
00000000
,
00001000
00000000
00000010
00000000
,
00000010
00000000
00001000
00000000
,
00000010
00000000
00000100
00000000
,
00000100
00000000
00010000
00000000
,
01000000
00000000
10000000
00000000
,
00010000
00000000
01000000
00000000
,
00010000
00000000
00010000
00000000
,
00011000
00000000
00000000
00000000
,
00000000
00000000
00000000
00000000
,
00000000
00000000
00000000
00000000
,
00000000
00000000
00000000
00000000
,
00000000
00000000
00000000
00000000
,
00001000
00000000
00000000
00000000
,
00000000
00000010
00000000
00000001
,
00000000
00000000
00000000
00000000
,
00000000
00000000
00001000
00000000
,
00000100
00000000
00000000
00000000
,
00000000
00000000
00010000
00000000
,
01000000
00000000
00000000
00000000
,
00000000
10000000
00000000
01000000
,
00000000
00000000
00000000
00000000
,
00000000
00010000
00000000
01000000
,
00000000
00000000
00000000
00000000
,
00000000
00000000
00010000
00000000
,
00000010
00000000
00000000
00000000
,
00000000
00000000
00001000
00000000
,
00000100
00000000
00000000
00000000
,
00000000
00001000
00000000
00010000
,
00000000
00000000
00000000
00000000
,
00000000
00001000
00000000
01000000
,
00000000
00000000
00000000
00000000
,
00000000
00000000
00100000
00000000
,
00010000
00000000
00000000
00000000
,
00000000
00000000
00100000
00000000
,
10000000
00000000
00000000
00000000
,
00000000
01000000
00000000
00010000
,
00000000
00000000
00000000
00000000
,
00000000
10000000
00000000
00100000
,
00000000
00000000
00000000
00000000
,
00000000
00000000
00000010
00000000
,
00000100
00000000
00000000
00000000
,
00000000
00000000
00000001
00000000
,
00000100
00000000
00000000
00000000
,
00000000
00001000
00000000
01000000
,
00000000
00000000
00000000
00000000
,
00000000
10000000
00000000
00100000
,
00000000
00000000
00000000
00000000
,
00000000
00000000
00001000
00000000
,
00000010
00000000
00000000
00000000
;

//---------------dance-double - ----------------
#NOTES:
     dance-double:
     :
     Easy:
     4:
     :
00000000
00000000
00000000
00000000
,
00000000
00000000
00000000
00000000
,
00000000
00000000
00000000
00000000
,
00000000
00000000
00000000
00000000
,
00000000
00000000
00000000
00000000
,
00000000
00000000
00000000
00000000
,
00000000
00000000
00000000
00000000
,
00000000
00000000
00000000
00000000
,
00000000
00000000
00000000
00000000
,
00020000
00000000
10030000
10000000
,
00200000
00000000
01300000
01000000
,
00020000
00000000
00130000
00100000
,
00002000
00000000
00013000
00010000
,
00002010
00000000
00003001
00000001
,
00000002
00000000
00000013
00000010
,
00000020
00000000
00000130
00000100
,
00010000
00010000
00001000
00001000
,
00011000
00002000
00013000
00010000
,
00001000
02000000
03010000
00010000
,
00100000
00200000
01300000
01000000
,
10000000
00100000
01000000
00010000
,
01100000
02000000
03001000
00001000
,
00010000
00020000
00031000
00001000
,
00010000
00000200
00001300
00001000
,
00000001
00000100
00000010
00001000
,
00000002
00000013
00000200
00002300
,
00003001
00000001
00000020
00000230
,
00002300
00003100
00000020
00000032
,
00001003
00001000
00000200
00010300
,
00002000
01003000
00200000
20300000
,
30010000
00010000
02000000
03200000
,
20300000
30100000
02000000
03020000
,
20030000
32000000
03200000
00301000
,
00020000
00031000
00020000
00030100
,
00002000
00003001
00000010
00000010
,
00000020
00000031
00002000
00003100
,
00000020
00000031
00000100
00000100
,
00000200
00000310
00020000
00031000
,
02000000
03100000
10000000
10000000
,
00020000
00130000
02000000
13000000
,
00020000
00130000
00010000
00010000
,
00022000
00000000
00000000
00000000
,
00000000
00000000
00000000
00000000
,
00000000
00000000
00000000
00000000
,
00000000
00000000
00000000
00000000
,
00033000
00000000
00000000
00000000
,
00002000
00000000
00000000
00013000
00000000
00000000
00000000
00000000
,
00000000
00000010
00001000
00000001
,
00000020
00000000
00000000
00000031
00000000
00000000
00000000
00000000
,
00000000
00000000
00001000
00000001
,
00000200
00000000
00000000
00000310
00000000
00000000
00000000
00000000
,
00000000
00000000
00010000
00001000
,
02000000
00000000
00000000
03010000
00000000
00000000
00000000
00000000
,
00000000
10000000
00010000
01000000
,
00200000
00000000
00000000
10300000
00000000
00000000
00000000
00000000
,
00000000
00010000
10000000
01000000
,
00200000
00000000
00000000
00301000
00000000
00000000
00000000
00000000
,
00000000
00000000
00010000
00000100
,
00000020
00000000
00000000
00000130
00000000
00000000
00000000
00000000
,
00000000
00000000
00001000
00000001
,
00000200
00000000
00000000
00000310
00000000
00000000
00000000
00000000
,
00000000
00002000
00003200
00020300
,
00032000
00000000
00000000
00013000
00000000
00000000
00000000
00000000
,
00000000
00001000
00100000
01000000
,
00200000
00000000
00000000
00310000
00000000
00000000
00000000
00000000
,
00000000
00000000
00100000
00001000
,
00020000
00000000
00000000
00031000
00000000
00000000
00000000
00000000
,
00000000
00000000
00100000
00010000
,
20000000
00000000
00000000
31000000
00000000
00000000
00000000
00000000
,
00000000
01000000
00100000
00010000
,
20000000
00000000
00000000
30200000
00000000
00000000
00000000
00000000
,
00300000
20000000
32000000
03200000
,
00302000
00000000
00000000
00023000
00000000
00000000
00000000
00000000
,
00030000
00000000
00000020
00002030
,
00003200
00000000
00000000
00002300
00000000
00000000
00000000
00000000
,
00003000
00000000
00000002
00000023
,
00000230
00000000
00000000
00020300
00000000
00000000
00000000
00000000
,
00030000
00002000
00203000
02300000
,
23000000
00000000
00000000
30020000
00000000
00000000
00000000
00000000
,
00030000
20000000
32000000
03200000
,
00320000
00000000
00000000
02030000
00000000
00000000
00000000
00000000
,
03000000
00000000
00002000
00023000
,
00030020
00000000
00000000
00000200
00000000
00000000
00000000
00000000
,
00000330
00000000
00000000
00000000
;

//---------------dance-double - ----------------
#NOTES:
     dance-double:
     :
     Medium:
     6:
     :
00000000
00000000
00000000
00000000
,
00000000
00000000
00000000
00000000
,
00000000
00000000
00000000
00000000
,
00000000
00000000
00000000
00000000
,
00000000
00000000
00000000
00000000
,
00000000
00000000
00000000
00000000
,
00000000
00000000
00000000
00000000
,
00000000
00000000
00000000
00000000
,
00000000
00000000
00000000
00000000
,
00010000
00000000
00010000
00000000
00100000
00001000
00100000
00000000
,
00001000
00000000
00001000
00000000
00010000
00001000
00010000
00000000
,
00000010
00000000
00000010
00000000
00000100
00000001
00000100
00000000
,
00000010
00000000
00000010
00000000
00001000
00000010
00001000
00000000
,
00001001
00000000
00000001
00000000
00000010
00000001
00001000
00000000
,
00000010
00000000
00000100
00000010
00000100
00000010
00001000
00000000
,
00001100
00000000
00010000
00000000
00001000
00010000
00001000
00000000
,
01000000
00010000
00100000
00010000
01000000
00010000
10000000
00000000
,
00010000
00000000
10000000
00000000
01000000
10000000
00010000
00000000
,
01000000
00000000
00100000
01000000
00100000
01000000
00010000
00000000
,
10010000
00000000
00010000
00000000
00100000
00001000
00010000
00000000
,
00000010
00001000
00000100
00001000
00000010
00001000
00000001
00000000
,
00001000
00000000
00001000
00000000
00000010
00001000
00000001
00000000
,
00000010
00000000
00000100
00000010
00000100
00000010
00000001
00000000
,
00001001
00000000
00000001
00000000
00000100
00000001
00001000
00000000
,
00000001
00001000
00000010
00001000
00000100
00001000
00000010
00000000
,
00010000
00001000
00010000
00000000
00001000
00010000
00001000
00000000
,
00100000
00010000
00010000
00000000
10000000
01000000
00100000
00000000
,
00100000
00010000
00010000
00000000
00010000
01000000
00100000
00000000
,
00100000
10000000
10000000
00000000
10000000
01000000
00100000
00000000
,
00100000
00010000
00010000
00000000
00010000
01000000
00100000
00000000
,
00100000
10000000
10000000
00000000
10000000
01000000
00100000
00000000
,
00001000
00010000
00010000
00000000
00000010
00000100
00000010
00000000
,
00001000
00000100
00001000
00000010
00001000
00000001
00001000
00000000
,
00001002
00001000
00001003
00000000
00000010
00000010
00000010
00000000
,
00000100
00000100
00000100
00000000
00000001
00000001
00000001
00000000
,
00001000
00001000
00001000
00000000
00000100
00000100
00000100
00000000
,
00010000
00010000
00010000
00000000
00001000
00001000
00001000
00000000
,
00021000
00001000
00031000
00000000
01000000
01000000
01000000
00000000
,
02100000
00100000
03100000
00000000
10000000
10000000
10000000
00000000
,
20010000
00010000
30010000
00000000
02100000
00100000
03100000
00000000
,
02010000
00010000
03010000
00000000
00012000
00010000
00013000
00000000
,
00002200
00000000
00000000
00000000
,
00000000
00000000
00000000
00000000
,
00000000
00000000
00000000
00000000
,
00000000
00000000
00000000
00003300
,
00001001
00000000
00000000
00000000
,
00000002
00000000
00001003
00000001
00000000
00000000
00000000
00000000
,
00000000
00000100
00000002
00001003
,
00000200
00000000
00001300
00000010
00000000
00000000
00000000
00000000
,
00000000
00000000
00010000
00001000
,
00200000
00000000
01300000
10000000
00000000
00000000
00000000
00000000
,
00000000
00000000
00100000
10000000
,
00200000
00000000
10300000
01000000
00000000
00000000
00000000
00000000
,
00000000
00100000
00001000
00010000
,
00000200
00000000
00001300
00000001
00000000
00000000
00000000
00000000
,
00000000
00001000
00000001
00000010
,
00000200
00000000
00001300
00000010
00000000
00000000
00000000
00000000
,
00000000
00000000
00010000
00001000
,
02000000
00000000
03010000
00100000
00000000
00000000
00000000
00000000
,
00000000
00000000
00010000
10000000
,
00200000
00000000
10300000
01000000
00000000
00000000
00000000
00000000
,
00000000
00200000
00302000
00023000
,
00030200
00000000
00001300
00000010
00000000
00000000
00000000
00000000
,
00000000
00000000
00000100
00000001
00001000
00000001
00000010
00000000
,
00000200
00000000
00001300
00000001
00000000
00000000
00000000
00000000
,
00000000
00000000
00000000
00000000
00001000
00000100
00010000
00000000
,
00002000
00000000
00013000
00001000
00000000
00000000
00000000
00000000
,
00000000
00000000
00000000
00000000
01000000
00010000
10000000
00000000
,
00020000
00000000
00130000
01000000
00000000
00000000
00000000
00000000
,
00000000
00000000
00100000
00010000
01000000
00100000
10000000
00000000
,
00020000
00000000
00130000
02000000
00000000
00000000
00000000
00000000
,
03000000
00000000
00200000
00301000
00020000
00031000
02000000
03001000
,
00020000
00000000
00031000
00020000
00000000
00000000
00000000
00000000
,
00030000
00000000
00000000
00000000
00000020
00000130
00000002
00000000
,
00000023
00000000
00000130
00002000
00000000
00000000
00000000
00000000
,
00003000
00000000
00000000
00000000
00000002
00001003
00000020
00001030
,
00000002
00000000
00001003
00000200
00000000
00000000
00000000
00000000
,
00000300
00000000
00001000
00000010
00000100
00000001
00000100
00000010
,
00002000
00000000
00003001
00002000
00000000
00000000
00000000
00000000
,
00003000
00000000
00000100
00010000
00001000
01000000
00100000
01000000
,
00020000
00000000
10030000
00020000
00000000
00000000
00000000
00000000
,
00030000
00000000
00000000
00000000
02000000
03001000
00020000
00031000
,
00020000
00000000
00000000
00002000
00000000
00000000
00000000
00000000
,
00033000
00000000
00000000
00000000
;

//---------------dance-double - ----------------
#NOTES:
     dance-double:
     :
     Hard:
     8:
     :
00000000
00000000
00000000
00000000
,
00000000
00000000
00000000
00000000
,
00000000
00000000
00000000
00000000
,
00000000
00000000
00000000
00000000
,
00000000
00000000
00000000
00000000
,
00000000
00000000
00000000
00000000
,
00000000
00000000
00000000
00000000
,
00000000
00000000
00000000
00000000
,
00000000
00000000
00000000
00000000
,
10010000
00000000
00000000
10000000
00010000
00000000
01000000
00000000
00010000
00000000
00000000
00100000
00010000
00000000
00000000
00000000
,
01000000
00000000
00000000
00100000
00000000
00000000
00000000
00000000
01000000
00000000
00000000
00001000
00010000
00000000
00000000
00000000
,
00011000
00000000
00000000
00001000
00010000
00000000
00000100
00000000
00010000
00000000
00000000
00000010
00010000
00000000
00000000
00000000
,
00000010
00000000
00000000
00001000
00000000
00000000
00000000
00000000
00000100
00000000
00000000
00001000
00000100
00000000
00000000
00000000
,
00011000
00000000
00000000
00010000
00001000
00000000
00100000
00000000
00001000
00000000
00000000
01000000
00001000
00000000
00000000
00000000
,
00100000
00000000
00000000
00010000
00000000
00000000
00000000
00000000
10000000
00000000
00000000
00010000
01000000
00000000
00000000
00000000
,
00011000
00000000
00000000
00001000
00010000
00000000
00000100
00000000
00010000
00000000
00000000
00000010
00010000
00000000
00000000
00000000
,
00000100
00000000
00000010
00000100
00001000
00000000
00000001
00000000
00001000
00000000
00000010
00000000
00001000
00000000
00000000
00000000
,
00001100
00000000
00000000
00010000
00001000
00000000
00000000
00000000
01000000
00000000
00000000
00010000
10000000
00000000
00000000
00000000
,
00010000
00000000
00000000
01000000
00100000
00000000
10000000
00000000
00010000
00000000
01000000
00100000
01000000
00000000
00000000
00000000
,
00001000
00000000
00000000
00010000
00001000
00000000
00000000
00000000
00010000
00000000
00000000
00000010
00000100
00000000
00000000
00000000
,
00000010
00000000
00000000
00001000
00000001
00000000
00000100
00000000
00000010
00000000
00000100
00000001
00001000
00000000
00000000
00000000
,
00000000
00000000
00000000
00000100
00010000
00000000
00000000
00000000
00001000
00000000
00000000
00010000
00001000
00000000
00000000
00000000
,
01000000
00000000
00000000
00100000
01000000
00000000
00010000
00000000
10000000
00000000
00010000
01000000
00010000
00000000
00000000
00000000
,
00100000
00000000
00000000
00001000
00010000
00000000
00000000
00000000
00001000
00000000
00000000
00010000
00001000
00000000
00000000
00000000
,
00010000
00000000
00000100
00001000
00000001
00000000
00001000
00000000
00000100
00000000
00000010
00000000
00000001
00000000
00000000
00000000
,
00001000
00000000
00000000
00000010
00001000
00000000
00000000
00000000
00000100
00000000
00000000
00010000
00001000
00000000
00000000
00000000
,
01000000
00000000
00000000
00100000
01000000
00000000
00010000
00000000
10000000
00000000
00010000
01000000
00010000
00000000
00000000
00000000
,
00100000
00000000
00000000
00001000
00010000
00000000
00000000
00000000
00000010
00000000
00000000
00000100
00000010
00000000
00000000
00000000
,
00000100
00000000
00000000
00000001
00001000
00000000
00000010
00000000
00000100
00000000
00000010
00001000
00000100
00000000
00000000
00000000
,
00010000
00000000
00000000
00001000
00010000
00000000
00000000
00000000
00001000
00000000
00000000
00100000
00001000
00000000
00000000
00000000
,
00100000
00000000
00000000
01000000
00100000
00000000
00010000
00000000
10000000
00000000
00010000
00100000
00010000
00000000
00000000
00000000
,
00100000
00000000
00000000
00001000
00010000
00000000
00000000
00000000
00000100
00000000
00000000
00000010
00000100
00000000
00000000
00000000
,
00001000
00000000
00000001
00001000
00000001
00000000
00001000
00000000
00000010
00000000
00000100
00000000
00000001
00000000
00000000
00000000
,
00001000
00000100
00010000
00000000
00001000
00000000
00000000
00000000
00012000
00000000
00010000
00000000
00013000
00000000
00000000
00000000
,
00100000
00010000
00100000
00000000
00010000
00000000
00000000
00000000
20010000
00000000
00010000
00000000
30010000
00000000
00000000
00000000
,
01000000
00100000
01000000
00000000
00100000
00000000
00000000
00000000
10200000
00000000
10000000
00000000
10300000
00000000
00000000
00000000
,
00010000
01000000
00010000
00000000
01000000
00000000
00000000
00000000
02100000
00000000
00100000
00000000
03100000
00000000
00000000
00000000
,
00001000
00010000
00001000
00000000
00010000
00000000
00000000
00000000
00012000
00000000
00010000
00000000
00013000
00000000
00000000
00000000
,
00000100
00001000
00000100
00000000
00001000
00000000
00000000
00000000
00001002
00000000
00001000
00000000
00001003
00000000
00000000
00000000
,
00000010
00000100
00000010
00000000
00000100
00000000
00000000
00000000
00000201
00000000
00000001
00000000
00000301
00000000
00000000
00000000
,
00001000
00000010
00001000
00000000
00000010
00000000
00000000
00000000
00000120
00000000
00000100
00000000
00000130
00000000
00000000
00000000
,
00002020
00000000
00000000
00000000
,
00000000
00000000
00000000
00000000
,
00000000
00000000
00000000
00000000
,
00000000
00000000
00000000
00003030
,
00000101
00000000
00000000
00000000
,
00022000
00033000
00100000
00020000
00000000
00000000
00030000
00000000
,
00000000
11000000
10010000
01010000
,
02020000
03030000
00100000
00020000
00000000
00000000
00030000
00000000
,
00000000
00000000
00011000
00001100
,
00000202
00000303
00000010
00002000
00000000
00000000
00003000
00000000
,
00000000
00000000
00011000
00110000
,
20200000
30300000
00010000
02000000
00000000
00000000
03000000
00000000
,
00000000
00011000
00001100
00001001
,
00002002
00003003
00001000
00000020
00000000
00000000
00000030
00000000
,
00000000
00011000
01010000
11000000
,
22000000
33000000
00010000
00200000
00000000
00000000
00300000
00000000
,
00000000
00000000
00011000
00001010
,
00000220
00000330
00000010
00002000
00000000
00000000
00003000
00000000
,
00000000
00000000
00011000
00110000
,
22000000
33000000
00010000
00100000
00000000
00000000
00000000
00000000
,
00000000
00002000
00023000
00030020
,
00002030
00000000
00003001
00000010
00000000
00000000
00000000
00000000
,
00000000
00000000
00000000
00000000
00000200
00000000
00000300
00020000
00000000
00000000
00031000
00000000
00100000
00000000
00000000
00000000
,
02200000
03300000
10000000
00010000
00000000
00000000
00000000
00000000
,
00000000
00000000
00000000
00000000
00000000
00000000
00000000
00000000
00200000
00000000
00000000
00302000
00000000
00000000
00003000
00000000
,
00022000
00033000
00010000
00001000
00000000
00000000
00000000
00000000
,
00000000
00000000
00000000
00000000
00000000
00000000
00000000
00000000
02000000
00000000
00000000
03020000
00000000
00000000
00030000
00000000
,
20020000
30030000
01000000
00100000
00000000
00000000
00000000
00000000
,
00000000
00000000
00000000
00000000
02000000
00000000
03000000
00002000
00000000
00000000
00013000
00000000
00000010
00000000
00000000
00000000
,
00002020
00003030
00001000
00000200
00000000
00000000
00000000
00000000
,
00001300
00000000
00000000
00000001
00001000
00000000
00000000
00000000
00000001
00000000
00000000
00001000
00000001
00000000
00000000
00000000
,
00000202
00000303
00001000
00000020
00000000
00000000
00000000
00000000
,
00000130
00000000
00000000
00000001
00000100
00000000
00000000
00000000
00000001
00000000
00000000
00000100
00000001
00000000
00000000
00000000
,
00002200
00003300
00010000
00002000
00000000
00000000
00000000
00000000
,
01003000
00000000
00000000
00100000
01000000
00000000
00000000
00000000
00100000
00000000
00000000
01000000
00100000
00000000
00000000
00000000
,
02020000
03030000
10000000
00200000
00000000
00000000
00000000
00000000
,
00300000
20000000
32000000
03100000
,
20020000
30030000
01000000
00200000
00000000
00000000
00000000
00000000
,
00300000
02000000
03002000
00013000
,
00022000
00033000
00001000
00020000
00000000
00000000
00000000
00000000
,
00030000
00000000
00000000
00000000
00001100
00000000
00001001
00000001
,
00002000
00000000
00000000
00000002
00000000
00000000
00000000
00000000
,
00003003
00000000
00000000
00000000
;
