#TITLE:Mind Parasite;
#ARTIST:Tomosuke;
#BANNER:Mind Parasite.png;
#BACKGROUND:Mind Parasite-bg.png;
#CDTITLE:./CDTITLES/Song Pack 1.png;
#MUSIC:Mind Parasite.ogg;
#SAMPLESTART:14.76;
#SAMPLELENGTH:15;
#DISPLAYBPM:145;
#BPMS:0=149.378,12=145.009,196=145.161;

//---------------dance-single - ----------------
#NOTES:
     dance-single:
     :
     Beginner:
     1:
     :
0000
0000
0000
0000
,
0000
0000
0000
0000
,
0000
0000
0000
0000
,
0000
0000
0000
0000
,
1000
0000
0000
0000
,
0000
0000
0000
0000
,
1000
0000
0100
0000
,
0000
0000
0000
0000
,
1000
0000
0000
0000
,
0001
0000
1000
0000
,
0100
0000
0010
0000
,
0100
0000
0010
0000
,
0100
0000
0010
0000
,
0100
0000
1000
0000
,
0100
0000
0010
0000
,
0100
0000
0010
0000
,
0100
0000
0010
0000
,
0100
0000
0100
0000
,
0001
0000
0001
0000
,
0010
0000
0010
0000
,
1000
0000
1000
0000
,
0100
0000
0100
0000
,
1000
0000
1000
0000
,
0001
0000
0010
0000
,
0001
0000
0001
0000
,
0001
0000
0000
0100
,
0000
0000
0000
1000
,
0000
0000
0000
0010
,
0000
0000
0000
1000
,
0000
0000
0000
0001
,
0000
0000
0010
0000
,
0010
0000
0000
0000
,
1000
0000
0000
0000
,
1001
0000
0100
0000
,
0110
0000
0010
0000
,
1001
0000
0100
0000
,
0110
0000
0010
0000
,
1001
0000
0010
0000
,
0110
0000
0001
0000
,
1000
0000
0100
0000
,
0001
0000
0100
0000
,
0110
0000
0010
0000
,
0100
0000
0100
0000
,
1000
0000
0100
0000
,
0100
0000
0010
0000
,
1000
0000
0010
0000
,
1001
0000
0010
0000
,
1000
0000
0100
0000
,
0001
0000
0010
0000
,
0110
0000
0000
0000
;

//---------------dance-single - ----------------
#NOTES:
     dance-single:
     :
     Easy:
     3:
     :
0000
0000
0000
0000
,
0000
0000
0000
0000
,
0000
0000
0000
0000
,
0000
0200
0000
0000
0000
0000
0000
0000
,
2300
0000
0000
0000
,
0000
3200
0000
0000
0000
0000
0000
0000
,
1300
0010
0100
0100
,
0000
0020
0000
0000
0000
0000
0000
0000
,
2030
0000
0000
0000
,
3001
0000
1000
0001
,
0100
0000
0010
0000
,
0100
0000
0010
0000
,
0100
0001
0010
0000
,
0100
0000
1000
0001
,
0100
0000
0010
0000
,
0100
0000
0010
0000
,
0100
0001
0010
0000
,
0100
0100
0010
0000
0100
0000
0010
0000
,
0001
1000
0001
0001
,
0010
0100
0010
0100
,
1000
0001
1000
0001
,
0100
0010
0100
0010
,
1000
0001
1000
0000
,
0001
0100
0010
0100
,
0001
1000
0001
1000
,
0002
0000
0003
0100
,
0020
0000
0030
1000
,
0200
0000
0300
0010
,
0002
0000
0003
1000
,
0020
0000
0030
0001
,
0200
0300
0010
0100
,
0020
0000
0000
0030
,
2000
0000
0000
3000
,
1001
0010
0100
0000
,
0110
0100
0010
0001
,
1001
0010
0100
0000
,
0110
0100
0010
0001
,
1001
0100
0010
0000
,
0110
0010
0001
0000
,
2000
0000
0100
3000
,
0002
0000
0100
0003
,
0101
0000
0010
0000
,
0100
0010
0100
0010
,
1000
0000
0100
0010
,
0100
0000
0010
0001
,
1000
0000
0010
0100
,
1001
0000
0010
0100
,
1000
0000
0100
0010
,
0001
0000
0010
0100
,
0110
0000
0000
0000
;

//---------------dance-single - ----------------
#NOTES:
     dance-single:
     :
     Medium:
     6:
     :
0000
0000
0000
0000
,
0000
0000
0000
0000
,
0000
0000
0000
0000
,
0000
1000
0200
0000
0000
0000
0000
0000
,
2300
0000
0000
0000
,
3000
0001
0200
0000
0000
0000
0000
0000
,
0301
0010
0100
0100
,
0000
0100
0020
0000
0000
0000
0000
0000
,
0032
0000
0000
0000
,
2003
0000
3001
1000
,
0200
0000
0310
0001
,
0020
0000
0031
1000
,
0100
0010
0001
1000
,
0002
0000
1003
0001
,
0200
0000
0310
1000
,
0020
0000
1030
0001
,
1000
0010
1000
0000
0010
0000
1000
0000
,
0100
0010
0100
0000
1000
0000
0010
0000
,
0100
0001
0100
0000
0001
0000
1000
0000
,
0010
0100
0001
0000
0010
0000
0100
0000
,
1000
0100
0010
0000
0001
0000
1000
0000
,
0001
0010
0100
1000
0100
0010
0001
0000
,
1000
0100
1000
0000
0001
0000
1000
0000
,
0001
0100
0001
0000
0010
0000
0100
0000
,
1000
0001
1000
0001
,
2002
0000
3003
0100
,
2200
0000
3300
0100
,
0220
0000
0330
0010
,
0022
0000
0033
1000
,
2200
0000
3300
0001
,
0202
0303
0100
0010
,
0220
0000
0000
0330
,
2000
0000
0000
3000
,
1100
0000
0010
0000
0001
1000
0001
0000
,
0011
0000
0100
0000
0001
1000
0001
0000
,
0101
0000
0010
0000
0100
0001
1000
0000
,
0101
0000
1000
0000
0010
1000
0001
0000
,
0011
0000
0100
0000
1000
0001
1000
0000
,
1100
0000
0010
0000
0001
1000
0001
0000
,
0210
0000
0010
0300
,
0120
0000
0100
0030
,
0110
0000
1000
0000
0100
0010
0001
1000
,
0100
0000
0010
0000
0100
0010
0001
1000
,
0001
0000
1000
0000
0100
0010
0001
1000
,
0100
0000
0010
0000
0100
0010
0001
1000
,
0001
0000
1000
0000
0100
0010
0001
1000
,
1001
0000
0001
0000
0010
0100
1000
0001
,
1000
0000
0010
0000
0100
0001
1000
0010
,
0100
0001
0010
0100
1000
0100
0010
0001
,
0011
0000
0000
0000
;

//---------------dance-single - ----------------
#NOTES:
     dance-single:
     :
     Hard:
     7:
     :
0000
0000
0000
0000
,
0000
0000
0000
0000
,
0000
0000
0000
0000
,
0000
1000
0200
0000
0000
0320
0000
0000
,
0032
0000
0000
0023
0000
0000
0230
0000
,
0000
1300
0100
0000
0000
1000
0000
0100
,
2000
3002
0023
0230
,
0300
0010
0100
0000
2000
0000
3001
0000
,
1002
0023
0230
2300
,
3100
0010
0001
0101
,
1100
0010
0010
0100
,
0100
0010
0001
1000
0001
1000
0020
0000
,
0130
0001
1000
0001
0100
0010
2000
0000
,
3010
0100
0001
1000
0100
1000
0020
0000
,
0130
0001
1000
0001
0100
0010
2000
0000
,
3010
0100
0001
1000
0100
1000
0001
0000
,
0100
0010
0000
0110
0000
1000
0000
1000
,
0001
1000
0001
0010
0100
1000
0001
0010
,
0001
1000
0100
1000
0100
0010
0100
1000
,
0001
0010
0100
1000
0100
0010
0001
1000
,
0001
1000
0001
0010
0100
1000
0001
0010
,
0001
1000
0100
1000
0100
0010
0100
1000
,
0001
0010
0100
1000
0100
0010
0001
0010
,
0001
1000
0100
1000
0100
0010
0100
0010
,
0001
0010
0001
0010
0100
0010
0100
0000
,
1100
0101
2020
3030
,
0001
0010
0100
1000
0100
0010
0001
0000
,
0011
1010
0202
0303
,
1000
0100
0010
0001
0010
0100
1000
0000
,
1100
0110
0022
0033
,
0001
0010
0100
1000
0100
0010
0001
0000
,
0011
1010
2002
3003
,
1000
0100
0010
0001
0010
0100
1000
0000
,
0001
0010
0001
0000
1000
0100
1000
0000
,
0001
1000
0001
0000
0100
0010
0100
0000
,
0001
0100
0101
0000
1000
0100
1100
0000
,
1000
0010
1010
0000
0100
0001
0101
0000
,
1000
0100
0010
0000
0001
0010
0100
0000
,
1000
0010
0100
0000
0001
0100
0010
0000
,
2100
0010
0001
3100
,
0012
0100
1000
0013
,
0001
0010
0011
0000
1000
0100
0010
0001
,
1000
0100
1100
0000
0010
1000
0010
0100
,
0001
1000
1001
0000
0100
0010
1000
0001
,
0100
0010
0110
0000
0001
0010
0100
1000
,
0001
0010
0011
0000
1000
0100
0010
0001
,
1000
0100
1100
0000
0010
1000
0010
0100
,
0001
1000
1001
0000
0100
0010
1000
0001
,
0100
0010
0110
0000
0001
0010
0100
1000
,
1001
0000
0000
0000
;

//---------------dance-double - ----------------
#NOTES:
     dance-double:
     :
     Beginner:
     1:
     :
00000000
00000000
00000000
00000000
,
00000000
00000000
00000000
00000000
,
00000000
00000000
00000000
00000000
,
00001000
00000000
00000000
00000000
,
00000000
00000000
00000000
00000000
,
00010000
00000000
00100000
00000000
,
00000000
00000000
00000000
00000000
,
00010000
00000000
00000000
00000000
,
10000000
00000000
01000000
00000000
,
00010000
00000000
00000010
00000000
,
00000100
00000000
00000010
00000000
,
00000100
00000000
00000010
00000000
,
00000100
00000000
00010000
00000000
,
01000000
00000000
00100000
00000000
,
01000000
00000000
00000000
00000000
,
00010000
00000000
00001000
00000000
,
00000100
00000000
00000100
00000000
,
00000001
00000000
00000010
00000000
,
00001000
00000000
00100000
00000000
,
00010000
00000000
00010000
00000000
,
01000000
00000000
01000000
00000000
,
00001000
00000000
00000010
00000000
,
00001000
00000000
00000010
00000000
,
00001000
00000000
00001000
00000000
,
00001000
00000000
00000000
00000100
,
00000000
00000000
00000000
00001000
,
00000000
00000000
00000000
00100000
,
00000000
00000000
00000000
00010000
,
00000000
00000000
00000000
00001000
,
00000000
00000000
00000010
00000000
,
00000010
00000000
00000000
00000000
,
00001000
00000000
00000000
00000000
,
00001001
00000000
00000100
00000000
,
00000110
00000000
00010000
00000000
,
00011000
00000000
01000000
00000000
,
01100000
00000000
00100000
00000000
,
00011000
00000000
00000010
00000000
,
00000110
00000000
00000001
00000000
,
00001000
00000000
00000100
00000000
,
00010000
00000000
00001000
00000000
,
00011000
00000000
00100000
00000000
,
01000000
00000000
01000000
00000000
,
00001000
00000000
00010000
00000000
,
00000100
00000000
00000010
00000000
,
00000001
00000000
00000010
00000000
,
00001001
00000000
00000010
00000000
,
00010000
00000000
00001000
00000000
,
00010000
00000000
00100000
00000000
,
01100000
00000000
00000000
00000000
;

//---------------dance-double - ----------------
#NOTES:
     dance-double:
     :
     Easy:
     3:
     :
00000000
00000000
00000000
00000000
,
00000000
00000000
00000000
00000000
,
00000000
00000000
00000000
00000000
,
00000000
00000200
00000000
00000000
00000000
00000000
00000000
00000000
,
00002300
00000000
00000000
00000000
,
00000000
00003200
00000000
00000000
00000000
00000000
00000000
00000000
,
00010300
00001000
00100000
00010000
,
00000000
00200000
00000000
00000000
00000000
00000000
00000000
00000000
,
00320000
00000000
00000000
00000000
,
10030000
00000000
01000000
00001000
,
00010000
00000000
00000010
00000000
,
00000100
00000000
00000010
00000000
,
00000100
00000001
00000010
00000000
,
00000100
00000000
00010000
00001000
,
01000000
00000000
00100000
00000000
,
01000000
00001000
00000000
00000000
,
00010000
00000010
00001000
00000000
,
00000100
00000100
00000010
00000000
00000100
00000000
00000010
00000000
,
00000001
00001000
00000010
00010000
,
00001000
01000000
00100000
01000000
,
00010000
10000000
00010000
10000000
,
01000000
00100000
01000000
00100000
,
00001000
00010000
00000010
00000000
,
00001000
00000100
00000010
00000100
,
00001000
00000001
00001000
00000001
,
00002000
00000000
00003000
00000100
,
00020000
00000000
00030000
00001000
,
02000000
00000000
03000000
00100000
,
20000000
00000000
30000000
00010000
,
00200000
00000000
00300000
00001000
,
00020000
00030000
00000010
00000100
,
00000020
00000000
00000000
00000030
,
00002000
00000000
00000000
00003000
,
00001001
00000010
00000100
00000000
,
00000110
00000100
00010000
00001000
,
00011000
00100000
01000000
00000000
,
01100000
01000000
00100000
00001000
,
00011000
00000100
00000010
00000000
,
00000110
00000010
00000001
00000000
,
00002000
00000000
00000100
00003000
,
00020000
00000000
00001000
00030000
,
00011000
00000000
00100000
00000000
,
01000000
00100000
01000000
00100000
,
00001000
00000000
00010000
00000010
,
00000100
00000000
00000010
00001000
,
00000001
00000000
00000010
00000100
,
00001001
00000000
00000010
00000100
,
00010000
00000000
00001000
00100000
,
00010000
00000000
00100000
01000000
,
01100000
00000000
00000000
00000000
;

//---------------dance-double - ----------------
#NOTES:
     dance-double:
     :
     Medium:
     6:
     :
00000000
00000000
00000000
00000000
,
00000000
00000000
00000000
00000000
,
00000000
00000000
00000000
00000000
,
00000000
10000000
02000000
00000000
00000000
00000000
00000000
00000000
,
23000000
00000000
00000000
00000000
,
30000000
00010000
02000000
00000000
00000000
00000000
00000000
00000000
,
03010000
00100000
00001000
00010000
,
00000000
00000100
00000020
00000000
00000000
00000000
00000000
00000000
,
00000032
00000000
00000000
00000000
,
00002003
00000000
00003001
00001000
,
00000200
00000000
00000310
00000001
,
00000020
00000000
00000031
00001000
,
00000100
00010000
00001000
00100000
,
00020000
00000000
01030000
00001000
,
00020000
00000000
00030010
00001000
,
00000020
00000000
00001030
00000001
,
00001000
00000010
00001000
00000000
00000100
00000000
00010000
00000000
,
00001000
00010000
00001000
00000000
01000000
00000000
00100000
00000000
,
01000000
00010000
01000000
00000000
00010000
00000000
10000000
00000000
,
00100000
01000000
00010000
00000000
00100000
00000000
00001000
00000000
,
00010000
00000100
00000010
00000000
00000001
00000000
00001000
00000000
,
00000001
00000010
00000100
00001000
00000100
00000010
00000001
00000000
,
00001000
00000100
00001000
00000000
00000100
00000000
00010000
00000000
,
00001000
00010000
00001000
00000000
00100000
00000000
01000000
00000000
,
10000000
00010000
00100000
00001000
,
00022000
00000000
00033000
00000100
,
00002200
00000000
00003300
00000100
,
00000220
00000000
00000330
00000010
,
00000022
00000000
00000033
00001000
,
00002200
00000000
00003300
00010000
,
00022000
00033000
01000000
00100000
,
02200000
00000000
00000000
03300000
,
20000000
00000000
00000000
30000000
,
11000000
00000000
00100000
00000000
00001000
00010000
00001000
00000000
,
00011000
00000000
00000100
00000000
00001000
00000001
00001000
00000000
,
00001100
00000000
00010000
00000000
00001000
00010000
00001000
00000000
,
00011000
00000000
01000000
00000000
00100000
10000000
00010000
00000000
,
00110000
00000000
01000000
00000000
00001000
00010000
00001000
00000000
,
00011000
00000000
00000010
00000000
00001000
00000001
00001000
00000000
,
00000210
00000000
00000010
00000300
,
00000120
00000000
00000100
00000030
,
00000110
00000000
00010000
00000000
00001000
00010000
00001000
00010000
,
00001000
00000000
00100000
00000000
01000000
00100000
00010000
10000000
,
00010000
00000000
00100000
00000000
00001000
00010000
00001000
00010000
,
00000100
00000000
00000010
00000000
00000100
00000010
00000100
00010000
,
00001000
00000000
00100000
00000000
01000000
00100000
00010000
10000000
,
10010000
00000000
00010000
00000000
00100000
01000000
10000000
00010000
,
10000000
00000000
00100000
00000000
01000000
00001000
00010000
00000010
,
00000100
00000001
00000010
00000100
00001000
00000100
00000010
00000001
,
00000011
00000000
00000000
00000000
;

//---------------dance-double - ----------------
#NOTES:
     dance-double:
     :
     Hard:
     8:
     :
00000000
00000000
00000000
00000000
,
00000000
00000000
00000000
00000000
,
00000000
00000000
00000000
00000000
,
00000000
10000000
02000000
00000000
00000000
03200000
00000000
00000000
,
00320000
00000000
00000000
00230000
00000000
00000000
02300000
00000000
,
00000000
13000000
01000000
00000000
00000000
10000000
00000000
01000000
,
20000000
30020000
00230000
00302000
,
00003000
00010000
00000100
00000000
00002000
00000000
00003001
00000000
,
00001002
00000023
00000230
00002300
,
00003100
00000010
00000001
00000101
,
00001100
00000010
00010000
00001000
,
01000000
00100000
10000000
00010000
10000000
00010000
00200000
00000000
,
01300000
10000000
00010000
10000000
01000000
00100000
00020000
00000000
,
00130000
01000000
10000000
00010000
01000000
00010000
00200000
00000000
,
00301000
00010000
00001000
00010000
00000100
00000010
00000002
00000000
,
00000013
00000100
00001000
00000001
00000100
00000001
00001000
00000000
,
00000100
00010000
00000000
00011000
00000000
00100000
00000000
00010000
,
10000000
00010000
10000000
01000000
00100000
00010000
10000000
01000000
,
10000000
00010000
00100000
00010000
00100000
01000000
00100000
00010000
,
10000000
01000000
00100000
00001000
00010000
00000100
00001000
00000001
,
00001000
00000001
00001000
00000100
00000010
00000001
00001000
00000100
,
00001000
00000001
00000010
00000001
00000010
00000100
00000010
00000001
,
00001000
00000100
00000010
00000001
00000010
00000100
00010000
00001000
,
00100000
01000000
00100000
01000000
00100000
00010000
00100000
00010000
,
01000000
00100000
01000000
00100000
10000000
01000000
10000000
00000000
,
01010000
00011000
00002200
00003300
,
00000001
00000010
00000100
00001000
00000100
00000010
00000001
00000000
,
00000011
00001010
00000202
00000303
,
00001000
00000100
00000010
00000001
00000010
00000100
00001000
00000000
,
00001100
00011000
00220000
00330000
,
00010000
00100000
01000000
10000000
01000000
00100000
00010000
00000000
,
00110000
10100000
20020000
30030000
,
10000000
01000000
00100000
00010000
00100000
01000000
10000000
00000000
,
00010000
00100000
00010000
00000000
01000000
00001000
01000000
00000000
,
00001000
00010000
00001000
00000000
00010000
00000100
00010000
00000000
,
00000010
00001000
00001010
00000000
00000001
00000010
00000011
00000000
,
00000100
00001000
00001100
00000000
00010000
00001000
00011000
00000000
,
00100000
01000000
00100000
00000000
01000000
00100000
01000000
00000000
,
10000000
00100000
01000000
00000000
00001000
00010000
00000100
00000000
,
00002100
00000010
00000001
00003100
,
00000012
00000100
00001000
00000013
,
00000100
00001000
00001100
00000000
00010000
00001000
00100000
00010000
,
10000000
01000000
11000000
00000000
00100000
10000000
00100000
01000000
,
00010000
10000000
10010000
00000000
01000000
00100000
10000000
00010000
,
00100000
00010000
00110000
00000000
00001000
00010000
00000100
00001000
,
00000001
00000010
00000011
00000000
00001000
00000100
00000010
00000001
,
00001000
00000100
00001100
00000000
00000010
00001000
00000010
00010000
,
00001000
00010000
00011000
00000000
01000000
00100000
10000000
00010000
,
01000000
00100000
01100000
00000000
00010000
00100000
01000000
10000000
,
10010000
00000000
00000000
00000000
;
