#TITLE:чен (J-SUMMER MIX);
#ARTIST:RE-VENGE;
#TITLETRANSLIT:MATSURI (J-SUMMER MIX);
#BANNER:MATSURI (J-SUMMER MIX).png;
#BACKGROUND:MATSURI (J-SUMMER MIX)-bg.png;
#CDTITLE:./CDTITLES/Song Pack 4.png;
#MUSIC:MATSURI (J-SUMMER MIX).ogg;
#SAMPLESTART:2.648;
#SAMPLELENGTH:15;
#DISPLAYBPM:180;
#BPMS:0=180.905,4=180;

//---------------dance-single - ----------------
#NOTES:
     dance-single:
     :
     Beginner:
     1:
     :
0000
0000
0000
0000
,
0000
0000
0000
0000
,
0000
0000
0000
0000
,
0000
0000
0000
0000
,
0000
0000
0000
0000
,
0000
0000
0000
0000
,
0001
0000
0001
0000
,
1000
0000
1000
0000
,
0010
0000
0100
0000
,
0001
0000
1000
0000
,
0001
0000
0010
0000
,
1000
0000
0100
0000
,
1000
0000
0100
0000
,
0001
0000
0010
0000
,
0001
0000
0000
0000
,
0100
0000
0010
0000
,
1000
0000
0000
0000
,
1000
0000
0001
0000
,
1000
0000
1000
0000
,
0001
0000
0000
0100
,
0000
0000
0001
0000
,
0100
0000
0000
0010
,
0000
0000
1000
0000
,
0001
0000
0100
0000
,
0100
0000
1000
0000
,
0010
0000
0001
0000
,
0010
0000
0000
0000
,
0100
0000
0000
0000
,
1000
0000
0000
0000
,
0001
0000
0000
0000
,
0001
0000
0010
0000
,
1000
0000
0100
0000
,
0001
0000
0001
0000
,
0100
0000
1000
0000
,
0001
0000
0010
0000
,
1000
0000
0100
0000
,
0100
0000
0010
0000
,
0010
0000
0100
0000
,
1001
0000
0000
0000
,
0110
0000
0000
0000
,
0100
0000
1000
0000
,
0010
0000
0001
0000
,
0000
0010
0000
0000
,
0000
0000
0000
0000
,
0100
0000
0000
0000
,
0010
0000
0000
0000
,
0100
0000
0000
0000
,
0010
0000
0000
0000
,
0100
0000
1000
0000
,
0001
0000
0100
0000
,
0001
0000
0010
0000
,
1000
0000
0010
0000
,
1001
0000
0100
0000
,
1001
0000
0010
0000
,
1001
0000
0100
0000
,
0001
0000
0100
0000
,
0010
0000
0001
0000
,
0010
0000
0001
0000
,
1000
0000
1000
0000
,
0100
0000
0010
0000
,
0001
0000
1000
0000
,
0100
0000
0001
0000
,
0001
0000
1000
0000
,
1000
0000
1000
0000
,
0100
0000
0100
0000
,
0010
0000
1000
0000
,
0001
0000
0100
0000
,
1000
0000
0010
0000
;

//---------------dance-single - ----------------
#NOTES:
     dance-single:
     :
     Easy:
     4:
     :
0000
0000
0000
0000
,
0000
0000
0000
0000
,
0000
0000
0000
0000
,
0000
0000
0000
0000
,
0000
0000
0000
0000
,
0000
0000
0000
0000
,
0001
1000
0001
0000
,
1000
0001
1000
0000
,
0010
0010
0100
0100
,
0001
0001
1000
1000
,
0001
1000
0010
0010
,
1000
1000
0100
0100
,
1000
0001
0100
0100
,
0001
0001
0010
0010
,
0001
0000
0000
0002
0000
0000
0003
0000
0000
0000
0000
0001
,
0200
0300
0020
0030
,
1000
0000
0000
2000
0000
0000
3000
0000
0000
0000
0000
0001
,
2000
3000
0002
0003
,
1000
0000
0000
0000
0000
0001
1000
0000
0000
1000
0000
0000
,
0001
0001
0000
0100
,
0001
0000
0000
0000
0000
0100
0001
0000
0000
0001
0000
0000
,
0100
0100
0000
0010
,
1000
0000
0000
0000
0000
0001
1000
0000
0000
1000
0000
0000
,
0001
1000
0100
0100
,
0100
0000
0000
0000
0000
0100
2000
0000
0000
3000
0000
0000
,
0010
0100
0001
0001
,
0010
0000
0000
0000
0000
0100
0000
0000
0100
0000
0000
0000
,
0100
0000
0000
0000
0000
0010
0000
0000
0010
0000
0000
0000
,
1000
0000
0000
0000
0000
0001
0000
0000
0001
0000
0000
0000
,
0001
0000
0000
0000
0000
1000
0000
0000
1000
0000
0000
0000
,
0001
0100
0010
0010
,
1000
0010
0100
0100
,
0001
1000
0001
0001
,
0100
0010
1000
1000
,
0001
0100
0010
0010
,
1000
0000
0000
0001
0000
0000
0100
0000
0000
0100
0000
0001
,
0100
0000
0000
0001
0000
0000
0020
0000
0000
0030
0000
0001
,
0010
0001
0100
0100
,
2020
0000
0030
0000
3000
0001
0000
0000
,
0202
0000
0300
0000
0003
1000
0000
0000
,
0100
1000
1000
0001
,
0010
0001
0001
0100
,
0000
0020
0000
0000
,
0000
0000
0000
0030
,
0100
0000
0001
0000
0000
0001
0000
0000
0000
0000
0000
0000
,
0010
0000
0100
0000
0000
0100
0000
0000
0000
0000
0000
0000
,
0100
0000
1000
0000
0000
1000
0000
0000
0000
0000
0000
0000
,
0010
0000
0100
0000
0000
0100
0000
0000
0000
0000
0000
0001
,
0100
0010
1000
0001
,
0001
1000
0100
0010
,
0001
0100
0010
1000
,
1000
0100
0010
0010
,
2002
3003
0100
0010
,
2002
3003
0010
0100
,
2002
3003
0100
0010
,
0001
2000
3100
0000
,
0010
0001
0001
0100
,
0010
2000
3001
0000
,
1000
1000
1000
0010
,
0100
0010
0010
1000
,
0001
1000
1000
0010
,
0100
0001
0001
1000
,
0001
1000
1000
0010
,
1000
0001
2000
3000
,
0100
0010
0200
0300
,
0010
0001
1000
1000
,
0001
0010
0100
0100
,
1000
0100
0010
0002
,
0000
0000
0000
0000
,
0003
0000
0000
0000
;

//---------------dance-single - ----------------
#NOTES:
     dance-single:
     :
     Medium:
     5:
     :
0000
0000
0000
0000
,
0000
0000
0000
0000
,
0000
0000
0000
0000
,
0000
0000
0000
0000
,
0000
0000
0000
0000
,
0000
0000
0000
0000
,
1000
0001
1000
0000
0001
0000
0001
0000
,
0100
0010
0100
0000
0010
0000
0010
0000
,
1000
0001
1000
0000
0001
1000
0001
0000
,
0010
0100
0010
0000
0100
0010
0100
0000
,
1000
0000
0000
1002
0000
0000
1003
0000
0000
0000
0000
0001
,
0010
0000
0000
0010
0000
0100
1000
0000
0000
1000
0000
0001
,
0100
0000
0000
0120
0000
0000
0130
0000
0000
0000
0000
1000
,
0001
0000
0000
0001
0000
0010
0100
0000
0000
0100
0000
1000
,
0001
0000
0000
2001
0000
0000
3001
0000
0000
0000
0000
1000
,
0010
0000
0000
0010
0000
1000
0001
0000
0000
0001
0000
1000
,
0001
0000
0000
2001
0000
0000
3001
0000
0000
0000
0000
0001
,
0100
0000
0000
0100
0000
0010
1000
0000
0000
1000
0000
0001
,
1000
0000
0000
0010
0000
1000
0001
0000
0000
0001
0000
0010
,
0100
0000
0000
1000
0000
0001
0100
0000
0000
0100
0000
0010
,
0100
0000
0000
0100
0000
0100
0001
0000
0000
0001
0000
1000
,
0001
0000
0000
0001
0000
0001
1000
0000
0000
1000
0000
0010
,
0100
0000
0000
0100
0000
0100
0001
0000
0000
0001
0000
0010
,
0001
0000
0000
0001
0000
0001
1000
0000
0000
1000
0000
0010
,
0100
0000
0000
0100
0000
0100
0001
0000
0000
0001
0000
1000
,
0010
0000
0000
0010
0000
0010
1000
0000
0000
1000
0000
0000
,
0002
0000
0000
0003
0000
1000
0000
0000
1000
0000
0000
0000
,
2000
0000
0000
3000
0000
0001
0000
0000
0001
0000
0000
0000
,
0020
0000
0000
0030
0000
0100
0000
0000
0100
0000
0000
0000
,
0200
0000
0000
0300
0000
0001
0000
0000
0001
0000
0000
0001
,
1000
0000
0000
0100
0000
0000
0010
0000
0000
0010
0000
0001
,
0100
0000
0000
0010
0000
1000
0200
0000
0000
0300
0000
1000
,
0001
0000
0000
0100
0000
0000
0010
0000
0000
0010
0000
1000
,
0100
0000
0000
0010
0000
0001
0200
0000
0000
0300
0000
0001
,
1000
0000
0000
0100
0000
0000
0010
0000
0000
0010
0000
0001
,
0100
0000
0000
0010
0000
1000
0100
0000
0000
0100
0000
1000
,
0001
0000
0000
0100
0000
0000
0010
0000
0000
0010
0000
1000
,
0100
0000
0000
0010
0000
0001
0100
0000
0000
0100
0000
0000
,
2002
0000
0003
0000
3000
0001
1000
0000
,
2002
0000
0003
0000
3000
0001
0100
0000
,
0010
1010
1001
0001
,
0010
0110
1100
1000
,
0000
0002
0000
0000
,
0000
0000
0000
1000
0000
0000
0000
0000
0000
0003
0000
1000
,
0001
0000
1000
0000
0000
1000
0000
0000
0000
0000
0000
0001
,
1000
0000
0001
0000
0000
0001
0000
0000
0000
0000
0000
0010
,
0100
0000
0010
0000
0000
0010
0000
0000
0000
0000
0000
1000
,
0001
0000
1000
0000
0000
1000
0000
0000
0000
0000
0000
0001
,
1000
0000
0000
0100
0000
0010
0100
0000
0000
1000
0000
0001
,
0100
0000
0000
0001
0000
1000
0100
0000
0000
0010
0000
0001
,
1000
0000
0000
0100
0000
0010
0100
0000
0000
1000
0000
0001
,
0100
0000
0000
0010
0000
1000
0001
0000
0000
0010
0000
0000
,
1100
0011
0100
1000
,
0011
1100
0010
0001
,
1100
0011
1000
0100
,
0010
0001
0010
0000
0011
0000
0000
0000
,
0100
0001
0100
0000
0101
0000
0000
0000
,
1000
0001
1000
0000
1001
0000
0000
0000
,
0100
0010
0100
0000
0110
0000
0000
0000
,
1000
0001
0010
0000
0011
0000
0000
0000
,
1000
0001
0100
0000
0101
0000
0000
0000
,
0010
1000
0100
0000
1100
0000
0000
0000
,
0010
0001
1000
0000
1001
0000
0000
0000
,
1000
0100
0010
0000
0001
1000
0001
0000
,
0100
0001
0010
0000
0100
1000
0100
0000
,
0010
0001
0100
0000
0010
1000
0010
0000
,
1000
0001
0100
0000
0010
1000
0010
0000
,
1000
0100
0001
0020
,
0000
0000
0000
0000
,
0030
0000
0000
0000
;

//---------------dance-single - ----------------
#NOTES:
     dance-single:
     :
     Hard:
     7:
     :
0000
0000
0000
0000
,
0000
0000
0000
0000
,
0000
0000
0000
0000
,
0000
0000
0000
0000
,
0000
0000
0000
0000
,
0000
0000
0000
0000
,
1000
0100
1000
0100
1000
0000
1000
0000
,
0001
0100
0001
0100
0001
0000
0001
0000
,
2000
3010
1000
0000
0002
0103
0001
0000
,
0020
0130
0010
0000
0200
1300
0100
0000
,
0010
0000
0000
0011
0000
0000
0011
0000
0000
0000
0000
1000
,
0010
0000
0000
0000
0000
0000
0010
0000
0000
0000
1000
0000
0001
0000
0000
0100
0000
0000
0001
0000
0000
0000
1000
0000
,
0001
0000
0000
0101
0000
0000
0101
0000
0000
0000
0000
0001
,
0100
0000
0000
0000
0000
0000
0100
0000
0000
0000
0010
0000
1000
0000
0000
0001
0000
0000
0100
0000
0000
0000
0010
0000
,
0100
0000
0000
0110
0000
0000
0110
0000
0000
0000
0000
0100
,
0001
0000
0000
0000
0000
0000
0001
0000
0000
0000
0100
0000
0010
0000
0000
1000
0000
0000
0001
0000
0000
0000
0100
0000
,
0010
0000
0000
0110
0000
0000
0110
0000
0000
0000
0000
1000
,
0100
0000
0000
0000
0000
0000
0100
0000
0000
0000
0010
0000
0100
0000
0000
1000
0000
0000
0001
0000
0000
0000
0000
0000
,
0020
0000
0000
0031
0000
0000
0000
0000
0000
0000
1000
0000
0100
0000
0000
0000
0000
0000
0100
0000
0000
0000
0010
0000
,
0002
0000
0000
1003
0000
0000
0000
0000
0000
0000
0001
0000
0100
0000
0000
0000
0000
0000
0100
0000
0000
0000
0010
0000
,
2000
0000
0000
3001
0000
0000
0000
0000
0000
0000
0100
0000
0010
0000
0000
0000
0000
0000
0010
0000
0000
0000
1000
0000
,
0002
0000
0000
0103
0000
0000
0000
0000
0000
0000
0010
0000
1000
0000
0000
0000
0000
0000
1000
0000
0000
0000
0010
0000
,
0200
0000
0000
0301
0000
0000
0000
0000
0000
0000
1000
0000
1000
0000
0000
0000
0000
0000
1000
0000
0000
0000
0100
0000
,
0020
0000
0000
0031
0000
0000
0000
0000
0000
0000
1000
0000
0100
0000
0000
0000
0000
0000
0100
0000
0000
0000
0010
0000
,
0200
0000
0000
0310
0000
0000
0000
0000
0000
0000
0001
0000
0100
0000
0000
0000
0000
0000
0100
0000
0000
0000
0010
0000
,
2000
0000
0000
3100
0000
0000
0000
0000
0000
0000
0010
0000
0001
0000
0000
0000
0000
0000
0001
0000
0000
0000
1000
0000
,
0010
0000
1000
0000
0000
0100
0000
0000
1000
0000
0000
0000
,
1000
0000
0001
0000
0000
0010
0000
0000
0001
0000
0000
1000
,
0010
0000
1000
0000
0000
0100
0000
0000
1000
0000
0000
0000
,
0100
0000
0000
0000
0000
0001
0000
0000
0010
0000
0000
0001
,
1000
0000
0000
0001
0000
0000
0100
0000
0000
0000
0001
0000
1000
0000
0000
0000
0000
0000
1000
0000
0000
0000
0001
0000
,
0100
0000
0000
0010
0000
0000
0100
0000
0000
0000
0001
0000
1000
0000
0000
0000
0000
0000
1000
0000
0000
0000
0010
0000
,
0100
0000
0000
0001
0000
0000
0100
0000
0000
0000
0001
0000
1000
0000
0000
0000
0000
0000
1000
0000
0000
0000
0001
0000
,
0100
0000
0000
0001
0000
0000
1000
0000
0000
0000
0001
0000
0010
0000
0000
0000
0000
0000
0010
0000
0000
0000
0001
0000
,
0100
0000
0000
0010
0000
0000
1000
0000
0000
0000
0001
0000
0100
0000
0000
0000
0000
0000
0100
0000
0000
0000
0001
0000
,
1000
0000
0000
0001
0000
0000
0010
0000
0000
0000
0100
0000
1000
0000
0000
0000
0000
0000
1000
0000
0000
0000
0100
0000
,
1000
0000
0000
0001
0000
0000
0010
0000
0000
0000
0001
0000
0100
0000
0000
0000
0000
0000
0100
0000
0000
0000
0001
0000
,
0100
0000
0000
0010
0000
0000
1000
0000
0000
0000
0100
0000
1000
0000
0000
0000
0000
0000
1000
0000
0000
0000
0000
0000
,
2000
0000
0000
3002
0000
0000
0003
0000
0000
0000
0100
0000
0000
0000
0000
0002
0000
0000
0003
0000
0000
0000
0000
0000
,
0200
0000
0000
0320
0000
0000
0030
0000
0000
0000
1000
0000
0000
0000
0000
0200
0000
0000
0300
0000
0000
0000
1000
0000
,
0002
0000
0000
2003
0000
0000
3000
0000
0000
0000
0100
0000
0000
0000
0000
2000
0000
0000
3000
0000
0000
0000
0000
0000
,
0200
0000
0000
0320
0000
0000
0030
0000
0000
0000
0001
0000
0000
0000
0000
0200
0000
0000
0300
0000
0000
0000
0000
0000
,
0000
0002
0000
2000
,
0003
0000
0000
0200
0000
0000
3000
0000
0000
0300
0000
1000
,
0010
0000
0100
0000
0000
1000
0000
0000
0000
0000
0000
0001
,
1000
0000
0010
0000
0000
0100
0000
0000
0000
0000
0000
1000
,
0100
0000
0010
0000
0000
1000
0000
0000
0000
0000
0000
0001
,
0010
0000
0100
0000
0000
0001
0000
0000
0000
0000
0000
1000
,
0001
0000
0000
1000
0000
0000
0100
0000
0000
0000
0010
0000
0001
0000
0000
0000
0000
0000
0001
0000
0000
0000
1000
0000
,
0100
0000
0000
0010
0000
0000
0001
0000
0000
0000
0100
0000
0010
0000
0000
0000
0000
0000
0010
0000
0000
0000
1000
0000
,
0001
0000
0000
0100
0000
0000
0001
0000
0000
0000
1000
0000
0100
0000
0000
0000
0000
0000
0100
0000
0000
0000
1000
0000
,
0100
0000
0000
0010
0000
0000
0001
0000
0000
0000
0100
0000
0001
0000
0000
0000
0000
0000
0001
0000
0000
0000
0000
0000
,
1000
0000
0000
1001
0000
0000
0001
0000
0000
0000
1000
0000
0100
0000
0000
0000
0000
0000
0010
0000
0000
0000
0000
0000
,
0001
0000
0000
1001
0000
0000
1000
0000
0000
0000
0001
0000
0010
0000
0000
0000
0000
0000
0100
0000
0000
0000
0000
0000
,
1000
0000
0000
1001
0000
0000
0001
0000
0000
0000
1000
0000
0100
0000
0000
0000
0000
0000
0010
0000
0000
0000
0000
0000
,
0001
0000
0000
1001
0000
0000
1000
0000
0000
0000
0001
0000
0010
0000
0000
0000
0000
0000
0100
0000
0000
0000
0000
0000
,
0020
0000
0000
0031
0000
0000
1000
0000
0000
0000
0001
0000
1001
0000
0000
0000
0000
0000
0100
0000
0000
0000
0000
0000
,
0200
0000
0000
0301
0000
0000
0010
0000
0000
0000
0001
0000
0011
0000
0000
0000
0000
0000
1000
0000
0000
0000
0000
0000
,
2000
0000
0000
3001
0000
0000
0100
0000
0000
0000
0001
0000
0101
0000
0000
0000
0000
0000
0010
0000
0000
0000
0000
0000
,
0020
0000
0000
0031
0000
0000
1000
0000
0000
0000
0001
0000
1001
0000
0000
0000
0000
0000
0010
0000
0000
0000
0000
0000
,
0020
0000
0000
0031
0000
0000
1000
0000
0000
0000
0001
0000
1001
0000
0000
0000
0000
0000
0100
0000
0000
0000
0000
0000
,
0200
0000
0000
0301
0000
0000
0010
0000
0000
0000
0001
0000
0011
0000
0000
0000
0000
0000
1000
0000
0000
0000
0000
0000
,
2000
0000
0000
3010
0000
0000
0100
0000
0000
0000
0010
0000
0110
0000
0000
0000
0000
0000
0001
0000
0000
0000
0000
0000
,
0002
0000
0000
1003
0000
0000
0010
0000
0000
0000
1000
0000
1010
0000
0000
0000
0000
0000
0100
0000
0000
0000
0000
0000
,
0200
0000
0000
0310
0000
0000
1000
0000
0000
0000
0010
0000
1010
0000
0000
0000
0000
0000
0001
0000
0000
0000
0000
0000
,
0020
0030
0001
0000
0011
0100
0010
0000
,
0002
0000
0000
0003
0000
0000
1000
0000
0000
0000
0000
0000
1001
0000
0000
0100
0000
0000
0001
0000
0000
0000
1000
0000
,
0010
0100
0010
0000
1000
0000
0002
0000
,
0000
0000
0000
0000
,
0003
0000
0000
0000
;

//---------------dance-double - ----------------
#NOTES:
     dance-double:
     :
     Beginner:
     1:
     :
00000000
00000000
00000000
00000000
,
00000000
00000000
00000000
00000000
,
00000000
00000000
00000000
00000000
,
00000000
00000000
00000000
00000000
,
00000000
00000000
00000000
00000000
,
00000000
00000000
00000000
00000000
,
00100000
00000000
00010000
00000000
,
10000000
00000000
01000000
00000000
,
10000000
00000000
00010000
00000000
,
00100000
00000000
00001000
00000000
,
00010000
00000000
00000010
00000000
,
00000001
00000000
00001000
00000000
,
00000001
00000000
00000100
00000000
,
00001000
00000000
00000010
00000000
,
00010000
00000000
00000000
00000000
,
00010000
00000000
10000000
00000000
,
00010000
00000000
00000000
00000000
,
01000000
00000000
00001000
00000000
,
00010000
00000000
00001000
00000000
,
00000001
00000000
00000000
00000100
,
00000000
00000000
00000010
00000000
,
00010000
00000000
00000000
00100000
,
00000000
00000000
00010000
00000000
,
10000000
00000000
01000000
00000000
,
00100000
00000000
00010000
00000000
,
10000000
00000000
01000000
00000000
,
00001000
00000000
00000000
00000000
,
00010000
00000000
00000000
00000000
,
00000010
00000000
00000000
00000000
,
00000100
00000000
00000000
00000000
,
00001000
00000000
00010000
00000000
,
00001000
00000000
00010000
00000000
,
10000000
00000000
00100000
00000000
,
01000000
00000000
01000000
00000000
,
10000000
00000000
00100000
00000000
,
00001000
00000000
00000100
00000000
,
00000100
00000000
00000001
00000000
,
00000001
00000000
00000100
00000000
,
00010000
00000000
00000000
00000000
,
00010000
00000000
00000000
00000000
,
01000000
00000000
00010000
00000000
,
00010000
00000000
01000000
00000000
,
00000000
00001000
00000000
00000000
,
00000000
00000000
00000000
00000000
,
00010000
00000000
00000000
00000000
,
00000010
00000000
00000000
00000000
,
00001000
00000000
00000000
00000000
,
00000100
00000000
00000000
00000000
,
00000100
00000000
00001000
00000000
,
01000000
00000000
01000000
00000000
,
10000000
00000000
01000000
00000000
,
01000000
00000000
00010000
00000000
,
00001000
00000000
00010000
00000000
,
00001000
00000000
00000100
00000000
,
00001001
00000000
00000100
00000000
,
00001000
00000000
00000100
00000000
,
00000010
00000000
00001000
00000000
,
00010000
00000000
01000000
00000000
,
00010000
00000000
01000000
00000000
,
10000000
00000000
01000000
00000000
,
00010000
00000000
01000000
00000000
,
00010000
00000000
00000100
00000000
,
00000001
00000000
00000100
00000000
,
00001000
00000000
00001000
00000000
,
00000100
00000000
00000100
00000000
,
00010000
00000000
00100000
00000000
,
00010000
00000000
01000000
00000000
,
10000000
00000000
01000000
00000000
;

//---------------dance-double - ----------------
#NOTES:
     dance-double:
     :
     Easy:
     4:
     :
00000000
00000000
00000000
00000000
,
00000000
00000000
00000000
00000000
,
00000000
00000000
00000000
00000000
,
00000000
00000000
00000000
00000000
,
00000000
00000000
00000000
00000000
,
00000000
00000000
00000000
00000000
,
00100000
00100000
00010000
00000000
,
10000000
10000000
01000000
00000000
,
10000000
10000000
00010000
00010000
,
00100000
00100000
00001000
00001000
,
00010000
00000100
00000010
00000010
,
00000001
00000001
00001000
00001000
,
00000001
00001000
00000100
00000100
,
00001000
00001000
00000010
00000010
,
00010000
00000000
00000000
00002000
00000000
00000000
00003000
00000000
00000000
00000000
00000000
01000000
,
00020000
00030000
20000000
30000000
,
00010000
00000000
00000000
20000000
00000000
00000000
30000000
00000000
00000000
00000000
00000000
00010000
,
02000000
03000000
00002000
00003000
,
00010000
00000000
00000000
00000000
00000000
00000010
00001000
00000000
00000000
00001000
00000000
00000000
,
00000001
00000001
00000000
00000100
,
00000100
00000000
00000000
00000000
00000000
00000100
00000010
00000000
00000000
00000010
00000000
00000000
,
00010000
00001000
00000000
00100000
,
01000000
00000000
00000000
00000000
00000000
10000000
00010000
00000000
00000000
00010000
00000000
00000000
,
10000000
10000000
01000000
01000000
,
00100000
00000000
00000000
00000000
00000000
00100000
00020000
00000000
00000000
00030000
00000000
00000000
,
10000000
00010000
01000000
01000000
,
00002000
00000000
00000000
00003000
00000000
00010000
00000000
00000000
00010000
00000000
00000000
00000000
,
00020000
00000000
00000000
00030000
00000000
00001000
00000000
00000000
00001000
00000000
00000000
00000000
,
00000020
00000000
00000000
00000030
00000000
00001000
00000000
00000000
00001000
00000000
00000000
00000000
,
00000200
00000000
00000000
00000300
00000000
00000001
00000000
00000000
00000001
00000000
00000000
00000000
,
00001000
00000100
00010000
00010000
,
00001000
01000000
00010000
00010000
,
10000000
01000000
00100000
00100000
,
01000000
00100000
01000000
01000000
,
10000000
01000000
00100000
00100000
,
00001000
00000000
00000000
00010000
00000000
00000000
00000100
00000000
00000000
00000100
00000000
00001000
,
00000100
00000000
00000000
00001000
00000000
00000000
00000002
00000000
00000000
00000003
00000000
00001000
,
00000001
00001000
00000200
00000300
,
00020000
00000000
00000000
00000000
00030000
00001000
00000000
00000000
,
00020000
00000000
00000000
00000000
00030000
00001000
00000000
00000000
,
01000000
00010000
00010000
10000000
,
00010000
01000000
01000000
00010000
,
00000000
00002000
00000000
00000000
,
00000000
00000000
00000000
00003000
,
00010000
00000000
00001000
00000000
00000000
00001000
00000000
00000000
00000000
00000000
00000000
00000000
,
00000010
00000000
00001000
00000000
00000000
00001000
00000000
00000000
00000000
00000000
00000000
00000000
,
00001000
00000000
00000001
00000000
00000000
00000001
00000000
00000000
00000000
00000000
00000000
00000000
,
00000100
00000000
00001000
00000000
00000000
00001000
00000000
00000000
00000000
00000000
00000000
00000000
,
00000100
00010000
00001000
00001000
,
01000000
00010000
01000000
00100000
,
10000000
01000000
01000000
10000000
,
01000000
00100000
00010000
00100000
,
00002000
00003000
00010000
00000100
,
00002000
00003000
00000100
00001000
,
00002002
00003003
00000100
00000010
,
00001000
00000002
00000103
00000000
,
00000010
00001000
00001000
00000100
,
00010000
00002000
01003000
00000000
,
00010000
01000000
01000000
00100000
,
10000000
01000000
01000000
00100000
,
00010000
01000000
01000000
00001000
,
00010000
00000100
00000100
00001000
,
00000001
00000100
00000100
00000010
,
00001000
00000001
00002000
00003000
,
00000100
00001000
00000200
00000300
,
00010000
00001000
00100000
00100000
,
00010000
00100000
01000000
01000000
,
10000000
00100000
01000000
00200000
,
00000000
00000000
00000000
00000000
,
00300000
00000000
00000000
00000000
;

//---------------dance-double - ----------------
#NOTES:
     dance-double:
     :
     Medium:
     6:
     :
00000000
00000000
00000000
00000000
,
00000000
00000000
00000000
00000000
,
00000000
00000000
00000000
00000000
,
00000000
00000000
00000000
00000000
,
00000000
00000000
00000000
00000000
,
00000000
00000000
00000000
00000000
,
10000000
00010000
10000000
00010000
00010000
00000000
00000000
00000000
,
01000000
00010000
01000000
00010000
00010000
00000000
00000000
00000000
,
00100000
00010000
00100000
00000000
00010000
01000000
00001000
00000000
,
00010000
00000100
00001000
00000000
00000100
00001000
00000100
00000000
,
00001000
00000000
00000000
00001002
00000000
00000000
00001003
00000000
00000000
00000000
00000000
00000001
,
00000100
00000000
00000000
00000100
00000000
00000001
00001000
00000000
00000000
00001000
00000000
00000100
,
00010000
00000000
00000000
00012000
00000000
00000000
00013000
00000000
00000000
00000000
00000000
00100000
,
00010000
00000000
00000000
00010000
00000000
00010000
01000000
00000000
00000000
01000000
00000000
00010000
,
10000000
00000000
00000000
10020000
00000000
00000000
10030000
00000000
00000000
00000000
00000000
10000000
,
00100000
00000000
00000000
00100000
00000000
01000000
00001000
00000000
00000000
00001000
00000000
00010000
,
00000100
00000000
00000000
00002100
00000000
00000000
00003100
00000000
00000000
00000000
00000000
00000001
,
00000010
00000000
00000000
00000010
00000000
00000001
00000100
00000000
00000000
00000100
00000000
00000010
,
00001000
00000000
00000000
00001000
00000000
00001000
00000100
00000000
00000000
00000100
00000000
00010000
,
00001000
00000000
00000000
00001000
00000000
00001000
00100000
00000000
00000000
00100000
00000000
00010000
,
01000000
00000000
00000000
01000000
00000000
01000000
00100000
00000000
00000000
00100000
00000000
10000000
,
00010000
00000000
00000000
00010000
00000000
00010000
10000000
00000000
00000000
10000000
00000000
00100000
,
01000000
00000000
00000000
01000000
00000000
01000000
00001000
00000000
00000000
00001000
00000000
00010000
,
00000100
00000000
00000000
00001000
00000000
00001000
00000001
00000000
00000000
00000001
00000000
00000010
,
00000100
00000000
00000000
00000100
00000000
00000100
00001000
00000000
00000000
00001000
00000000
00001000
,
00000010
00000000
00000000
00000010
00000000
00000010
00010000
00000000
00000000
00010000
00000000
00000000
,
00002000
00000000
00000000
00000000
00000000
00000000
00003000
00000000
00000000
00000000
00010000
00000000
00000000
00000000
00000000
00200000
00000000
00000000
00000000
00000000
00000000
00000000
00000000
00000000
,
02300000
00000000
00000000
03000000
00000000
10000000
00000000
00000000
10000000
00000000
00000000
00000000
,
00200000
00000000
00000000
00300000
00000000
00010000
00000000
00000000
00010000
00000000
00000000
00000000
,
00002000
00000000
00000000
00003000
00000000
00010000
00000000
00000000
00010000
00000000
00000000
00010000
,
00010000
00000000
00000000
00000100
00000000
00000000
00001000
00000000
00000000
00001000
00000000
00000001
,
00000100
00000000
00000000
00000010
00000000
00001000
00000100
00000000
00000000
00000100
00000000
00001000
,
00000001
00000000
00000000
00000100
00000000
00000000
00000010
00000000
00000000
00000010
00000000
00010000
,
00000100
00000000
00000000
00010000
00000000
00001000
00100000
00000000
00000000
00100000
00000000
00010000
,
10000000
00000000
00000000
01000000
00000000
00000000
10000000
00000000
00000000
10000000
00000000
00010000
,
01000000
00000000
00000000
00100000
00000000
10000000
01000000
00000000
00000000
01000000
00000000
00100000
,
00001000
00000000
00000000
00010000
00000000
00000000
00000010
00000000
00000000
00000010
00000000
00001000
,
00000100
00000000
00000000
00000010
00000000
00000001
00000100
00000000
00000000
00000100
00000000
00000000
,
00002002
00000000
00003003
00000000
00001000
00000001
00001000
00000000
,
00000100
00000000
00010000
00000000
00010000
00001000
01000000
00000000
,
00100000
10100000
10010000
00010000
,
01000000
01010000
00110000
00100000
,
00000000
00020000
00000000
00000000
,
00000000
00000000
00000000
10000000
00000000
00000000
00000000
00000000
00000000
00030000
00000000
00100000
,
00001000
00000000
00000000
00010000
00000000
00000000
00000000
00000000
00000000
00000000
00010000
00000000
00000000
00000000
00000000
00000000
00000000
00000000
00000000
00000000
00000000
00000000
00010000
00000000
,
00000100
00000000
00000000
00001000
00000000
00000000
00000000
00000000
00000000
00000000
00001000
00000000
00000000
00000000
00000000
00000000
00000000
00000000
00000000
00000000
00000000
00000000
00000010
00000000
,
00000100
00000000
00000000
00000010
00000000
00000000
00000000
00000000
00000000
00000000
00000010
00000000
00000000
00000000
00000000
00000000
00000000
00000000
00000000
00000000
00000000
00000000
00010000
00000000
,
00001000
00000000
00000000
00010000
00000000
00000000
00000000
00000000
00000000
00000000
00010000
00000000
00000000
00000000
00000000
00000000
00000000
00000000
00000000
00000000
00000000
00000000
00100000
00000000
,
00010000
00000000
00000000
10000000
00000000
01000000
00100000
00000000
00000000
00100000
00000000
00010000
,
01000000
00000000
00000000
00100000
00000000
10000000
00010000
00000000
00000000
00100000
00000000
00001000
,
00010000
00000000
00000000
00010000
00000000
00001000
00010000
00000000
00000000
00000100
00000000
00001000
,
00000100
00000000
00000000
00001000
00000000
00000001
00000100
00000000
00000000
00000010
00000000
00000000
,
00002002
00003003
00000100
00000010
,
00010000
00011000
00100000
01000000
,
20020000
30030000
01000000
00100000
,
10000000
00010000
00100000
00000000
00110000
00000000
00000000
00000000
,
00100000
00001000
00010000
00000000
00011000
00000000
00000000
00000000
,
00000010
00000001
00001000
00000000
00001001
00000000
00000000
00000000
,
00001000
00000001
00000100
00000000
00000110
00000000
00000000
00000000
,
00010000
00001000
00100000
00000000
00100000
00000000
01000000
00000000
,
00100000
00010000
01000000
00000000
01100000
00000000
00000000
00000000
,
10000000
00010000
01000000
00000000
01000000
00000000
00001000
00000000
,
00010000
00000100
00001000
00000000
00001010
00000000
00000000
00000000
,
00001000
00001000
00000001
00000000
00001000
00000001
00001000
00000000
,
00000100
00000100
00001000
00000000
00000100
00001000
00000100
00000000
,
00010000
00010000
00001000
00000000
00100000
00010000
00100000
00000000
,
00010000
00010000
10000000
00000000
00010000
10000000
00010000
00000000
,
00100000
01000000
10000000
02000000
,
00000000
00000000
00000000
00000000
,
03000000
00000000
00000000
00000000
;

//---------------dance-double - ----------------
#NOTES:
     dance-double:
     :
     Hard:
     8:
     :
00000000
00000000
00000000
00000000
,
00000000
00000000
00000000
00000000
,
00000000
00000000
00000000
00000000
,
00000000
00000000
00000000
00000000
,
00000000
00000000
00000000
00000000
,
00000000
00000000
00000000
00000000
,
10000000
00010000
10000000
00010000
10000000
00000000
10000000
00000000
,
01000000
10000000
01000000
10000000
00010000
00000000
00010000
00000000
,
00200000
00301000
00010000
00000000
00000020
00001030
00000100
00000000
,
00000020
00000031
00000010
00000000
00000200
00001300
00000100
00000000
,
00001000
00000000
00000000
00001001
00000000
00000000
00001001
00000000
00000000
00000000
00000000
00000001
,
00001000
00000000
00000000
00000000
00000000
00000000
00001000
00000000
00000000
00000000
00000100
00000000
00010000
00000000
00000000
00001000
00000000
00000000
01000000
00000000
00000000
00000000
00010000
00000000
,
10000000
00000000
00000000
10010000
00000000
00000000
10010000
00000000
00000000
00000000
00000000
00010000
,
01000000
00000000
00000000
00000000
00000000
00000000
01000000
00000000
00000000
00000000
00010000
00000000
10000000
00000000
00000000
00010000
00000000
00000000
10000000
00000000
00000000
00000000
00010000
00000000
,
01000000
00000000
00000000
01010000
00000000
00000000
01010000
00000000
00000000
00000000
00000000
00100000
,
00001000
00000000
00000000
00000000
00000000
00000000
00001000
00000000
00000000
00000000
00010000
00000000
00000010
00000000
00000000
00000100
00000000
00000000
00000010
00000000
00000000
00000000
00001000
00000000
,
00000001
00000000
00000000
00001001
00000000
00000000
00001001
00000000
00000000
00000000
00000000
00001000
,
00000100
00000000
00000000
00000000
00000000
00000000
00000100
00000000
00000000
00000000
00010000
00000000
00001000
00000000
00000000
00010000
00000000
00000000
00001000
00000000
00000000
00000000
00000000
00000000
,
02000000
00000000
00000000
03010000
00000000
00000000
00000000
00000000
00000000
00000000
10000000
00000000
00010000
00000000
00000000
00000000
00000000
00000000
00010000
00000000
00000000
00000000
00100000
00000000
,
00020000
00000000
00000000
10030000
00000000
00000000
00000000
00000000
00000000
00000000
00010000
00000000
01000000
00000000
00000000
00000000
00000000
00000000
01000000
00000000
00000000
00000000
00001000
00000000
,
00020000
00000000
00000000
00030100
00000000
00000000
00000000
00000000
00000000
00000000
00001000
00000000
00000010
00000000
00000000
00000000
00000000
00000000
00000010
00000000
00000000
00000000
00001000
00000000
,
00000020
00000000
00000000
00000130
00000000
00000000
00000000
00000000
00000000
00000000
00000010
00000000
00001000
00000000
00000000
00000000
00000000
00000000
00001000
00000000
00000000
00000000
00000100
00000000
,
00020000
00000000
00000000
00031000
00000000
00000000
00000000
00000000
00000000
00000000
01000000
00000000
00010000
00000000
00000000
00000000
00000000
00000000
00010000
00000000
00000000
00000000
00100000
00000000
,
00020000
00000000
00000000
10030000
00000000
00000000
00000000
00000000
00000000
00000000
00010000
00000000
01000000
00000000
00000000
00000000
00000000
00000000
01000000
00000000
00000000
00000000
00100000
00000000
,
02000000
00000000
00000000
03010000
00000000
00000000
00000000
00000000
00000000
00000000
01000000
00000000
00001000
00000000
00000000
00000000
00000000
00000000
00001000
00000000
00000000
00000000
00010000
00000000
,
00000020
00000000
00000000
00000130
00000000
00000000
00000000
00000000
00000000
00000000
00000010
00000000
00001000
00000000
00000000
00000000
00000000
00000000
00001000
00000000
00000000
00000000
00000000
00000000
,
00000001
00000000
00001000
00000000
00000000
00001000
00000000
00000000
00001000
00000000
00000000
00000000
,
00001000
00000000
00000001
00000000
00000000
00000001
00000000
00000000
00000001
00000000
00000000
00001000
,
00000100
00000000
00001000
00000000
00000000
00001000
00000000
00000000
00001000
00000000
00000000
00000000
,
00020000
00000000
00000000
00030000
00000000
00001000
00000000
00000000
00001000
00000000
00000000
00001000
,
01000000
00000000
00000000
00010000
00000000
00000000
01000000
00000000
00000000
00000000
00010000
00000000
00100000
00000000
00000000
00000000
00000000
00000000
00100000
00000000
00000000
00000000
00010000
00000000
,
01000000
00000000
00000000
00100000
00000000
00000000
10000000
00000000
00000000
00000000
00010000
00000000
01000000
00000000
00000000
00000000
00000000
00000000
01000000
00000000
00000000
00000000
00100000
00000000
,
10000000
00000000
00000000
00010000
00000000
00000000
01000000
00000000
00000000
00000000
00001000
00000000
00100000
00000000
00000000
00000000
00000000
00000000
00100000
00000000
00000000
00000000
00001000
00000000
,
00010000
00000000
00000000
00000100
00000000
00000000
00001000
00000000
00000000
00000000
00000001
00000000
00000100
00000000
00000000
00000000
00000000
00000000
00000100
00000000
00000000
00000000
00000010
00000000
,
00001000
00000000
00000000
00000010
00000000
00000000
00000100
00000000
00000000
00000000
00000001
00000000
00000010
00000000
00000000
00000000
00000000
00000000
00000010
00000000
00000000
00000000
00000001
00000000
,
00001000
00000000
00000000
00000001
00000000
00000000
00000010
00000000
00000000
00000000
00000100
00000000
00001000
00000000
00000000
00000000
00000000
00000000
00001000
00000000
00000000
00000000
00000100
00000000
,
00010000
00000000
00000000
00001000
00000000
00000000
00100000
00000000
00000000
00000000
00010000
00000000
01000000
00000000
00000000
00000000
00000000
00000000
01000000
00000000
00000000
00000000
00010000
00000000
,
01000000
00000000
00000000
00100000
00000000
00000000
10000000
00000000
00000000
00000000
01000000
00000000
20000000
00000000
00000000
00000000
00000000
00000000
30000000
00000000
00000000
00000000
00000000
00000000
,
00020000
00000000
00000000
20030000
00000000
00000000
30000000
00000000
00000000
00000000
01000000
00000000
00000000
00000000
00000000
20000000
00000000
00000000
30000000
00000000
00000000
00000000
00000000
00000000
,
02000000
00000000
00000000
03200000
00000000
00000000
00300000
00000000
00000000
00000000
00010000
00000000
00000000
00000000
00000000
02000000
00000000
00000000
03000000
00000000
00000000
00001000
00000000
00000000
,
00020000
00000000
00000000
00030200
00000000
00000000
00000300
00000000
00000000
00000000
00001000
00000000
00000000
00000000
00000000
00000002
00000000
00000000
00000003
00000000
00000000
00000000
00000000
00000000
,
00000200
00000000
00000000
00000320
00000000
00000000
00000030
00000000
00000000
00000000
00001000
00000000
00000000
00000000
00000000
00000200
00000000
00000000
00000300
00000000
00000000
00000000
00000000
00000000
,
00000000
00020000
00000000
00002000
,
00030000
00000000
00000000
00020000
00000000
00000000
00003000
00000000
00000000
00030000
00000000
00001000
,
00010000
00000000
00001000
00000000
00000000
00001000
00000000
00000000
00000000
00000000
00000000
00010000
,
00001000
00000000
00010000
00000000
00000000
00010000
00000000
00000000
00000000
00000000
00000000
01000000
,
00100000
00000000
10000000
00000000
00000000
01000000
00000000
00000000
00000000
00000000
00000000
00010000
,
01000000
00000000
00100000
00000000
00000000
00010000
00000000
00000000
00000000
00000000
00000000
10000000
,
00010000
00000000
00000000
10000000
00000000
00000000
01000000
00000000
00000000
00000000
00100000
00000000
00010000
00000000
00000000
00000000
00000000
00000000
00010000
00000000
00000000
00000000
10000000
00000000
,
01000000
00000000
00000000
00100000
00000000
00000000
00010000
00000000
00000000
00000000
01000000
00000000
00100000
00000000
00000000
00000000
00000000
00000000
00100000
00000000
00000000
00000000
10000000
00000000
,
00010000
00000000
00000000
01000000
00000000
00000000
00010000
00000000
00000000
00000000
10000000
00000000
01000000
00000000
00000000
00000000
00000000
00000000
01000000
00000000
00000000
00000000
00100000
00000000
,
00001000
00000000
00000000
00010000
00000000
00000000
00001000
00000000
00000000
00000000
00010000
00000000
00000100
00000000
00000000
00000000
00000000
00000000
00001000
00000000
00000000
00000000
00000000
00000000
,
00000001
00000000
00000000
00001001
00000000
00000000
00001000
00000000
00000000
00000000
00000001
00000000
00000100
00000000
00000000
00000000
00000000
00000000
00000010
00000000
00000000
00000000
00000000
00000000
,
00001000
00000000
00000000
00001001
00000000
00000000
00000001
00000000
00000000
00000000
00001000
00000000
00000010
00000000
00000000
00000000
00000000
00000000
00000100
00000000
00000000
00000000
00000000
00000000
,
00000001
00001001
00001000
00000000
00000100
00000000
00010000
00000000
,
00001000
00000000
00000000
00001000
00000000
00000000
01000000
00000000
00000000
00000000
00010000
00000000
00100000
00000000
00000000
00000000
00000000
00000000
01000000
00000000
00000000
00000000
00000000
00000000
,
00200000
00000000
00000000
00310000
00000000
00000000
01000000
00000000
00000000
00000000
00010000
00000000
01010000
00000000
00000000
00000000
00000000
00000000
00100000
00000000
00000000
00000000
00000000
00000000
,
00200000
00000000
00000000
00301000
00000000
00000000
00010000
00000000
00000000
00000000
00001000
00000000
00011000
00000000
00000000
00000000
00000000
00000000
00010000
00000000
00000000
00000000
00000000
00000000
,
00020000
00000000
00000000
00030010
00000000
00000000
00000100
00000000
00000000
00000000
00000010
00000000
00000110
00000000
00000000
00000000
00000000
00000000
00001000
00000000
00000000
00000000
00000000
00000000
,
00002000
00000000
00000000
00003001
00000000
00000000
00000010
00000000
00000000
00000000
00000001
00000000
00000011
00000000
00000000
00000000
00000000
00000000
00001000
00000000
00000000
00000000
00000000
00000000
,
00002000
00000000
00000000
00003100
00000000
00000000
00010000
00000000
00000000
00000000
00001000
00000000
00011000
00000000
00000000
00000000
00000000
00000000
01000000
00000000
00000000
00000000
00000000
00000000
,
02000000
00000000
00000000
03010000
00000000
00000000
10000000
00000000
00000000
00000000
00010000
00000000
10010000
00000000
00000000
00000000
00000000
00000000
10000000
00000000
00000000
00000000
00000000
00000000
,
20000000
00000000
00000000
30010000
00000000
00000000
01000000
00000000
00000000
00000000
00100000
00000000
01100000
00000000
00000000
00000000
00000000
00000000
00010000
00000000
00000000
00000000
00000000
00000000
,
00020000
00030000
10000000
00000000
10010000
01000000
00100000
00000000
,
00002000
00003000
00010000
00000000
00001100
00001000
00000010
00000000
,
00000200
00000300
00000001
00000000
00000011
00000100
00000010
00000000
,
00000002
00000000
00000000
00000003
00000000
00000000
00001000
00000000
00000000
00000000
00000000
00000000
00001001
00000000
00000000
00000100
00000000
00000000
00000001
00000000
00000000
00000000
00000100
00000000
,
00000010
00001000
00000100
00000000
00001000
00000000
00000002
00000000
,
00000000
00000000
00000000
00000000
,
00000003
00000000
00000000
00000000
;
