#TITLE:MAD BLAST;
#ARTIST:THE INFECTION;
#BANNER:MAD BLAST.png;
#BACKGROUND:MAD BLAST-bg.png;
#CDTITLE:./CDTITLES/Song Pack 6.png;
#MUSIC:MAD BLAST.ogg;
#SAMPLESTART:22.66;
#SAMPLELENGTH:15;
#BPMS:0=180;

//---------------dance-single - ----------------
#NOTES:
     dance-single:
     :
     Beginner:
     1:
     :
0000
0000
0000
0000
,
0000
0000
0000
0000
,
0000
0000
0000
0000
,
0000
0000
0000
0000
,
0000
0000
0000
0000
,
0010
0000
0100
0000
,
0001
0000
0010
0000
,
0100
0000
0010
0000
,
1000
0000
0001
0000
,
0001
0000
1000
0000
,
0100
0000
1000
0000
,
0100
0000
0010
0000
,
1000
0000
0010
0000
,
0000
0000
0000
0000
,
0000
0000
0000
0000
,
0000
0000
0000
0000
,
0000
0000
0000
0000
,
1001
0000
0100
0000
,
0001
0000
1000
0000
,
0001
0000
0100
0000
,
0001
0000
0010
0000
,
1001
0000
0100
0000
,
0001
0000
1000
0000
,
0001
0000
0100
0000
,
0001
0000
0010
0000
,
0010
0000
0010
0000
,
1000
0000
1000
0000
,
0010
0000
0010
0000
,
1000
0000
1000
0000
,
1000
0000
0001
0000
,
0001
0000
0100
0000
,
0100
0000
0010
0000
,
0010
0000
1000
0000
,
1001
0000
0110
0000
,
1001
0000
1000
0000
,
1000
0000
0000
0001
,
0000
0100
0000
1000
,
0000
0000
0000
0100
,
0000
1000
0000
0100
,
0000
0000
0000
1000
,
0000
0010
0000
0001
,
0000
0000
0000
0010
,
0000
0000
0001
0000
,
0000
0000
1000
0000
,
1000
0000
0000
0000
,
0000
0100
0000
0100
,
0000
0100
0000
0001
,
0000
1000
0000
0000
,
0100
0000
0001
0000
,
0100
0000
0010
0000
,
1000
0000
1000
0000
,
0001
0000
0100
0000
,
0010
0000
1000
0000
,
0010
0000
0100
0000
,
0001
0000
1001
0000
,
0000
0000
0110
0000
,
0000
0000
0000
0000
,
0001
0000
0000
0000
,
0100
0000
0001
0000
,
0000
0000
0100
0000
,
0100
0000
0000
0000
,
0001
0000
0000
0000
,
0010
0000
0001
0000
,
0000
0010
0000
0000
,
0100
0000
0000
0000
,
0000
0100
0000
0000
,
0100
0000
0000
0000
;

//---------------dance-single - ----------------
#NOTES:
     dance-single:
     :
     Easy:
     4:
     :
0000
0000
0000
0000
,
0000
0000
0000
0000
,
0000
0000
0000
0000
,
0000
0000
0000
0000
,
0000
0000
0000
0000
,
0010
0010
0100
0100
,
0001
0001
0010
0001
,
0100
0100
0010
0010
,
1000
1000
0001
0010
,
0001
0001
1000
1000
,
0100
0100
1000
0010
,
0100
0100
0010
0010
,
1000
0001
0010
0100
,
0000
1000
0000
0000
0000
1000
0000
0000
,
0000
1000
0000
0000
0000
0010
0000
0000
,
0000
1000
0000
0000
0000
1000
0000
0000
,
0000
1000
0000
0000
0000
0010
0000
0000
,
1001
0001
0100
0100
,
0001
0001
1000
0010
,
0001
0001
0100
0100
,
0001
0001
0010
1000
,
1001
0001
0100
0100
,
0001
0001
1000
0010
,
0001
0001
0100
0100
,
0001
0001
0010
1000
,
0010
0010
0010
0010
,
1000
1000
1000
1000
,
0010
0010
0010
0010
,
1000
0001
1000
0001
,
1000
1000
0002
0013
,
0001
0001
0200
0310
,
0100
0100
0020
1030
,
0010
0010
2000
3001
,
1001
0000
0110
0000
,
1001
0001
1000
0010
,
2000
0000
3000
0001
,
0110
0100
0010
1000
,
0020
0000
0030
0100
,
1001
1000
0001
0100
,
0002
0000
0003
1000
,
0110
0010
0100
0001
,
0200
0000
0300
0010
,
2000
0000
3001
0200
,
0000
0301
0000
0000
1000
0000
0001
0000
,
1000
0000
0020
0000
0000
0130
0000
0002
,
0000
0103
0001
0100
,
0001
0100
0001
0002
,
1003
1000
0020
0000
,
0130
0100
0001
0002
,
0103
0100
0020
0000
,
1030
1000
1000
2000
,
3001
0001
0200
0000
,
0310
0010
1000
2000
,
3010
0010
0200
0000
,
0301
0000
0001
0000
1001
0000
0000
1001
,
0000
1001
0000
0000
0220
0000
0000
0000
,
0330
0000
0000
0000
0000
0110
0000
0000
0000
0000
2000
0000
0000
0000
0000
0000
,
0001
0000
0000
3001
0000
0001
0000
0000
,
0200
0000
0000
0000
0301
0000
0000
1000
,
0000
0001
0000
0000
0100
0000
0010
0000
,
0100
0000
0000
0000
0000
0001
0000
0000
0000
0000
0100
0000
0000
0000
0000
0000
,
0001
0000
0000
0000
1000
0000
0000
0000
0000
0100
0000
0000
0000
0000
0000
0000
,
0010
0000
0000
0000
0000
0000
0000
0000
0002
0000
0000
0003
0000
0000
2000
0000
,
0000
3000
0000
0000
0020
0000
0000
0030
0000
0000
2000
0000
0000
3000
0000
0000
,
0200
0000
0000
0300
0000
0000
0020
0000
0000
0000
0000
0000
0030
0000
0002
0000
,
0000
0003
0000
0000
0200
0000
0000
0300
0000
0000
0020
0000
0000
0030
0000
0000
,
0200
0000
0000
0300
0000
0000
0002
0000
0000
0000
0000
0000
0000
0000
0000
0000
,
0000
0000
0000
1003
0000
0000
0000
0000
;

//---------------dance-single - ----------------
#NOTES:
     dance-single:
     :
     Medium:
     6:
     :
0000
0000
0000
0000
,
0000
0000
0000
0000
,
0000
0000
0000
0000
,
0000
0000
0000
0000
,
0000
0000
0000
0000
,
0001
0000
0001
0100
0101
0000
1010
0000
,
0010
0000
0010
1000
1010
0000
2000
0000
,
3001
0000
0001
0100
0101
0000
1010
0000
,
0100
0000
0100
0010
0100
0010
2000
0000
,
3001
0000
0001
0010
0011
0000
1001
0000
,
0010
0000
0010
0001
0011
0000
0020
0000
,
0130
0000
0100
0100
0110
0000
1010
0000
,
0001
1000
0001
1000
0010
1000
0100
1000
,
0001
0001
0010
0010
0001
0001
0020
0030
,
0001
0001
0010
0010
0001
1000
0001
0000
,
1000
1000
0100
0100
1000
1000
0200
0300
,
1000
1000
0100
0100
1000
0001
1000
0000
,
0101
0000
1010
0000
0100
1000
0100
0000
,
1010
0000
0101
0000
0010
0001
0010
0000
,
1000
0100
1000
1000
0001
0010
0000
0010
,
0100
1000
0000
1000
0000
0100
0100
0000
,
1010
0000
0101
0000
0010
0001
0010
0000
,
0101
0000
1010
0000
0100
1000
0100
0000
,
0001
0010
0001
0001
1000
0100
1000
0100
,
0010
0001
0000
0010
0000
0010
0010
0000
,
0010
0001
0010
0001
1000
0001
1000
0001
,
1000
0100
1000
0100
2000
0100
3100
0000
,
0010
0001
0010
0001
1000
0001
0001
0001
,
2000
3200
0320
0031
,
0101
1010
2000
3010
,
1010
0101
0200
0310
,
0110
1001
0020
0031
,
1001
0110
0002
1003
,
0002
1003
0110
0110
,
0001
0000
0000
0001
1000
0000
0000
0000
0001
0000
0000
0001
0010
0000
0000
0000
,
0002
1000
1003
1000
,
0010
0000
0000
0010
0100
0000
0000
0000
0001
0000
0000
0001
0010
0000
0000
0000
,
0020
0100
0130
0100
,
1000
0000
0000
1000
0001
0000
0000
0000
1000
0000
0000
1000
0001
0000
0000
0000
,
2000
0001
3001
0001
,
0100
0000
0000
0100
0010
0000
0000
0000
0100
0000
0000
0100
0001
0000
0000
0000
,
0200
0010
0310
0010
,
0002
0000
0000
1000
1003
0000
0200
0000
,
1000
1300
0000
0000
0101
0000
1010
0000
,
1000
0000
0020
0000
0100
0130
0000
0002
,
0000
0103
0001
0100
,
0101
0000
1010
0000
1000
0001
1000
0002
,
1003
0100
1000
0000
0020
0000
0000
0030
,
0100
0001
0100
0000
0001
1000
0001
2000
,
3001
0010
0001
0000
0200
0000
0000
0300
,
0010
1000
0010
0000
0100
0010
0100
0020
,
0130
0001
0100
0000
0002
0000
0000
0003
,
1000
0100
1000
0000
0010
0100
0010
0200
,
0310
1000
0010
0000
2000
0000
0000
3000
,
0001
0010
0001
0000
1001
0000
0000
0101
,
0000
1010
0000
0000
0220
0000
0000
0000
,
0330
0000
0000
0000
0000
0110
0000
0000
0000
0000
0002
0000
0000
0000
0003
0000
,
1000
0002
0000
1003
0000
0100
0000
0000
,
0100
0000
0000
0100
0000
0000
0100
0000
0020
0000
0000
0000
0031
0000
1000
0000
,
0000
0000
1000
0000
0000
0000
0000
0000
0001
0000
0000
0001
0000
0000
0001
0000
,
0010
0000
0000
0100
0000
0010
0100
1000
,
0000
0000
0000
0001
0000
0000
0001
0000
0000
0000
1000
0000
0000
0000
0000
0000
,
1000
0000
0000
0010
0000
0000
1000
0000
0010
0000
0000
0010
0000
0000
0100
0000
,
0000
0100
0000
0000
0001
0000
0000
0001
0000
0000
1000
0000
0000
0010
0000
0000
,
1000
0000
0000
0010
0000
0000
0200
0000
0000
0000
0000
0000
0300
0000
0001
0000
,
0000
0001
0000
0000
0010
0000
0000
0001
0000
0000
0010
0000
0000
0001
0000
0000
,
0010
0000
0000
0010
0000
0000
0200
0000
0000
0000
0000
0000
0000
0000
0000
0000
,
0000
0000
0000
1300
0000
0000
0000
0000
;

//---------------dance-single - ----------------
#NOTES:
     dance-single:
     :
     Hard:
     8:
     :
0000
0000
0000
0000
,
0000
0000
0000
0000
,
0000
0000
0000
0000
,
0000
0000
0000
0000
,
0000
0000
0000
0000
,
1000
0000
0000
0001
1000
0000
0100
0000
1100
0000
0000
0000
0011
0000
0000
0000
,
0100
0000
0000
0001
0100
0000
0001
0000
0101
0000
0000
0000
2010
0000
0000
0000
,
3010
0000
0000
0100
0010
0000
1000
0000
1010
0000
0000
0000
0101
0000
0000
0000
,
1000
0000
0000
0010
1000
0000
0010
0000
0100
0000
0010
0000
2000
0000
0000
0000
,
3100
0000
0000
1000
0100
0000
0010
0000
0011
0000
0000
0000
1001
0000
0000
0000
,
0100
0000
0000
0010
0100
0000
1000
0000
1001
0000
0000
0000
0020
0000
0000
0000
,
0130
0000
0000
0001
0100
0000
0100
0000
0110
0000
0000
0000
0011
0000
0000
0000
,
1000
0000
0000
0001
2000
0000
3002
0000
0013
0000
0000
0001
0100
0000
0001
0000
,
1000
0000
0001
1000
0020
0000
0030
0000
1000
0000
0001
1000
0020
0000
0030
0000
,
1000
0000
0001
1000
0010
0000
0100
0000
0001
0000
1000
0001
0010
0000
0000
0000
,
0001
0000
1000
0001
0200
0000
0300
0000
0001
0000
1000
0001
0200
0000
0300
0000
,
0001
0000
1000
0001
0100
0000
0010
0000
1000
0000
0001
1000
0100
0000
0000
0000
,
1100
0000
0000
0000
0011
0000
0000
0000
0110
0000
0000
0001
0000
0000
0001
0000
,
0011
0000
0000
0000
1100
0000
0000
0000
1001
0000
0000
0100
0010
0000
0000
0000
,
0001
0000
0100
0000
0001
0000
0000
0001
1000
0000
0010
0000
1000
0000
0000
0010
,
1000
0000
2000
0000
0000
0000
3001
0000
0100
0000
0000
0010
0100
0000
0000
0000
,
0011
0000
0000
0000
1100
0000
0000
0000
0110
0000
0000
1000
0000
0000
1000
0000
,
1100
0000
0000
0000
0011
0000
0000
0000
1001
0000
0000
0010
0100
0000
0000
0000
,
1000
0000
0010
0000
1000
0000
0000
1000
0001
0000
0100
0000
0001
0000
0000
0100
,
0001
0000
0002
0000
0000
0000
1003
0000
0010
0000
0000
0100
0010
0000
0000
0000
,
0010
0000
0000
2000
3010
0000
0000
0000
0010
0000
0000
2000
3010
0000
0000
0000
,
1000
0000
0000
0200
1300
0000
0000
0000
1000
0000
0000
0200
1300
0000
0000
0000
,
0010
0000
0000
0002
0013
0000
0000
0000
0010
0000
0000
0002
0013
0000
0000
0000
,
0001
0100
0001
1000
0001
0100
0001
0000
,
1000
0000
1000
0000
0001
0000
0001
0000
1000
0000
0000
1000
0010
0000
0010
0000
,
1000
0000
1000
0000
0010
0000
0010
0000
0100
0000
0000
0100
0001
0000
0001
0000
,
1001
0000
0000
0000
0110
0000
0000
0000
0010
0000
0000
1000
0001
0000
0001
0000
,
1001
0000
0000
0000
0110
0000
0000
0000
1000
0000
0000
0001
0000
0000
1000
0000
,
0002
0103
0110
0110
,
1000
0000
0000
1000
0001
0000
0010
0000
0001
0000
0000
0100
0010
0000
1000
0000
,
0001
0000
1000
0010
1000
0001
1000
0000
,
0010
0000
0000
0010
0100
0000
0001
0000
1000
0000
0000
1000
0001
0000
0010
0000
,
0001
0000
0100
0010
0100
0001
0100
0000
,
0001
0000
0000
0001
1000
0000
0100
0000
1000
0000
0000
0010
0100
0000
0001
0000
,
1000
0000
0001
0100
0001
1000
0001
0000
,
0100
0000
0000
0100
0010
0000
1000
0000
0001
0000
0000
0001
1000
0000
0010
0000
,
1000
0000
0010
0100
0010
1000
0010
0000
,
2000
0000
0000
0001
3001
0000
0220
0330
,
0001
1000
0000
0000
1100
0000
0011
0000
,
0001
0000
2002
3003
0100
0010
0000
2000
,
0000
0000
0000
0000
3100
0000
0000
0000
1000
0000
0000
0001
0100
0000
0000
0000
,
1100
0000
0000
0000
0011
0000
0000
0000
0001
0000
0000
1000
0001
0000
2000
0000
,
3001
0000
0000
0100
0001
0000
0100
0000
0020
0000
0000
0000
0000
0000
0030
0000
,
0100
0000
0000
0001
0100
0000
0000
0000
0001
0000
0000
1000
0001
0000
2000
0000
,
3001
0000
0000
0010
0001
0000
0010
0000
0200
0000
0000
0000
0000
0000
0300
0000
,
0010
0000
0000
0001
0010
0000
0000
0000
0100
0000
0000
0010
0100
0000
0020
0000
,
0130
0000
0000
1000
0100
0000
1000
0000
0002
0000
0000
0000
0000
0000
0003
0000
,
1000
0000
0000
0100
1000
0000
0000
0000
0010
0000
0000
0100
0010
0000
0200
0000
,
0310
0000
0000
1000
0010
0000
1000
0000
0200
0000
0000
0000
0000
0000
0300
0000
,
1000
0000
0000
0001
1000
0000
0000
0000
1001
0000
0000
0000
0000
0000
1100
0000
,
0000
0000
0011
0000
0000
0000
0000
0000
0010
0000
0000
0010
0000
0000
0010
0000
,
1001
0000
0000
0000
0000
0110
0000
0000
0000
0000
1000
0000
0010
0000
0100
0000
,
0001
0000
0000
0100
0000
0000
0001
0000
0000
0000
0100
0000
0000
0000
0000
0000
,
0001
0000
0000
0001
0000
0000
0001
0000
0020
0000
0000
0000
0030
0000
0100
0000
,
0000
0000
1001
0000
0000
0000
0000
0000
1000
0000
0000
1000
0000
0000
1000
0000
,
0010
0000
0000
0000
0000
0000
0100
0000
0000
0000
0010
0000
0100
0001
1000
0000
,
0000
0000
0000
0001
0000
0000
1000
0000
0000
0000
0001
0000
0000
0000
0000
0000
,
0001
0000
0000
0000
0000
0000
0010
0000
0000
0000
0000
0000
0001
0000
0000
0000
0010
0000
0000
0001
0000
0000
0010
0000
0000
0000
0000
0000
0100
0000
0000
0010
,
0000
0000
0100
0000
0000
0000
0000
0000
1000
0000
0000
0001
0000
0000
1000
0000
0000
0000
0000
0000
0010
0000
0000
0100
0000
0000
0010
0000
0000
0000
0000
0000
,
0100
0000
0000
0001
0000
0000
0100
0000
0000
0000
0000
0000
0002
0000
0000
0000
0000
0000
0000
0000
0000
0000
0000
0000
0003
0000
0000
0000
1000
0000
0000
0100
,
0000
0000
1000
0000
0000
0000
0000
0000
0010
0000
0000
1000
0000
0000
0010
0000
0000
0000
0000
0000
0100
0000
0000
0001
0000
0000
0100
0000
0000
0000
0000
0000
,
0001
0000
0000
1000
0000
0000
0100
0000
0000
0000
0000
0000
0020
0000
0000
0000
0000
0000
0000
0000
0000
0000
0000
0000
0000
0000
0000
0000
0000
0000
0000
0000
,
0000
0000
0000
0031
0000
0000
0000
0000
;

//---------------dance-single - ----------------
#NOTES:
     dance-single:
     :
     Challenge:
     10:
     :
0000
0000
0000
0000
,
0000
0000
0000
0000
,
0010
0010
0010
0010
,
0010
1000
0100
0010
0001
1000
0001
0100
,
0010
0000
1000
0000
0001
0000
1000
0000
0100
1000
0100
1000
0000
0000
0000
0000
,
1000
0000
0001
0000
1000
0000
0100
0000
2000
0000
0000
3001
0000
0000
0100
0000
,
0001
0000
1000
0000
0001
0000
0010
0000
0002
0000
0000
1003
0000
0000
0010
0000
,
0001
0000
1000
0000
0001
0000
0100
0000
0002
0000
0000
1003
0000
0000
0100
0000
,
1010
0000
0000
0101
0000
0000
0000
1100
0000
0000
0101
0000
1100
0000
0000
0000
,
0001
0000
1000
0000
0001
0000
0100
0000
0002
0000
0000
1003
0000
0000
0100
0000
,
1000
0000
0001
0000
1000
0000
0010
0000
2000
0000
0000
3001
0000
0000
0010
0000
,
1000
0000
0001
0000
1000
0000
0100
0000
2000
0000
0000
3001
0000
0000
0100
0000
,
0011
0000
0000
1100
0000
0000
0000
0101
0000
0000
1100
0000
0101
0000
0000
0000
,
1000
0100
1000
0100
1000
0000
0001
0000
1000
0000
0001
0000
0100
0000
0000
0000
,
0010
0001
0010
0001
0010
0000
0100
0000
0010
0000
0001
0000
1000
0000
0000
0000
,
0001
0100
0001
0100
0001
0000
1000
0000
0001
0000
1000
0000
0100
0000
0000
0000
,
0010
1000
0010
1000
0010
0000
1000
0000
0001
1000
0001
1000
0000
0000
0000
0000
,
0001
0000
1000
0000
0001
0000
0100
0000
0002
0000
0000
1003
0000
0000
0100
0000
,
1000
0000
0001
0000
1000
0000
0010
0000
2000
0000
0000
3001
0000
0000
0010
0000
,
1000
0000
0001
0000
1000
0000
0100
0000
2000
0000
0000
3001
0000
0000
0100
0000
,
0011
0000
0000
1100
0000
0000
0000
0101
0000
0000
1100
0000
0101
0000
0000
0000
,
1000
0000
0001
0000
1000
0000
0100
0000
2000
0000
0000
3001
0000
0000
0100
0000
,
0001
0000
1000
0000
0001
0000
0010
0000
0002
0000
0000
1003
0000
0000
0010
0000
,
0001
0000
1000
0000
0001
0000
0100
0000
0001
0000
0000
1000
0000
0000
0100
0000
,
1010
0000
0000
0101
0000
0000
0000
1100
0000
0000
0101
0000
1100
0000
0000
0000
,
0101
0000
0101
1000
0001
1000
0100
0000
,
1010
0000
1010
1000
0010
1000
0001
0000
,
1100
0000
1100
0001
1000
0001
0100
0000
,
0010
0001
0010
0001
0100
0001
1000
0100
,
0001
0000
0001
0000
0001
0000
0001
0000
1000
0000
0000
0100
0000
0001
0000
0000
,
0100
0000
0100
0000
0100
0000
0100
0000
0010
0000
0000
1000
0000
0100
0000
0000
,
1000
0000
1000
0000
1000
0000
1000
0000
0001
0000
0000
0010
0000
0100
0000
0000
,
0010
0000
0010
0000
0010
0000
0010
0000
0100
0000
0000
0010
0000
0100
0000
0000
,
0110
1001
0110
1001
,
0100
0000
0000
1000
0001
0000
0010
0000
0001
0000
0000
0100
0010
0000
1000
0000
,
0001
0000
0000
1000
0001
0000
1000
0000
0001
0000
1000
0000
0100
0000
1000
0000
,
0001
0000
0000
1000
0001
0000
0010
0000
0001
0000
0000
0100
0010
0000
1000
0000
,
0001
0000
0000
1000
0001
0000
1000
0000
0001
0000
1000
0000
0100
0000
1000
0000
,
0100
0000
0000
0001
1000
0000
0010
0000
1000
0000
0000
0100
0010
0000
0001
0000
,
1000
0000
0000
0001
1000
0000
0001
0000
1000
0000
0001
0000
0100
0000
0001
0000
,
0020
0230
2300
3002
,
1003
0100
0001
0100
1000
0100
0001
0100
,
2000
0000
0000
0001
3001
0000
0220
0330
,
0001
1000
0000
0000
1100
0000
0011
0000
,
0001
0000
2002
3003
0100
0010
0000
2000
,
0000
3100
1000
0101
,
1100
0000
0011
0000
1000
0010
1000
0001
,
1000
0010
1000
0001
1000
0010
1000
0001
,
1100
0000
0000
1100
0000
0000
0101
0000
0010
0000
0100
0000
0001
0000
1000
0000
,
0010
0100
0001
1000
0010
0100
0001
1000
,
0110
0000
0000
0110
0000
0000
1001
0000
0001
0000
0010
0000
0001
0000
1000
0000
,
0001
0010
0001
1000
0001
0010
0001
1000
,
0101
0000
0000
0101
0000
0000
1100
0000
0010
0000
0100
0000
1000
0000
0001
0000
,
0010
0100
1000
0001
0010
0100
1000
0001
,
0101
0000
0000
0101
0000
0000
1001
0000
1001
0000
0000
0000
0000
0000
1100
0000
,
0000
0000
0011
0000
0000
0000
0000
0000
0010
0000
0000
0010
0000
0000
0010
0000
,
1001
0000
0000
0000
0000
0110
0000
0000
0000
0000
1000
0000
0010
0000
0100
0000
,
0001
0000
0000
0100
0000
0000
0001
0000
0000
0000
0100
0000
0000
0000
0000
0000
,
0001
0000
0000
0001
0000
0000
0001
0000
0020
0000
0000
0000
0030
0000
0001
0000
,
1000
0100
0010
0001
0010
0100
1000
0001
,
1000
0001
0010
0001
0100
0001
1000
0100
,
1000
0001
0100
0010
0100
0001
1000
0100
,
1000
0000
0001
0000
1000
0000
0000
0000
0000
0100
1000
0100
0000
0000
0100
0001
,
0100
0001
0000
0000
0000
0010
0001
0010
0000
0000
0010
1000
0010
1000
0000
0000
,
0000
0100
1000
0100
0000
0000
0100
0001
0100
0001
0100
0001
0000
0000
0001
0010
,
0001
0010
0000
0000
0000
1000
0010
1000
0000
0000
1000
0100
1000
0100
0000
0000
,
0000
0001
0100
0001
0000
0000
0002
0000
0000
0000
0000
0000
0000
0000
0000
0000
,
0000
0000
0000
1003
0000
0000
0000
0000
;

//---------------dance-double - ----------------
#NOTES:
     dance-double:
     :
     Beginner:
     1:
     :
00000000
00000000
00000000
00000000
,
00000000
00000000
00000000
00000000
,
00000000
00000000
00000000
00000000
,
00000000
00000000
00000000
00000000
,
00000000
00000000
00000000
00000000
,
00010000
00000000
00100000
00000000
,
01000000
00000000
10000000
00000000
,
01000000
00000000
00001000
00000000
,
00010000
00000000
00000010
00000000
,
00000100
00000000
00000010
00000000
,
00000100
00000000
00001000
00000000
,
00010000
00000000
00001000
00000000
,
01000000
00000000
00100000
00000000
,
00000000
00000000
00000000
00000000
,
00000000
00000000
00000000
00000000
,
00000000
00000000
00000000
00000000
,
00000000
00000000
00000000
00000000
,
00001001
00000000
00000100
00000000
,
00000001
00000000
00001000
00000000
,
00010000
00000000
00001000
00000000
,
00100000
00000000
00010000
00000000
,
10010000
00000000
01000000
00000000
,
00001000
00000000
01000000
00000000
,
00010000
00000000
00000010
00000000
,
00001000
00000000
00010000
00000000
,
00100000
00000000
00100000
00000000
,
00001000
00000000
00001000
00000000
,
00010000
00000000
00010000
00000000
,
00000010
00000000
00000010
00000000
,
00000001
00000000
00001000
00000000
,
00010000
00000000
00001000
00000000
,
01000000
00000000
10000000
00000000
,
00100000
00000000
00001000
00000000
,
00011000
00000000
00000110
00000000
,
00001001
00000000
00001000
00000000
,
00010000
00000000
00000000
00001000
,
00000000
00100000
00000000
10000000
,
00000000
00000000
00000000
01000000
,
00000000
01000000
00000000
00010000
,
00000000
00000000
00000000
00010000
,
00000000
00000100
00000000
00000001
,
00000000
00000000
00000000
00000010
,
00000000
00000000
00001000
00000000
,
00000000
00000000
10000000
00000000
,
01000000
00000000
00000000
00000000
,
00000000
00001000
00000000
00000010
,
00000000
00010000
00000000
00100000
,
00000000
00010000
00000000
00000000
,
01000000
00000000
10000000
00000000
,
01000000
00000000
00010000
00000000
,
00001000
00000000
00001000
00000000
,
00000010
00000000
00000100
00000000
,
00000001
00000000
00001000
00000000
,
00010000
00000000
00001000
00000000
,
00100000
00000000
10010000
00000000
,
00000000
00000000
01100000
00000000
,
00000000
00000000
00000000
00000000
,
00010000
00000000
00000000
00000000
,
00000100
00000000
00001000
00000000
,
00000000
00000000
00001000
00000000
,
00010000
00000000
00000000
00000000
,
00010000
00000000
00000000
00000000
,
01000000
00000000
00001000
00000000
,
00000000
00000100
00000000
00000000
,
00000001
00000000
00000000
00000000
,
00000000
00010000
00000000
00000000
,
01000000
00000000
00000000
00000000
;

//---------------dance-double - ----------------
#NOTES:
     dance-double:
     :
     Easy:
     4:
     :
00000000
00000000
00000000
00000000
,
00000000
00000000
00000000
00000000
,
00000000
00000000
00000000
00000000
,
00000000
00000000
00000000
00000000
,
00000000
00000000
00000000
00000000
,
00010000
00010000
00100000
00100000
,
01000000
01000000
10000000
00010000
,
01000000
01000000
00001000
00001000
,
00010000
00010000
00000010
00001000
,
00000100
00000100
00000010
00000010
,
00000100
00000100
00001000
00000010
,
00010000
00010000
00001000
00001000
,
01000000
00010000
00100000
01000000
,
00000000
10000000
00000000
00000000
00000000
10000000
00000000
00000000
,
00000000
00010000
00000000
00000000
00000000
00100000
00000000
00000000
,
00000000
00001000
00000000
00000000
00000000
00001000
00000000
00000000
,
00000000
00010000
00000000
00000000
00000000
00000010
00000000
00000000
,
00001001
00000001
00000100
00000100
,
00000001
00000001
00001000
00000100
,
00010000
00010000
00001000
00001000
,
00100000
00100000
00010000
10000000
,
10010000
00010000
01000000
01000000
,
00001000
00001000
01000000
00001000
,
00010000
00000010
00000010
00010000
,
00001000
00001000
00010000
00001000
,
00100000
00100000
00100000
00100000
,
00001000
00001000
00001000
00001000
,
00010000
00010000
00010000
00010000
,
00000010
00001000
00000010
00001000
,
00000001
00000001
00002000
00003100
,
00010000
00010000
00002000
00103000
,
01000000
01000000
20000000
30010000
,
00100000
00100000
00002000
00013000
,
00011000
00000000
00000110
00000000
,
00001001
00000001
00001000
00000010
,
00020000
00000000
00030000
00001000
,
01000000
00100000
00100000
10000000
,
00200000
00000000
00300000
01000000
,
00010000
01000000
00001000
00010000
,
00002000
00000000
00003000
00010000
,
00000010
00000100
00000001
00000001
,
00000200
00000000
00000300
00000010
,
00020000
00000000
00031000
02000000
,
00000000
03010000
00000000
00000000
10000000
00000000
00010000
00000000
,
01000000
00000000
00002000
00000000
00000000
00013000
00000000
00000200
,
00000000
00001300
00000001
00000010
,
00000100
00010000
00001000
00200000
,
00310000
00010000
00200000
00000000
,
01300000
01000000
10000000
00020000
,
01030000
00001000
00020000
00000000
,
00031000
00001000
00001000
00020000
,
00030010
00000010
00000200
00000000
,
00000301
00000001
00001000
00000200
,
00010300
00010000
00002000
00000000
,
00103000
00000000
00010000
00000000
10010000
00000000
00000000
10010000
,
00000000
10010000
00000000
00000000
02200000
00000000
00000000
00000000
,
03300000
00000000
00000000
00000000
00000000
01100000
00000000
00000000
00000000
00000000
00002000
00000000
00000000
00000000
00000000
00000000
,
00010000
00000000
00000000
00013000
00000000
00010000
00000000
00000000
,
00000200
00000000
00000000
00000000
00001300
00000000
00000000
00000001
,
00000000
00001000
00000000
00000000
00001000
00000000
00000100
00000000
,
00010000
00000000
00000000
00000000
00000000
00001000
00000000
00000000
00000000
00000000
01000000
00000000
00000000
00000000
00000000
00000000
,
00010000
00000000
00000000
00000000
10000000
00000000
00000000
00000000
00000000
00010000
00000000
00000000
00000000
00000000
00000000
00000000
,
01000000
00000000
00000000
00001000
00000000
00000000
00000000
00000000
00002000
00000000
00000000
00003000
00000000
00000000
00020000
00000000
,
00000000
00030000
00000000
00000000
00000200
00000000
00000000
00000300
00000000
00000000
00002000
00000000
00000000
00003000
00000000
00000000
,
00000002
00000000
00000000
00000003
00000000
00000000
00000200
00000000
00000000
00000000
00000000
00000000
00000300
00000000
00000020
00000000
,
00000000
00000030
00000000
00000000
00020000
00000000
00000000
00030000
00000000
00000000
00002000
00000000
00000000
00003000
00000000
00000000
,
02000000
00000000
00000000
03000000
00000000
00000000
00020000
00000000
00000000
00000000
00000000
00000000
00000000
00000000
00000000
00000000
,
00000000
00000000
00000000
10030000
00000000
00000000
00000000
00000000
;

//---------------dance-double - ----------------
#NOTES:
     dance-double:
     :
     Medium:
     7:
     :
00000000
00000000
00000000
00000000
,
00000000
00000000
00000000
00000000
,
00000000
00000000
00000000
00000000
,
00000000
00000000
00000000
00000000
,
00000000
00000000
00000000
00000000
,
00000001
00000000
00000001
00000100
00000101
00000000
00001010
00000000
,
00000001
00000000
00000001
00001000
00001010
00000000
00020000
00000000
,
00031000
00000000
00100000
01000000
01100000
00000000
11000000
00000000
,
00010000
00000000
00010000
00100000
01000000
00100000
00020000
00000000
,
01030000
00000000
00001000
00010000
00011000
00000000
00001100
00000000
,
00000100
00000000
00000100
00001000
00001001
00000000
00000020
00000000
,
00000130
00000000
00000100
00000100
00000110
00000000
00001010
00000000
,
00010000
00001000
00010000
00001000
00100000
00001000
01000000
00010000
,
00010000
00010000
00200000
00300000
00010000
00010000
00200000
00300000
,
00010000
00010000
01000000
01000000
00001000
00010000
00010000
00000000
,
00000100
00000100
00000020
00000030
00000001
00000001
00000200
00000300
,
00000001
00000001
00000100
00000100
00000001
00001000
00000100
00000000
,
00001100
00000000
00011000
00000000
01000000
00010000
01000000
00000000
,
01010000
00000000
10100000
00000000
00100000
10000000
00100000
00000000
,
10000000
00010000
00100000
00100000
00002000
00010000
00003000
00010000
,
00000100
00000200
00000000
00000310
00000000
00000010
00000010
00000000
,
00000110
00000000
00001001
00000000
00000001
00001000
00000001
00000000
,
00000101
00000000
00001010
00000000
00000010
00010000
00001000
00000000
,
00100000
00010000
10000000
10000000
01000000
00100000
00000000
00100000
,
00010000
00010000
00000000
00100000
00000000
00100000
00100000
00000000
,
01000000
00100000
00001000
00001000
00010000
00010000
00001000
00001000
,
00010000
00000000
00000100
00000100
00001000
00001000
00000100
00000000
,
00000010
00000010
00000001
00000001
00000010
00000010
00000001
00000001
,
00002000
00003200
00020300
00031000
,
01010000
10100000
20000000
30100000
,
10100000
01010000
02000000
03010000
,
01010000
00011000
00000020
00001030
,
00001001
00000110
00000002
00001003
,
00000002
00001003
00000110
00000110
,
00000100
00000000
00000000
00001000
00000100
00000000
00000000
00000000
00010000
00000000
00000000
00001000
00010000
00000000
00000000
00000000
,
00002000
00010000
00013000
00010000
,
00001000
00000000
00000000
00100000
00001000
00000000
00000000
00000000
00100000
00000000
00000000
01000000
10000000
00000000
00000000
00000000
,
00200000
01000000
01300000
01000000
,
00010000
00000000
00000000
01000000
00001000
00000000
00000000
00000000
00010000
00000000
00000000
00001000
00100000
00000000
00000000
00000000
,
00002000
00010000
00013000
00010000
,
00000100
00000000
00000000
00000100
00000010
00000000
00000000
00000000
00000100
00000000
00000000
00000100
00001000
00000000
00000000
00000000
,
00000200
00010000
00010300
00010000
,
00002000
00000000
00000000
00100000
00103000
00000000
02000000
00000000
,
10000000
13000000
00000000
00000000
01010000
00000000
10100000
00000000
,
10000000
00000000
00020000
00000000
01000000
01030000
00000000
00002000
,
00000000
00013000
00000100
00000100
,
00000110
00000000
00001001
00000000
00001000
00000001
00001000
00000002
,
00001003
00000100
00001000
00000000
00000020
00000000
00000000
00000030
,
00010000
00001000
00010000
00000000
00001000
00010000
00001000
02000000
,
03010000
01000000
00010000
00000000
00200000
00000000
00000000
00300000
,
01000000
10000000
01000000
00000000
00100000
00010000
00100000
00002000
,
00013000
00001000
00010000
00000000
00000200
00000000
00000000
00000300
,
00001000
00000001
00001000
00000000
00000010
00000100
00000010
00000200
,
00000310
00001000
00000010
00000000
00020000
00000000
00000000
00030000
,
00001000
01000000
00010000
00000000
10010000
00000000
00000000
01010000
,
00000000
10100000
00000000
00000000
02200000
00000000
00000000
00000000
,
03300000
00000000
00000000
00000000
00000000
01100000
00000000
00000000
00000000
00000000
00020000
00000000
00000000
00000000
00030000
00000000
,
01000000
00002000
00000000
00013000
00000000
00000100
00000000
00000000
,
00000010
00000000
00000000
00000010
00000000
00000000
00000010
00000000
00000200
00000000
00000000
00000000
00001300
00000000
00000001
00000000
,
00000000
00000000
00000001
00000000
00000000
00000000
00000000
00000000
00001000
00000000
00000000
00001000
00000000
00000000
00001000
00000000
,
00000010
00000000
00000000
00010000
00000000
00001000
01000000
00010000
,
00000000
00000000
00000000
10000000
00000000
00000000
10000000
00000000
00000000
00000000
00010000
00000000
00000000
00000000
00000000
00000000
,
00100000
00000000
00000000
00010000
00000000
00000000
01000000
00000000
00001000
00000000
00000000
00010000
00000000
00000000
00000100
00000000
,
00000000
00000100
00000000
00000000
00001000
00000000
00000000
00001000
00000000
00000000
00000001
00000000
00000000
00000010
00000000
00000000
,
00000001
00000000
00000000
00000010
00000000
00000000
00000100
00000000
00001000
00000000
00000000
00000000
00001000
00000000
00000100
00000000
,
00000000
00000100
00000000
00000000
00010000
00000000
00000000
00001000
00000000
00000000
00010000
00000000
00000000
00001000
00000000
00000000
,
00100000
00000000
00000000
00100000
00000000
00000000
02000000
00000000
00000000
00000000
00000000
00000000
00000000
00000000
00000000
00000000
,
00000000
00000000
00000000
13000000
00000000
00000000
00000000
00000000
;

//---------------dance-double - ----------------
#NOTES:
     dance-double:
     :
     Hard:
     9:
     :
00000000
00000000
00000000
00000000
,
00000000
00000000
00000000
00000000
,
00000000
00000000
00000000
00000000
,
00000000
00000000
00000000
00000000
,
00000000
00000000
00000000
00000000
,
10000000
00000000
00000000
00010000
10000000
00000000
01000000
00000000
11000000
00000000
00000000
00000000
00110000
00000000
00000000
00000000
,
10000000
00000000
00000000
00010000
10000000
00000000
00010000
00000000
00110000
00000000
00000000
00000000
00021000
00000000
00000000
00000000
,
00030100
00000000
00000000
00001000
00000001
00000000
00000100
00000000
00000101
00000000
00000000
00000000
00001010
00000000
00000000
00000000
,
00001000
00000000
00000000
00000010
00001000
00000000
00000010
00000000
00000100
00000000
00000010
00000000
00020000
00000000
00000000
00000000
,
00031000
00000000
00000000
01000000
00010000
00000000
00100000
00000000
00110000
00000000
00000000
00000000
10010000
00000000
00000000
00000000
,
01000000
00000000
00000000
00100000
01000000
00000000
10000000
00000000
10010000
00000000
00000000
00000000
00200000
00000000
00000000
00000000
,
00301000
00000000
00000000
00010000
00000100
00000000
00001000
00000000
00001100
00000000
00000000
00000000
00000011
00000000
00000000
00000000
,
00001000
00000000
00000000
00000001
00002000
00000000
00003002
00000000
00000013
00000000
00000000
00000001
00000100
00000000
00000010
00000000
,
00010000
00000000
00001000
00010000
00002000
00000000
00003000
00000000
01000000
00000000
00010000
10000000
00200000
00000000
00300000
00000000
,
10000000
00000000
00010000
10000000
00100000
00000000
01000000
00000000
00010000
00000000
10000000
00010000
00100000
00000000
00000000
00000000
,
00001000
00000000
00010000
00001000
00020000
00000000
00030000
00000000
00000010
00000000
00001000
00000010
00000200
00000000
00000300
00000000
,
00000001
00000000
00001000
00000001
00000100
00000000
00000010
00000000
00001000
00000000
00000001
00001000
00000100
00000000
00000000
00000000
,
00001100
00000000
00000000
00000000
00000011
00000000
00000000
00000000
00000110
00000000
00000000
00000001
00000000
00000000
00000001
00000000
,
00000011
00000000
00000000
00000000
00001100
00000000
00000000
00000000
00011000
00000000
00000000
01000000
00100000
00000000
00000000
00000000
,
10000000
00000000
01000000
00000000
10000000
00000000
00000000
10000000
00010000
00000000
00100000
00000000
00010000
00000000
00000000
00100000
,
00010000
00000000
00020000
00000000
00000000
00000000
10030000
00000000
01000000
00000000
00000000
00100000
01000000
00000000
00000000
00000000
,
01100000
00000000
00000000
00000000
10010000
00000000
00000000
00000000
00110000
00000000
00000000
00001000
00000000
00000000
00010000
00000000
,
00011000
00000000
00000000
00000000
00001100
00000000
00000000
00000000
00001001
00000000
00000000
00000010
00000100
00000000
00000000
00000000
,
00000001
00000000
00000010
00000000
00000001
00000000
00000000
00001000
00000001
00000000
00000100
00000000
00000001
00000000
00000000
00000100
,
00000001
00000000
00000002
00000000
00000000
00000000
00001003
00000000
00000010
00000000
00000000
00001000
00000010
00000000
00000000
00000000
,
00010000
00000000
00000000
00002000
00013000
00000000
00000000
00000000
00001000
00000000
00000000
02000000
03010000
00000000
00000000
00000000
,
10000000
00000000
00000000
02000000
13000000
00000000
00000000
00000000
00010000
00000000
00000000
02000000
03010000
00000000
00000000
00000000
,
00100000
00000000
00000000
00020000
00130000
00000000
00000000
00000000
00001000
00000000
00000000
00020000
00031000
00000000
00000000
00000000
,
00010000
00000100
00001000
00000100
00001000
00000010
00000100
00000000
,
00000001
00000000
00000001
00000000
00001000
00000000
00001000
00000000
00000001
00000000
00000000
00000001
00000010
00000000
00000010
00000000
,
00000100
00000000
00000100
00000000
00010000
00000000
00010000
00000000
00001000
00000000
00000000
01000000
00010000
00000000
00010000
00000000
,
10010000
00000000
00000000
00000000
01100000
00000000
00000000
00000000
00100000
00000000
00000000
10000000
00010000
00000000
00010000
00000000
,
10010000
00000000
00000000
00000000
01100000
00000000
00000000
00000000
01000000
00000000
00000000
00010000
00000000
00000000
01000000
00000000
,
00002000
00013000
00011000
00011000
,
00000010
00000000
00000000
00001000
00000010
00000000
00000100
00000000
00000001
00000000
00000000
00000100
00000010
00000000
00001000
00000000
,
00000001
00000000
00001000
00000010
00001000
00000001
00001000
00000000
,
00000010
00000000
00000000
00000010
00010000
00000000
00001000
00000000
00010000
00000000
00000000
00001000
01000000
00000000
00100000
00000000
,
01000000
00000000
00010000
10000000
00010000
10000000
01000000
00000000
,
00100000
00000000
00000000
00010000
10000000
00000000
01000000
00000000
10000000
00000000
00000000
00100000
01000000
00000000
00010000
00000000
,
01000000
00000000
00010000
01000000
00001000
00010000
00001000
00000000
,
00010000
00000000
00000000
00000010
00001000
00000000
00000001
00000000
00001000
00000000
00000000
00001000
00000010
00000000
00000100
00000000
,
00000010
00000000
00001000
00000010
00001000
00000001
00001000
00000000
,
00000020
00000000
00000000
00010000
00010030
00000000
00022000
00033000
,
00010000
00001000
00000000
00000000
00110000
00000000
11000000
00000000
,
00010000
00000000
20020000
30030000
01000000
00100000
00000000
20000000
,
00000000
00000000
00000000
00000000
31000000
00000000
00000000
00000000
10000000
00000000
00000000
01000000
10000000
00000000
00000000
00000000
,
11000000
00000000
00000000
00000000
00110000
00000000
00000000
00000000
00001000
00000000
00000000
00010000
00001000
00000000
00020000
00000000
,
00030100
00000000
00000000
00001000
00000100
00000000
00000010
00000000
00000002
00000000
00000000
00000000
00000000
00000000
00000003
00000000
,
00000100
00000000
00000000
00000001
00000100
00000000
00000000
00000000
00000001
00000000
00000000
00001000
00000001
00000000
00002000
00000000
,
00003001
00000000
00000000
00000100
00000010
00000000
00001000
00000000
00000200
00000000
00000000
00000000
00000000
00000000
00000300
00000000
,
00010000
00000000
00000000
00001000
00010000
00000000
00000000
00000000
00001000
00000000
00000000
00100000
00010000
00000000
00200000
00000000
,
01300000
00000000
00000000
10000000
01000000
00000000
10000000
00000000
00020000
00000000
00000000
00000000
00000000
00000000
00030000
00000000
,
10000000
00000000
00000000
01000000
10000000
00000000
00000000
00000000
00100000
00000000
00000000
01000000
00100000
00000000
02000000
00000000
,
03001000
00000000
00000000
00010000
00001000
00000000
00010000
00000000
00000020
00000000
00000000
00000000
00000000
00000000
00000030
00000000
,
00001000
00000000
00000000
00000001
00001000
00000000
00000000
00000000
00001001
00000000
00000000
00000000
00000000
00000000
00000011
00000000
,
00000000
00000000
00001100
00000000
00000000
00000000
00000000
00000000
00001100
00000000
00000000
00001010
00000000
00000000
00011000
00000000
,
00011000
00000000
00000000
00000000
00000000
00110000
00000000
00000000
00000000
00000000
20000000
00000000
00000000
00000000
30000000
00000000
,
00010000
00000000
00000000
01000000
00000000
00000000
00010000
00000000
00000000
00000000
01000000
00000000
00000000
00000000
00000000
00000000
,
01000000
00000000
00000000
01000000
00000000
00000000
01000000
00000000
00002000
00000000
00000000
00000000
00003000
00000000
01000000
00000000
,
00000000
00000000
00011000
00000000
00000000
00000000
00000000
00000000
00010000
00000000
00000000
00010000
00000000
00000000
00010000
00000000
,
00000010
00000000
00000000
00000000
00000000
00000000
00001000
00000000
00000000
00000000
00000010
00000000
00000100
00000001
00001000
00000000
,
00000000
00000000
00000000
00000010
00000000
00000000
00000100
00000000
00000000
00000000
00000010
00000000
00000000
00000000
00000000
00000000
,
00001000
00000000
00000000
00000000
00000000
00000000
00000100
00000000
00000000
00000000
00000000
00000000
00010000
00000000
00000000
00000000
00001000
00000000
00000000
00010000
00000000
00000000
00001000
00000000
00000000
00000000
00000000
00000000
01000000
00000000
00000000
00100000
,
00000000
00000000
01000000
00000000
00000000
00000000
00000000
00000000
00010000
00000000
00000000
10000000
00000000
00000000
00010000
00000000
00000000
00000000
00000000
00000000
10000000
00000000
00000000
00100000
00000000
00000000
10000000
00000000
00000000
00000000
00000000
00000000
,
01000000
00000000
00000000
00100000
00000000
00000000
01000000
00000000
00000000
00000000
00000000
00000000
00200000
00000000
00000000
00000000
00000000
00000000
00000000
00000000
00000000
00000000
00000000
00000000
00300000
00000000
00000000
00000000
00001000
00000000
00000000
00010000
,
00000000
00000000
00000100
00000000
00000000
00000000
00000000
00000000
00001000
00000000
00000000
00000100
00000000
00000000
00001000
00000000
00000000
00000000
00000000
00000000
00000001
00000000
00000000
00000100
00000000
00000000
00000001
00000000
00000000
00000000
00000000
00000000
,
00000010
00000000
00000000
00000100
00000000
00000000
00000010
00000000
00000000
00000000
00000000
00000000
00000200
00000000
00000000
00000000
00000000
00000000
00000000
00000000
00000000
00000000
00000000
00000000
00000000
00000000
00000000
00000000
00000000
00000000
00000000
00000000
,
00000000
00000000
00000000
00001300
00000000
00000000
00000000
00000000
;
