#TITLE:Keep Ya Body Movin';
#ARTIST:Thuggie D.;
#BANNER:Keep Ya Body Movin'.png;
#BACKGROUND:Keep Ya Body Movin'-bg.png;
#CDTITLE:./CDTITLES/DANCE DANCE REVOLUTION ULTRAMIX.png;
#MUSIC:Keep Ya Body Movin'.ogg;
#SAMPLESTART:37.87;
#SAMPLELENGTH:15;
#DISPLAYBPM:95;
#BPMS:0=94.737,4=94.993;

//---------------dance-single - ----------------
#NOTES:
     dance-single:
     :
     Beginner:
     1:
     :
0000
0000
0000
0000
,
0000
0000
0000
0000
,
0000
0000
0000
0000
,
0000
1000
0000
0001
,
0000
0100
0000
0010
,
0000
0100
0000
0001
,
0000
0010
0000
1001
,
0000
1000
0000
1000
,
0000
0010
0000
0100
,
0000
1000
0000
0000
,
0001
0000
1000
1000
,
0000
0010
0000
0001
,
0000
0100
0000
0001
,
0000
0100
0000
0010
,
0000
1000
0000
1001
,
0000
0100
0000
0010
,
0000
1000
0000
1000
,
0000
0001
0000
0001
,
0000
0010
0000
0110
,
0000
0001
0000
1000
,
0000
0010
0000
0010
,
0000
0100
0000
0001
,
0000
0010
0000
0110
,
0000
0001
0000
0001
,
0000
0010
0000
0001
,
0000
0010
0000
0001
,
0000
0000
0000
0000
,
0000
1000
0000
0100
,
0000
1000
0000
0001
,
0000
0001
0000
0100
,
0000
0001
0000
1000
,
1000
0000
0000
1000
,
0000
0010
0000
0001
,
0000
1000
1000
0000
,
0000
0010
0000
0110
,
0000
0001
0000
0100
,
0000
0010
0000
1000
,
0000
0001
0000
0001
,
0000
0010
0000
1000
,
1000
0000
0001
0000
;

//---------------dance-single - ----------------
#NOTES:
     dance-single:
     :
     Easy:
     2:
     :
0000
0000
0000
0000
,
0000
0000
0000
0000
,
0000
0000
0000
0000
,
0000
1000
0000
0001
,
0000
0100
0000
0010
,
0000
0100
1000
0001
,
0000
0010
0100
1001
,
0000
1000
0000
1000
,
0000
0010
0000
0100
,
0000
1000
0001
0000
,
0001
0000
1000
1000
,
0100
0010
0000
0001
,
0000
0100
0000
0001
,
0000
0100
0000
0010
,
0000
1000
0000
1001
,
0000
0100
0000
0010
,
0000
1000
0000
1000
,
0000
0001
1000
0001
,
0000
0010
0100
0110
,
0000
0001
0000
1000
,
0000
0010
0000
0010
,
0000
0100
1000
0001
,
0000
0010
0100
0110
,
0000
0001
1000
0001
,
1000
0010
0100
0001
,
1000
0010
0100
0001
,
2000
0000
0000
3000
,
0000
1000
0000
0100
,
0000
1000
0000
0001
,
0000
0001
0000
0100
,
0000
0001
1000
1000
,
1000
0020
0000
1030
,
0001
0020
0000
0031
,
0000
1000
1000
0001
,
0000
0010
0100
0110
,
0000
0002
0000
0103
,
0000
0020
0000
1030
,
0000
0001
1000
0001
,
0000
0010
0100
1000
,
1000
0001
0001
0000
;

//---------------dance-single - ----------------
#NOTES:
     dance-single:
     :
     Medium:
     3:
     :
0000
0000
0000
0000
,
0000
0000
0000
0000
,
0000
0000
0000
0000
,
1000
0001
0001
1000
,
0100
0010
0010
0100
,
0100
1000
1000
0001
,
0010
0010
0100
0100
,
2000
0001
3001
0000
,
0010
0001
0010
0001
,
0100
0001
1000
0001
,
0000
0110
0000
1001
,
0010
1000
0001
0010
,
0100
1000
0001
0100
,
0000
0100
0000
0010
,
0000
2002
3003
0110
,
0001
0001
1000
1000
,
0010
0100
0010
0010
,
0000
0100
1000
0001
,
0010
0010
0100
0100
,
0001
0001
1000
1000
,
0010
0100
0010
0010
,
0000
0100
1000
0001
,
0010
0010
0100
0100
,
0001
2000
0001
3001
,
1000
0002
1000
1003
,
0010
0100
0001
0001
,
0000
0100
0010
1000
,
1001
0010
0110
1000
,
0000
0110
0010
1000
,
1001
0010
0110
1000
,
0000
0110
1001
1001
,
0001
0010
0001
0001
,
0010
0010
0100
0010
,
0000
1000
2000
3001
,
0010
0010
0100
0100
,
0001
0010
0100
0100
,
1000
1000
0010
0100
,
0002
1003
1000
0001
,
0010
0010
0100
0100
,
0110
1001
1001
0000
;

//---------------dance-single - ----------------
#NOTES:
     dance-single:
     :
     Hard:
     5:
     :
0000
0000
0000
0000
,
0000
0000
0000
0000
,
0000
0000
0000
0000
,
1000
0000
1001
0000
1000
0000
0001
1000
,
0100
0000
0010
0001
0010
0000
0100
0000
,
0100
0000
1000
0000
1000
0001
0001
0000
,
0001
0000
0010
0001
0100
0000
0100
0000
,
2000
0010
0001
0000
3001
0000
1001
0001
,
0010
0000
0001
0000
0010
0000
0001
1000
,
0100
1000
0001
1001
,
0110
0000
0001
1000
0001
0000
1000
0000
,
0010
0000
1000
0001
1000
0000
0010
1000
,
0100
0000
0010
0110
0001
0000
0100
0001
,
0100
0000
0001
0000
0010
0000
0100
1000
,
0001
0000
0000
0000
0110
0001
1000
0000
,
0001
0100
0001
0000
1000
0100
1000
0000
,
0010
1000
0100
0000
0010
0001
0010
0000
,
0000
0000
0002
0000
1003
1000
0001
1000
,
0010
0000
0010
1000
0100
0000
0100
0000
,
1000
0100
1000
0000
0001
0100
0001
0000
,
0010
1001
0100
0000
0010
0001
0010
0000
,
0002
0000
0003
0000
1000
1000
0001
1000
,
0010
0000
0010
1000
0100
0000
0100
0000
,
1000
0010
1000
0000
0001
1000
0001
0000
,
0100
0010
1000
0000
0001
0010
0001
0000
,
0010
0000
0100
0000
1000
0001
0010
0000
,
0200
0000
0000
0000
1000
0000
0310
0001
,
0010
0001
0010
0000
1001
0001
1000
0000
,
0110
0000
1000
0000
0010
0000
1000
0010
,
1001
0000
0010
1000
0110
0000
0001
1000
,
0110
0000
1001
1001
,
0001
0100
0001
0000
1000
0100
1000
0000
,
0010
1000
0100
0000
0010
0001
0010
0000
,
1001
0000
0000
0000
1000
1000
0001
0000
,
0001
0000
0010
0001
0100
0000
0100
0000
,
0001
0100
0001
0000
1000
0100
1000
0000
,
0010
1000
0100
0000
0010
0001
0010
0000
,
1001
0000
0000
0000
1000
1000
0001
0000
,
0001
0000
0010
0001
0100
0000
0100
0000
,
0110
0000
0000
0001
1001
0000
0000
0000
;

//---------------dance-double - ----------------
#NOTES:
     dance-double:
     :
     Easy:
     2:
     :
00000000
00000000
00000000
00000000
,
00000000
00000000
00000000
00000000
,
00000000
00000000
00000000
00000000
,
10000000
00000000
00010000
00000000
,
01000000
00000000
00001000
00000000
,
00010000
00000000
00001000
00000001
,
00000000
00000010
00000100
00000000
,
00000010
00000000
00010000
00000000
,
00001000
00000000
00100000
00000000
,
01000000
10000000
00010000
00000000
,
01000000
00000000
00001000
00000000
,
00010000
00000000
00000010
00000000
,
00000100
00000000
00000001
00000000
,
00000100
00000000
00000010
00000000
,
00010000
00000000
00001000
00000000
,
00100000
00000000
01000000
00000000
,
00100000
00000000
00001000
00000000
,
00010000
00000000
00001000
00000001
,
00000000
00000010
00000100
00000000
,
00000001
00000000
00001000
00000000
,
00000100
00000000
00010000
00000000
,
00001000
00000000
00010000
00001000
,
00000000
00100000
01000000
00000000
,
00000000
00000000
00000010
00001000
,
00000000
00000100
00010000
00001000
,
00100000
00000000
00010000
00010000
,
02000000
00000000
00100000
03001000
,
00010000
00000000
00000100
00000000
,
00001000
00000000
00000001
00000000
,
00000100
00000000
00000010
00000000
,
00010000
00000000
00001000
01000000
,
00020000
00000000
10000000
00030000
,
02000000
00000000
00100000
03000000
,
00001000
00000000
00010000
00000100
,
00000000
00000010
00000100
00000000
,
00020000
00000000
00031000
00000000
,
02000000
00000000
03010000
00000000
,
10000000
00000000
10000000
00010000
,
10000000
00100000
01000000
01000000
,
00010000
10000000
01000000
00000000
;

//---------------dance-double - ----------------
#NOTES:
     dance-double:
     :
     Medium:
     4:
     :
00000000
00000000
00000000
00000000
,
00000000
00000000
00000000
00000000
,
00000000
00000000
00000000
00000000
,
10000000
00010000
00010000
10000000
,
01000000
00100000
00100000
00001000
,
00010000
00000010
00001000
00000001
,
00000010
00000010
00000100
00010000
,
00002000
00010000
00013000
00000000
,
00100000
00010000
10000000
00100000
,
01000000
00001000
00010000
00000100
,
00000000
00001100
00000000
00001001
,
00000010
00001000
00000001
00000010
,
00000100
00010000
00001000
01000000
,
00000000
00010000
00000000
00100000
,
00000000
20020000
30030000
01000000
,
00001000
00000000
00010000
00011000
,
00000010
00000100
00000010
00000010
,
00000000
00001000
00001000
00000001
,
00000001
00000010
00000100
00010000
,
00001000
00100000
01000000
10000000
,
00100000
01000000
00100000
00100000
,
00000000
10000000
20000000
30010000
,
00100000
00100000
01000000
01000000
,
10000000
00020000
01000000
01030000
,
00001000
00020000
00031000
01000000
,
00010000
00100000
00001000
00010000
,
00000000
00000010
00001000
00001001
,
00000101
00000010
00000110
00001000
,
00000100
00011000
00100000
01000000
,
10010000
00100000
01100000
10000000
,
00000000
01100000
01000000
00001000
,
00010000
00000010
00001000
00001001
,
00000010
00000010
00010000
00001000
,
00100000
00010000
10000000
00010000
,
00100000
00100000
01000000
01000000
,
10000000
00100000
01000000
01000000
,
00010000
00010000
00100000
00001000
,
00020000
00030000
00010000
00000100
,
00000010
00000010
00000100
00000100
,
00010000
00001000
00011000
00000000
;

//---------------dance-double - ----------------
#NOTES:
     dance-double:
     :
     Hard:
     6:
     :
00000000
00000000
00000000
00000000
,
00000000
00000000
00000000
00000000
,
00000000
00000000
00000000
00000000
,
10000000
00000000
10010000
00000000
00010000
00000000
10000000
00010000
,
01000000
00000000
00100000
01000000
00100000
00000000
01000000
00001000
,
00010000
00000000
00000010
00000000
00001000
00001000
00000001
00000000
,
00000001
00000001
00000010
00000001
00000100
00000000
00000100
00000000
,
00000020
00000100
00000100
00000000
00001030
00000000
00001000
00000100
,
00010000
00000000
00001000
00000000
00100000
00000000
00010000
10000000
,
01000000
00100000
00001000
00011000
,
00001100
00000000
00000001
00001000
00000001
00000000
00001000
00000000
,
00000100
00000000
00001000
00000001
00001000
00000000
00000010
00000100
,
00000010
00000000
00010000
00001000
00100000
00000000
01000000
10000000
,
01000000
00000000
00100000
00000000
00010000
00000000
01000000
00010000
,
10000000
00000000
00000000
00000000
01100000
01000000
00100000
00000000
,
00001000
00010000
00001000
00000000
00100000
00010000
00100000
00000000
,
00001000
00010000
00001000
00000000
01000000
00010000
01000000
00000000
,
00022000
00000000
00030000
00000000
00013000
00001000
00001000
00000000
,
00100000
00000000
00100000
00010000
02000000
00000000
03000000
00000000
,
00000000
00010000
10000000
00000000
10000000
01000000
10000000
00000000
,
00100000
10000000
00010000
00000000
00100000
00001000
00010000
00000000
,
00022000
00000000
00030000
00000000
00013000
00010000
00001000
00000000
,
00010000
00000000
00000010
00001000
00000200
00000000
00000300
00000000
,
00001000
00000010
00001000
00000000
00000100
00001000
00000100
00000000
,
00010000
00001000
00010000
00000000
00000100
00001000
00000100
00000000
,
00010000
00000000
00001000
00000000
00100000
00010000
10000000
00000000
,
02000000
00000000
00100000
00000000
10000000
00000000
03100000
00010000
,
10000000
01000000
00100000
00000000
00001000
00010000
00001000
00000000
,
00011000
00000000
00100000
00000000
00010000
00000000
01000000
00100000
,
01000000
00000000
00010000
10000000
01000000
00000000
10000000
00010000
,
01000000
00000000
00001000
00010000
,
00000010
00000100
00000001
00000000
00001000
00000100
00001000
00000000
,
00000010
00001010
00001000
00000000
00000010
00001000
00000001
00000000
,
00001001
00000000
00000000
00000000
00001000
00001000
00000001
00001000
,
00000010
00000000
00000010
00001000
00000200
00000000
00000300
00000000
,
00010000
00001000
01000000
00000000
00010000
01000000
00001000
00000000
,
00010000
00001000
00010000
00000000
00000010
00001000
00000010
00000000
,
00001001
00000000
00000000
00000000
00001000
00001000
00000001
00000000
,
00001000
00000000
00000010
00001000
00000200
00000000
00000300
00000000
,
00001000
00000100
00011000
00000000
;
