#TITLE:KEEP ON MOVIN' (DMX Mix);
#ARTIST:N.M.R-typeG;
#BANNER:KEEP ON MOVIN' (DMX Mix).png;
#BACKGROUND:KEEP ON MOVIN' (DMX Mix)-bg.png;
#CDTITLE:./CDTITLES/DanceManiaX.PNG;
#MUSIC:KEEP ON MOVIN' (DMX Mix).ogg;
#SAMPLESTART:30.924;
#SAMPLELENGTH:15;
#BPMS:0=132;
#BGCHANGES:3.75=KEEP ON MOVIN' (DMX Mix).avi=1=1=0=0;

//---------------dance-single - ----------------
#NOTES:
     dance-single:
     :
     Beginner:
     1:
     :
0000
0000
0000
0000
,
0000
0000
0000
0000
,
0000
0000
0000
0000
,
0000
0000
0000
0000
,
0000
0000
0000
0000
,
0000
0000
0000
0000
,
0000
0000
0000
0000
,
0000
0000
0000
0000
,
0000
0000
0000
0000
,
0000
0001
0000
0001
,
0000
0100
0000
0100
,
0000
0001
0000
0001
,
0000
0100
0100
0100
,
0000
1000
0000
1000
,
0000
0100
0000
0100
,
0000
1000
0000
1000
,
0000
0100
0100
0100
,
0000
1000
0000
1000
,
0000
0010
0000
0010
,
0000
1000
0000
1000
,
0000
0010
0010
0010
,
0000
0001
0000
0001
,
0000
0010
0000
0010
,
0000
0001
0000
0001
,
0000
0010
0010
0010
,
0000
0010
0000
1000
,
0000
0001
0001
0001
,
0000
0100
0100
0000
,
1000
1000
1000
0000
,
0000
0010
0000
0001
,
0000
1000
1000
1000
,
0000
0100
0100
0000
,
0001
0001
0001
0000
,
1001
0000
0000
0000
,
0001
0000
0000
0000
,
1001
0000
0000
0000
,
1000
0000
0000
0000
,
0110
0000
0000
0000
,
0100
0000
0000
0000
,
0110
0000
0000
0000
,
0010
0010
0010
0010
,
0000
0001
0000
0001
,
0000
0100
0000
0100
,
0000
0001
0000
0001
,
0000
0100
0100
0100
,
0000
1000
0000
1000
,
0000
0100
0000
0100
,
0000
1000
0000
1000
,
0000
0110
0110
0000
,
1001
0000
0000
0000
;

//---------------dance-single - ----------------
#NOTES:
     dance-single:
     :
     Easy:
     3:
     :
0000
0000
0000
0000
,
0000
0000
0000
0000
,
0000
0000
0000
0000
,
0000
0000
0000
0000
,
0000
0000
0000
0000
,
2000
0000
0000
3000
,
0000
0000
0000
0000
,
0002
0000
0000
0003
,
1000
0001
0100
0010
,
1000
0010
0010
0000
,
0001
0100
0100
0000
,
0100
0001
1000
0000
,
0010
1000
0001
0000
,
0010
0010
1001
0000
,
0100
1000
0010
0000
,
1000
0000
0001
0000
,
1000
0000
1001
0000
,
0100
0100
0100
0000
,
0010
0010
0010
0000
,
0100
0000
0010
0000
,
0100
0001
0010
0100
,
1000
1000
1000
1000
,
0001
0001
0001
0001
,
0010
1001
0000
0000
,
1000
0001
0010
0100
,
0000
1000
0000
1000
,
0010
0010
0010
0010
,
0000
0001
0000
0001
,
0100
0100
0100
0100
,
0010
1000
0001
1000
,
0011
0000
1100
0000
,
0001
0100
0010
0100
,
1001
0000
0110
0000
,
0002
0100
0000
0103
,
2000
0010
0000
3010
,
0200
0001
0010
0310
,
0020
0100
0100
1030
,
0002
0003
2000
3000
,
0010
0100
0010
1000
,
0100
0010
0001
1000
,
0000
1001
0110
1001
,
0100
0100
0001
0001
,
1000
1000
0010
0010
,
0100
0001
1000
0010
,
0100
0001
1000
0010
,
2000
3000
0002
0003
,
0020
0100
0100
0130
,
1000
0110
0000
0000
,
1000
0001
0010
0100
,
2002
0000
0000
0000
,
0000
0000
0000
3003
;

//---------------dance-single - ----------------
#NOTES:
     dance-single:
     :
     Medium:
     5:
     :
0000
0000
0000
0000
,
0000
0000
0000
0000
,
0000
0000
0000
0000
,
0000
0000
0000
0000
,
0000
0000
0000
0000
,
2000
0000
3000
0000
,
0020
0000
0030
0000
,
0002
0000
0003
0000
,
2000
3001
0002
1003
,
0000
0010
0000
0010
,
0000
0100
0000
0100
,
0000
0001
0000
0001
,
0000
1000
0001
1000
,
0100
0100
1000
0100
,
0010
0010
0001
0010
,
0100
1000
0001
0100
,
1000
0000
0001
0000
0100
0010
0100
0010
,
0100
0000
0001
0000
0100
0001
1000
0000
,
0010
0000
0010
0000
0010
1000
0001
0000
,
0100
0100
0010
0010
,
0002
0013
2000
3100
,
0001
0000
0001
0000
0001
0010
0100
0000
,
1000
0000
1000
0000
1000
0010
0100
0000
,
0010
1001
0010
0100
,
1000
0001
0010
0100
,
1000
0001
1000
0000
0010
1000
0100
0000
,
0010
0000
0010
0000
0010
0001
0010
0000
,
0001
1000
0001
0000
0100
0001
0010
0000
,
0100
0000
0100
0000
0100
1000
0100
0000
,
0010
0001
1000
0000
0001
0100
0001
0000
,
1000
0000
1000
0000
0001
1000
0001
0000
,
1000
0001
0100
0000
0010
1000
0100
0000
,
1001
0110
1001
0110
,
0002
0000
0100
0000
0000
0000
1003
1000
,
2000
0000
0010
0000
0000
0000
3010
0010
,
0020
0000
1000
0000
0000
0000
1030
1000
,
0200
0000
1000
0000
0000
0000
0310
0010
,
0100
2000
3001
0110
,
1000
1000
0001
0000
0010
0010
0100
0000
,
0100
0010
0001
1000
,
0000
1001
0110
1001
,
0100
1000
0100
0000
0010
0001
0010
0000
,
0001
1000
0001
0000
0010
0100
0010
0000
,
0100
1000
0001
0010
,
0100
1000
0001
0010
,
0001
1000
0001
0000
1000
0001
1000
0000
,
0010
0100
0010
0000
0100
0010
0100
0000
,
0010
1001
0100
0100
,
1000
0001
0010
0100
,
2002
0000
0000
0000
,
0000
0000
0000
3003
;

//---------------dance-single - ----------------
#NOTES:
     dance-single:
     :
     Hard:
     7:
     :
0000
0000
0000
0000
,
0000
0000
0000
0000
,
0000
0000
0000
0000
,
0000
0000
0000
0000
,
0000
0000
0000
0000
,
0010
2000
0000
0000
3000
0000
0000
0000
,
0020
0000
0030
0000
,
0002
0003
0002
0003
,
1000
1000
0001
0001
,
1000
0010
0100
0010
,
1000
0100
0010
0100
,
0010
0001
1000
0001
,
0010
0000
0001
0000
1000
0001
1000
0000
,
0100
0100
0011
1010
,
0001
0001
1010
1100
,
0100
1000
0001
0100
,
0010
0000
1000
0000
0001
0010
0100
1000
,
0010
0100
0001
0000
0010
1000
0010
0000
,
0001
0100
0001
0100
0010
0100
0001
0000
,
0100
0001
0100
0000
1000
0010
1000
0000
,
0001
1000
0001
1000
0010
0100
0010
0000
,
1000
0001
0101
0000
1000
0001
1010
0000
,
0010
0010
1010
0000
0100
0100
0101
0000
,
0010
0000
1001
0000
0010
0100
0010
0100
,
1000
0001
0010
0100
1001
0000
0110
0000
,
0001
0001
0011
0000
1000
1000
1100
0000
,
0010
0001
0100
0000
0100
0001
0010
0000
,
1000
1000
1010
0000
0001
0001
0101
0000
,
0100
1000
0010
0000
0010
1000
0100
0000
,
1000
0001
0101
0000
1000
0001
1010
0000
,
0100
0001
0101
0000
0010
1000
1010
0000
,
0001
0010
0100
1000
0001
0010
0100
1000
,
0001
1000
0010
0100
0001
1000
0010
0100
,
0002
0000
0200
0000
0303
0000
0000
0001
,
1001
0000
0020
0000
0130
0000
0001
1000
,
1001
0000
2000
0000
3001
0000
0010
0010
,
2010
0000
0100
0000
3001
0000
1000
1000
,
1020
0000
1000
0000
0130
0000
1001
0001
,
0001
1010
0101
0110
,
0100
0010
1000
0001
,
0000
1000
1001
0000
1001
0000
1001
0000
,
0100
0000
0100
0000
0001
1000
0001
0000
,
1000
0010
0000
0100
0000
0001
1000
0000
0010
0000
0100
0000
0001
1000
0000
0010
,
0000
1001
0010
0100
,
0100
1000
1100
0000
0010
0001
0011
0000
,
1000
0001
1000
0000
0001
1000
0001
0000
,
1000
0010
0000
0100
0000
0001
1000
0000
0010
0000
0100
0000
0001
1000
0000
0010
,
0000
1001
0000
0110
,
0010
1000
0001
0000
0010
0001
0100
0001
,
2002
0000
0000
0000
,
0000
0000
0000
3003
;

//---------------dance-single - ----------------
#NOTES:
     dance-single:
     :
     Challenge:
     8:
     :
0000
0000
0000
0000
,
0000
0000
0000
0000
,
0000
0000
0000
0000
,
0000
0000
0000
0000
,
0000
0000
0000
0000
,
2000
0002
3003
0000
0010
0000
0110
0000
,
0001
1000
0100
0110
,
0001
0010
1100
0000
1000
0100
0011
0000
,
0010
0010
1000
1000
0001
0001
0110
0000
,
0010
0000
1000
0000
0100
0000
0010
0000
0001
0000
0010
0000
0001
1000
0000
0000
,
0020
1000
0230
0010
,
0302
0100
2003
0001
,
3020
1000
0030
0110
,
1100
0110
0011
1001
,
1000
0001
0010
0100
1000
0010
0100
0001
,
0100
0001
0101
0000
0010
1000
1010
0000
,
0001
1001
1000
0000
0100
0110
0010
0000
,
1010
0000
0010
0000
1000
0000
0001
0000
0100
0000
0001
0000
0010
0001
0000
0000
,
1000
0000
0010
0000
0000
0000
0100
0000
1000
0000
0100
0000
0010
0001
0000
0000
,
0001
0010
0100
1000
0001
0001
0010
0100
,
0000
0100
0000
0010
0001
0010
0100
0000
,
0011
0000
0010
0000
0001
0000
1000
0000
0100
0000
1000
0000
0010
1000
0000
0000
,
0001
0000
0100
0000
0000
0000
0010
0000
0001
0000
0010
0000
0100
1000
0000
0000
,
1000
0100
0010
0000
1001
0000
0000
0000
0001
0010
0100
0000
1001
0000
0000
0000
,
2000
3100
0020
0031
0002
0013
0200
1300
,
2000
0010
3010
0000
0002
0100
0103
0000
,
0000
0001
0010
0001
1000
0010
1000
0000
,
2000
0010
3001
0010
0002
0100
1003
0100
,
1000
0010
0100
0010
1000
0100
1001
0000
,
0002
0010
0013
0000
2000
0100
3100
0000
,
0000
1000
0010
1000
0001
0010
0001
0000
,
0002
0010
1003
0010
2000
0100
3001
0100
,
0000
0001
0010
0001
1000
0010
1000
0000
,
1010
0000
0100
0000
0010
0000
1000
0000
0001
1000
0010
0000
0200
0000
0001
0000
,
0300
0000
0010
0000
1000
0000
0100
0000
0010
0001
0010
0000
0100
0000
0000
0000
,
2010
3010
0100
0100
0001
0010
0100
1000
,
1000
0100
0010
0001
2100
3100
0010
0010
,
0101
0000
0010
0000
0100
0000
0001
0000
1000
0001
0100
0000
0020
0000
1000
0000
,
0030
0000
0100
0000
0001
0000
0010
0000
0100
1000
0100
0000
0010
0000
0001
0000
,
0002
0103
0020
1030
0110
0100
0001
0100
,
0000
0001
0100
0010
0101
0000
1001
0000
,
1010
0000
0010
0000
1000
0000
0001
0000
0100
0000
0001
0000
0010
0001
0000
0000
,
1000
0000
0010
0000
0000
0000
0100
0000
1000
0000
0100
0000
0010
0001
0000
0000
,
0001
0010
0100
1000
0001
0001
0010
0100
,
0000
0100
0000
0010
0001
0010
0100
0000
,
0011
0000
0010
0000
0001
0000
1000
0000
0100
0000
1000
0000
0010
1000
0000
0000
,
0001
0000
0100
0000
0000
0000
0010
0000
0001
0000
0010
0000
0100
1000
0000
0000
,
0001
0100
0010
0000
1001
0000
0000
0000
1000
0010
0100
0000
1001
0000
0000
0000
,
0002
0103
0020
1030
2000
3010
0200
0301
,
0010
0000
1000
0000
0100
0000
0010
0000
0001
0000
0010
0000
0001
1000
0000
0000
,
0020
0000
0200
0330
;

//---------------dance-double - ----------------
#NOTES:
     dance-double:
     :
     Easy:
     4:
     :
00000000
00000000
00000000
00000000
,
00000000
00000000
00000000
00000000
,
00000000
00000000
00000000
00000000
,
00000000
00000000
00000000
00000000
,
00000000
00000000
00000000
00000000
,
20000000
00000000
00000000
30000000
,
00200000
00000000
00000000
00300000
,
00010000
00000000
00010000
00000000
,
01000000
00001000
00010000
00000100
,
00000010
00000001
00001000
00000000
,
00000100
00010000
00001000
00000000
,
01000000
00010000
10000000
00000000
,
00100000
01000000
00001000
00000000
,
00010000
00000010
00001001
00000000
,
00000100
00010000
00001000
00000000
,
00100000
00000000
00010000
00000000
,
10000000
00000000
01000000
00000000
,
00100000
00001000
00010000
00000010
,
00001001
00000000
00000010
00010000
,
00001000
00000000
00100000
00010000
,
10000000
01000000
00100000
01000000
,
00100000
00010000
00100000
00001000
,
00011000
00000000
00000010
00000010
,
00001000
00000110
00000000
00000000
,
00000001
00001000
00000100
00010000
,
00011000
01000000
00010000
01000000
,
00011000
00000000
00000000
00000000
,
00000100
00000000
00010000
00001000
,
00100000
00010000
01100000
00000000
,
10000000
01000000
00100000
00001000
,
00010000
00000000
00000000
00000000
,
00001010
00000100
00001000
00000000
,
00000110
00000001
00000100
00000010
,
00020000
00000000
00000000
00031000
,
00002000
00000000
00000000
00013000
,
00000020
00001000
00000000
00001030
,
00000200
00001000
00000000
00001300
,
00010000
00001000
00100000
01000000
,
10000000
00010000
01000000
00011000
,
00000020
00000100
00000000
00000100
,
00000000
00000100
00000030
00001001
,
00000010
00000100
00000010
00001000
,
00000100
00010000
00001000
00010000
,
00000100
00000000
00000000
00000000
,
00000010
00000010
00000010
00000010
,
00000100
00001000
00000010
00010000
,
00001000
00100000
00010000
10000000
,
00100000
10010000
00010000
00100000
,
00001000
00010000
00000010
00000100
,
00002002
00000000
00000000
00000000
,
00000000
00000000
00000000
00003003
;

//---------------dance-double - ----------------
#NOTES:
     dance-double:
     :
     Medium:
     5:
     :
00000000
00000000
00000000
00000000
,
00000000
00000000
00000000
00000000
,
00000000
00000000
00000000
00000000
,
00000000
00000000
00000000
00000000
,
00000000
00000000
00000000
00000000
,
00002000
00000000
00003000
00000000
,
00200000
00000000
00300000
00000000
,
00002000
00000000
00013000
00000000
,
00010000
00000100
00000010
00000001
,
00000010
00000100
00001000
00000000
,
00000100
00010000
00001000
00000000
,
00100000
00010000
10000000
00010000
,
00200000
00310000
00001000
00010000
,
00000010
00000010
00001001
00000100
,
00010000
00001000
00100000
01000000
,
10000000
00000000
01000000
10000000
,
00010000
00000000
00010000
00100000
,
00001000
00000000
00010000
00000000
00010000
00001000
00010000
00000000
,
00000100
00000000
00001000
00000000
00001000
00000001
00001000
00000000
,
00000010
00001000
00000100
00010000
,
00001000
01000000
00100000
10000000
,
00010000
00000000
01000000
00000000
00010000
01000000
00010000
00000000
,
00110000
00000000
00001000
00000000
00010000
00001000
00010000
00000000
,
00001000
00022000
00000000
00033000
,
00000010
00000100
00000100
00001000
,
00001100
00010000
00001000
01000000
,
01010000
00000000
00000000
00000000
00100000
00010000
00010000
00000000
,
00001000
00000000
00000000
00000000
00010000
00001000
00001000
00000000
,
00000100
00001000
00001100
00000000
,
00010000
00001000
00010000
00000100
,
00000010
00000000
00000000
00000000
00000000
00000100
00000010
00000000
,
00000110
00010000
00001000
00010000
,
00011000
00000000
00001000
00000000
01000000
00010000
01000000
00000000
,
00020000
00100000
00100000
01030000
,
20000000
00100000
00010000
30010000
,
00200000
01000000
00010000
00300000
,
00002000
00010000
00010000
00013000
,
00010000
00001000
00100000
01000000
,
20000000
30010000
02000000
03100000
,
00002000
00013000
00000020
00000130
,
00000002
00000010
00000010
00001003
,
00000100
00000000
00001000
00000000
00000010
00001000
00000010
00000000
,
00010000
00000000
00001000
00000000
00100000
00010000
00100000
00000000
,
01000000
00100000
10000000
01000000
,
00100000
00000000
00100000
00000000
00100000
00010000
00100000
00000000
,
00001000
00000000
00100000
00000000
00001000
00010000
00001000
00000000
,
00010000
00000000
00001000
00000000
00001000
00010000
00001000
00000000
,
01000000
02020000
03030000
00001000
,
00010000
00001000
00010000
00000000
00000100
00001000
00000100
00000000
,
00002002
00000000
00000000
00000000
,
00000000
00000000
00000000
00003003
;

//---------------dance-double - ----------------
#NOTES:
     dance-double:
     :
     Hard:
     7:
     :
00000000
00000000
00000000
00000000
,
00000000
00000000
00000000
00000000
,
00000000
00000000
00000000
00000000
,
00000000
00000000
00000000
00000000
,
00000000
00000000
00000000
00000000
,
00000010
00000000
00002000
00000000
00000000
00000000
00003000
00000001
,
00000001
00000000
00002000
00000000
00000000
00000000
00003000
00000100
,
00000200
00000000
00002000
00003300
,
00000100
00010000
00001000
01000000
,
00100000
01000000
00010000
01000000
,
00001000
00010000
00000010
00001000
,
00000100
00001000
00000001
00001000
,
00000020
00001030
00000010
00010000
,
00001000
00100000
10010000
01000000
,
00010000
00100000
00001000
00010000
,
00000010
00001000
00000100
00001000
,
00000001
00000000
00000100
00000000
00000010
00000100
00000001
00000100
,
00000010
00000000
00001000
00000000
00000100
00010000
00001000
00000000
,
00011000
00000000
00001000
00000000
00100000
00010000
10000000
00000000
,
01000000
00000000
00100000
00000000
00010000
01000000
00010000
00000000
,
00100000
00000000
00001000
00000000
00010000
00000010
00000100
00000000
,
00000001
00000000
00000010
00000000
00000001
00000100
00000010
00000000
,
00000101
00000000
00001000
00000000
00000100
00010000
00000100
00000000
,
00010000
00022000
00033000
01000000
,
00100000
01000000
01000000
00010000
,
00100000
00010000
01000000
00000000
00010000
00100000
00010000
00000000
,
00110000
00000000
01000000
00000000
00100000
01000000
00010000
00000000
,
10000000
00100000
01000000
00000000
00010000
10000000
00010000
00000000
,
00100000
00000000
00001000
00000000
00010000
00001000
00011000
00000000
,
00000010
00000100
00000001
00000100
,
00000010
00000000
00001000
00000000
00000100
00010000
00001000
00000000
,
00011000
00000000
00110000
00000000
00010000
10000000
00010000
00000000
,
01100000
00000000
01000000
00000000
00010000
00100000
00001000
00000000
,
00020000
00000000
00001000
00000000
00031000
00000000
00000100
00001000
,
00000002
00000000
00000010
00000000
00000103
00000000
00000110
00000100
,
00002000
00000000
00000100
00000000
00003100
00000000
00010000
00001000
,
00020000
00000000
00001000
00000000
00031000
00000000
00010000
00010000
,
00002000
00000000
00010000
00000000
00013000
00000000
00000100
00000010
,
00000200
00000000
00001000
00000000
00000310
00000000
00001100
00000100
,
00002000
00000100
00000100
00000100
,
00000000
00000010
00000010
00000000
00000001
00000000
00003001
00000000
,
00000100
00000000
00000010
00000000
00001000
00000010
00001000
00000000
,
00000100
00000000
00000010
00000000
00000001
00000100
00000010
00000000
,
00000100
00000001
00000010
00000000
00000001
00001000
00000010
00000000
,
00010000
00001000
00010000
00001000
00100000
01000000
00100000
00000000
,
00000000
00000000
00010000
00000000
01000000
00010000
00100000
00000000
,
00001000
00000000
00010000
00000000
00000010
00001000
00000010
00000000
,
00001000
00002002
00003003
00000100
,
00010000
00001000
00100000
01000000
10000000
00010000
00100000
01000000
,
20020000
00000000
00000000
00000000
,
00000000
00000000
00000000
30030000
;
