#TITLE:INSERTiON (Machine Gun Kelly Mix);
#ARTIST:Thuggie D.;
#BANNER:INSERTiON (Machine Gun Kelly Mix).png;
#BACKGROUND:INSERTiON (Machine Gun Kelly Mix)-bg.png;
#CDTITLE:./CDTITLES/DANCE DANCE REVOLUTION ULTRAMIX.png;
#MUSIC:INSERTiON (Machine Gun Kelly Mix).ogg;
#SAMPLESTART:29.25;
#SAMPLELENGTH:15;
#DISPLAYBPM:139;
#BPMS:0=139.715,12=139.427,132=69.858,156=139.344;

//---------------dance-single - ----------------
#NOTES:
     dance-single:
     :
     Beginner:
     1:
     :
0000
0000
0000
0000
,
0000
0000
0000
0000
,
0000
0000
0000
0000
,
0000
0000
0000
0000
,
0000
0000
0000
0000
,
1000
1000
0000
0000
,
0010
0000
0001
0000
,
1000
1000
0000
0000
,
1000
0000
1000
0000
,
1000
0000
0010
0000
,
1000
0000
0100
0000
,
0001
0000
0010
0000
,
1001
0000
1000
0000
,
1000
0000
0010
0000
,
1000
0000
0001
0000
,
1000
0000
0001
0000
,
1000
0000
1000
0000
,
0001
0000
1000
0000
,
1000
0000
0001
0000
,
1001
0000
0001
0000
,
0001
0000
1000
0000
,
0010
0000
0001
0000
,
0100
0000
0100
0000
,
0001
0000
1000
0000
,
0010
0000
0001
0000
,
0100
0000
1000
0000
,
1000
0000
1000
0000
,
1000
0000
0000
0000
,
0001
0000
1000
0000
,
1000
0000
0010
0000
,
1000
0000
1000
0000
,
1000
0000
0010
0000
,
1000
0000
0001
0000
,
1001
0000
0000
0000
,
0000
0000
1000
0000
,
0100
0000
0000
0000
,
0000
0010
0000
0100
,
0000
0000
0000
0000
,
0000
0000
0000
0000
,
1000
0000
1000
0000
,
1000
0000
1000
0000
,
0110
0000
0001
0000
,
0100
0000
1000
0000
,
0010
0000
0001
0000
,
0100
0000
0000
0100
,
0000
0000
0010
0000
,
1000
0000
0010
0000
,
0001
0000
0010
0000
,
1000
0000
0010
0000
,
1001
0000
1000
0000
,
1001
0000
1000
0000
,
1000
0000
1000
0000
,
0010
0000
0010
0000
,
0010
0000
0010
0000
,
1001
0000
0000
0000
;

//---------------dance-single - ----------------
#NOTES:
     dance-single:
     :
     Easy:
     3:
     :
0000
0000
0000
0000
,
0000
0000
0000
0000
,
0000
0000
0000
0000
,
0000
0000
0000
0000
,
0000
0000
0000
0000
,
1000
1000
0001
0000
,
0010
1000
0001
0000
,
1000
1000
0001
0000
,
1000
0010
1000
0001
,
2000
0010
0010
3000
,
1000
0010
0100
0000
,
0002
0010
0010
0003
,
1001
0010
1000
0001
,
1000
0010
0010
0000
,
1000
0001
0101
0000
,
2000
0001
0001
3000
,
1000
0001
1000
0001
,
0002
1000
1000
0003
,
1000
0010
0001
0100
,
1001
0000
0001
0000
,
0101
0000
1000
0000
,
1010
0000
0001
0000
,
0011
0000
0100
0000
,
0101
0000
1000
0000
,
1010
0000
0001
0000
,
0022
0030
1000
0000
,
1000
0000
1000
0003
,
2000
0000
0000
3000
,
0001
0000
1000
0000
,
1000
0010
0010
0000
,
1000
0001
1000
0100
,
1000
0010
0010
0000
,
1000
0010
0001
0000
,
2002
0000
0000
0000
,
0000
3003
1000
0010
,
0200
0000
0000
0000
,
0300
0010
1000
0200
,
0000
0000
0000
0000
,
0000
0000
0000
0300
,
1000
0001
1000
0100
,
1000
0010
1000
0001
,
0110
0000
0001
0010
,
0100
0000
1000
0100
,
0010
0000
0001
0010
,
0100
0000
0000
0100
,
1001
0000
0010
0000
,
1000
0000
0010
1000
,
0002
0000
0010
0003
,
2000
0000
0010
3100
,
1001
0000
1000
0000
,
1001
0010
1000
0000
,
1000
0010
1000
0100
,
2010
0000
0010
0000
,
0010
0000
0010
3000
,
1001
0000
0000
0000
;

//---------------dance-single - ----------------
#NOTES:
     dance-single:
     :
     Medium:
     5:
     :
0000
0000
0000
0000
,
0000
0000
0000
0000
,
0000
0000
0000
0000
,
0000
0000
0000
0000
,
0000
0000
0000
0000
,
1001
0010
0010
0001
,
1000
0010
1000
0001
,
1001
0000
0010
0001
1000
0000
0001
0000
,
2000
0010
0100
3001
,
1000
0000
0001
1000
0001
0000
0100
0000
,
0002
1000
1000
1003
,
1001
0000
0010
1000
0001
0000
1001
0000
,
0110
0010
1000
0100
,
2000
0010
3010
1001
,
1000
0000
0010
0000
1000
0001
1000
0000
,
0002
0010
0010
0003
,
1000
0010
1000
0100
,
1000
0000
0010
0010
0000
0010
0000
1000
,
0001
0010
0001
0100
,
1001
0000
0010
0010
0000
0010
0000
1000
,
0001
1000
0001
0100
,
1010
0000
0100
0100
0000
0100
0000
0001
,
1000
0100
1000
0001
,
0101
0000
0010
0010
0000
0010
0000
1000
,
0001
1000
0001
1001
,
0001
0000
1000
0001
1000
0000
0001
1000
,
0001
0000
1000
0000
0010
1000
0002
0000
,
2000
0000
0000
3003
,
1000
0001
0100
0000
0001
1000
0100
0000
,
1000
0010
1000
0001
,
1000
0001
0100
0000
0010
1000
0001
0000
,
1000
0000
0010
1000
0010
0100
0001
0000
,
1000
0010
0100
0000
,
2002
0000
0000
3003
,
0020
0000
0000
0030
1000
0010
0010
0000
,
0200
0000
0000
0000
,
0300
0000
0010
0010
0000
0010
0000
0000
0000
1000
0000
0000
0100
0000
0000
0100
,
0000
0000
0000
0000
1000
1000
0000
2000
0000
0000
0000
0000
0000
0000
0000
0000
,
0000
0000
0000
3000
,
1001
1010
0001
0100
,
0001
0000
1010
0000
0001
1000
0100
0000
,
0110
0000
1000
0000
0001
0100
0010
0000
,
0100
0000
0001
0000
0001
1000
0010
0000
,
0100
0000
0001
0000
0001
0100
0010
0000
,
0100
0000
1001
0000
0010
1000
0100
0000
,
2000
0010
0010
3100
,
0001
0000
0101
0000
0001
1000
0100
0000
,
1000
1100
0020
0000
,
0000
0000
1000
0000
0030
1000
0000
0000
0010
0000
0010
0000
0000
0000
0100
0000
,
0000
0001
0000
0001
0000
0000
0010
0000
0000
0010
0000
0010
0000
0000
0000
0000
,
2002
0000
0000
3003
,
1010
0000
0010
1000
0001
0000
0100
0000
,
1010
0000
0001
1000
0010
0000
1000
0000
,
2001
0010
0010
3010
,
1001
0000
0000
0000
;

//---------------dance-single - ----------------
#NOTES:
     dance-single:
     :
     Hard:
     7:
     :
0000
0000
0000
0000
,
0000
0000
0000
0000
,
0000
0000
0000
0000
,
0000
0000
0000
0000
,
0000
0000
0000
0000
,
0001
1000
0010
1000
0010
0000
1000
0000
,
0001
1000
0010
1000
0001
0000
1000
0010
,
1000
0001
0010
0100
0010
0000
0001
1000
,
0001
1000
0010
0100
0010
0100
0001
1000
,
0002
0010
0010
0103
,
0001
0010
0010
0000
0001
1000
0001
0000
,
2000
0010
0010
3001
,
1000
0010
0010
0000
1000
0001
1000
0000
,
1000
0000
0010
1000
0010
0000
1001
0000
,
1000
0001
1000
0010
0100
0001
0100
0001
,
2000
0000
0010
0010
3010
0000
1000
0000
,
0001
0010
0001
0100
,
1001
0000
0010
0010
0000
0010
0000
2000
,
0000
0000
0010
0000
0000
0000
3010
0000
0000
0100
0001
0000
0100
0000
0001
0000
,
1000
0000
0010
0010
0000
0010
0000
2000
,
0000
0000
0001
0000
0000
0000
3001
0000
0000
0100
0010
0000
0100
0000
0010
0000
,
2000
0000
0100
0100
0000
3100
0000
0010
,
0000
0000
0001
0000
0000
0000
0001
0000
0000
1000
0100
0000
1000
0000
0100
0000
,
0020
0000
0001
0001
0000
0031
0000
1000
,
0000
1010
0000
0010
0000
1000
0000
0001
,
0020
0000
0032
0000
,
0203
0000
0320
0030
,
2020
3030
2200
3300
,
0002
0000
0003
0000
2000
0000
0010
0010
,
3010
0000
0010
0100
0001
0000
0101
0000
,
1000
0000
1000
0001
1000
0000
0101
0000
,
1000
0001
0100
0001
0010
0100
1000
0000
,
1100
0000
0010
1000
0001
0100
0010
0000
,
2002
0000
0000
0000
,
0000
0000
3003
0000
1000
0010
0010
0000
,
0200
0000
0000
0000
,
0300
0000
0010
0010
0000
0010
0000
0000
0000
1000
0000
0000
0100
0000
0000
0100
,
0000
0000
0000
1000
0000
1000
0000
2000
0000
0000
0000
0000
0000
0000
0000
0000
,
0000
0000
0000
3000
,
1001
0000
0010
0100
0001
1000
0001
1000
,
0001
0001
1000
0001
1000
1000
0001
1000
,
0010
0000
1000
0001
0100
0000
0010
1000
,
0100
0000
1100
0000
0001
1000
0010
0000
,
0100
0000
1010
0000
0001
1000
0010
0000
,
0100
0001
0100
0000
0101
0000
0100
0000
,
1001
0000
0010
0001
0010
0000
0001
0000
,
1000
0000
1001
0000
0001
1000
0001
0000
,
1001
0101
0020
0000
,
0000
0000
1000
0000
0030
1000
0000
0000
0010
0000
0010
0000
0000
0100
0000
0000
,
0000
0001
0000
0001
0000
0000
0010
0000
0000
0010
0000
0010
0000
0100
0000
0000
,
0010
0000
0001
1000
0001
1000
0010
0000
,
1001
0000
0100
0001
1000
0001
0100
0000
,
1001
0000
1000
0001
0100
0010
1000
0000
,
1001
0000
1000
0001
0100
0010
1000
0000
,
1001
0000
0000
0000
;

//---------------dance-double - ----------------
#NOTES:
     dance-double:
     :
     Easy:
     3:
     :
00000000
00000000
00000000
00000000
,
00000000
00000000
00000000
00000000
,
00000000
00000000
00000000
00000000
,
00000000
00000000
00000000
00000000
,
00000000
00000000
00000000
00000000
,
00000001
00000010
00000100
00000000
,
00010000
00001000
00100000
00000000
,
00020000
00100000
00100000
00030000
,
10000000
00100000
10000000
01000000
,
10000000
00100000
01000000
00000000
,
00001000
00010000
00000100
00001000
,
00002000
00000010
00000010
00003000
,
00001100
00000010
00010000
00001000
,
02000000
00100000
00100000
03000000
,
10000000
00100000
01000000
00100000
,
20000000
00100000
00100000
30000000
,
10000000
00100000
10000000
01000000
,
10000000
00100000
01000000
00000000
,
00001000
00010000
00000010
00000100
,
00000002
00000000
00000010
00000003
,
00000011
00000000
00000001
00000000
,
00002000
00000001
00000001
00003000
,
00001100
00000000
00010000
00001000
,
00011000
00000000
00100000
00000000
,
00110000
00000000
01000000
00000000
,
11000000
00000000
10000000
00000000
,
00020000
00000000
00100000
00030000
,
20000000
00000000
01000000
30000000
,
00100000
00001000
00010000
00000100
,
00002000
00000100
00000100
00003000
,
00001000
00000010
00001000
00000100
,
00001000
00000010
00010000
00001000
,
01000000
00100000
10000000
00000000
,
20020000
00000000
00000000
00000000
,
00000000
00000000
00000000
30030000
,
00000000
00000000
00000000
00000000
,
00000000
00000000
00000000
00000000
,
00000000
00000000
00000000
00000000
,
00000000
00000000
00000000
00000000
,
10000000
01000000
00100000
00001000
,
00010000
00000010
00001000
00000010
,
00001001
00000000
00000100
00000001
,
00000020
00000000
00000130
00001000
,
00001100
00000000
00010000
00001000
,
00100000
00100000
01000000
10000000
,
22000000
03000000
30200000
00000000
,
20300000
00000000
00000000
30000000
,
10010000
00000000
10000000
00000000
,
10000000
00000000
00100000
01000000
,
00010000
00000000
10000000
00000000
,
10010000
00100000
20000000
00000000
,
30010000
00100000
00001000
00010000
,
00000020
00000000
00001000
00000030
,
00000002
00000000
00000100
00000003
,
00001001
00000000
00000000
00000000
;

//---------------dance-double - ----------------
#NOTES:
     dance-double:
     :
     Medium:
     6:
     :
00000000
00000000
00000000
00000000
,
00000000
00000000
00000000
00000000
,
00000000
00000000
00000000
00000000
,
00000000
00000000
00000000
00000000
,
00000000
00000000
00000000
00000000
,
10010000
00100000
00100000
00010000
,
10000000
00100000
10000000
10100000
,
00010000
00000000
00100000
00010000
01000000
00000000
00001000
00000000
,
00010000
00000010
00001000
00000100
,
00001000
00000000
00000001
00001000
00000001
00000000
00000100
00000000
,
00000010
00010000
00001000
00000000
,
00110000
00000000
10000000
00010000
01000000
00000000
10010000
00000000
,
20000000
00100000
00100000
31000000
,
10000000
00100000
00100000
01000000
,
00001000
00000000
00010000
00000000
00000100
00001000
00000010
00000000
,
00002000
00000010
00000010
00003001
,
00001000
00000010
00010000
00001000
,
02000000
00000000
00100000
00100000
00000000
03100000
00000000
10000000
,
00010000
00100000
00010000
01000000
,
10020000
00000000
00100000
00100000
00000000
00130000
00000000
10000000
,
00010000
00100000
00001000
00010000
,
00000200
00000000
00001000
00001000
00000000
00001300
00000000
00000001
,
00001000
00000100
00001000
00001000
,
00000020
00000000
00001000
00001000
00000000
00001030
00000000
00001000
,
00000010
00010000
00001000
01000000
,
00100000
00000000
10000000
00010000
10000000
00000000
00010000
10000000
,
00010000
00000000
00000000
00000000
00100000
00010000
10000000
00000000
,
20020000
00000000
00000000
30030000
,
00020000
00000000
10000000
00030000
,
20000000
00100000
00100000
30010000
,
10000000
00010000
01000000
00000000
00010000
01000000
00001000
00000000
,
00010000
00000000
00000010
00001000
00000001
00001000
00000001
00000000
,
00001000
00000010
00001000
00000100
,
00022000
00000000
00000000
00033000
,
00200000
00000000
00000000
00300000
01000000
10000000
10000000
00000000
,
00020000
00000000
00000000
00000000
,
00030000
00000000
00100000
00100000
00000000
00100000
00000000
00000000
00000000
01000000
00000000
00000000
10000000
00000000
00000000
10000000
,
00000000
00000000
00000000
01000000
00000000
01000000
00000000
02000000
00000000
00000000
00000000
00000000
00000000
00000000
00000000
00000000
,
00000000
00000000
00000000
03000000
,
10010000
00100000
00010000
01000000
,
00010000
00000000
10100000
00000000
00010000
10000000
01000000
00000000
,
01100000
00000000
00110000
00000000
00010000
10000000
00100000
00000000
,
01000000
00000000
00001000
00000000
00010000
00000100
00000010
00000000
,
00000100
00000000
00000001
00000000
00000001
00000100
00000010
00000000
,
00000100
00000000
00001001
00000000
00000010
00001000
00000100
00000000
,
00002000
00000010
00000010
00003100
,
00010000
00000000
00011000
00000000
00100000
00010000
01000000
00000000
,
00010000
00110000
00200000
00000000
,
00000000
00000000
00010000
00000000
00300000
00010000
00000000
00000000
00100000
00000000
00100000
00000000
00000000
00000000
01000000
00000000
,
00000000
10000000
00000000
10000000
00000000
00000000
00100000
00000000
00000000
00100000
00000000
00100000
00000000
00000000
00000000
00000000
,
20200000
00000000
00000000
30300000
,
00010000
00000000
10000000
00010000
00100000
00000000
00001000
00000000
,
00011000
00000010
00001000
00000001
,
00001002
00000100
00000100
00000103
,
00001001
00000000
00000000
00000000
;

//---------------dance-double - ----------------
#NOTES:
     dance-double:
     :
     Hard:
     8:
     :
00000000
00000000
00000000
00000000
,
00000000
00000000
00000000
00000000
,
00000000
00000000
00000000
00000000
,
00000000
00000000
00000000
00000000
,
00000000
00000000
00000000
00000000
,
00000010
00001000
00000010
00001000
00000100
00000000
00010000
00000000
,
00001000
00010000
00001000
00010000
00000100
00000000
00010000
00001000
,
00100000
00010000
01000000
00100000
10000000
00010000
10000000
01000000
,
00100000
00010000
10000000
00100000
01000000
00000000
00001000
00010000
,
00000020
00000100
00000100
00001030
,
00000100
00000010
00000010
00000000
00001000
00000001
00001000
00000000
,
00001001
00000100
00010000
00011000
,
00110000
01000000
10000000
01000000
,
10000000
00000000
00100000
10000000
00100000
00000000
10010000
00000000
,
01000000
00001000
00010000
00000000
00000010
00000100
00000010
00001000
,
00000002
00000000
00000010
00000010
00000010
00000000
00000003
00000000
,
00001000
00000010
00010000
00001000
,
00011000
00000000
00100000
00010000
00000000
01000000
00000000
00010000
,
00000000
00000000
00100000
00000000
00000000
00000000
00010000
00000000
00000000
01000000
00010000
00000000
01000000
00000000
00010000
00000000
,
20000000
00000000
00100000
00100000
00000000
30100000
00000000
10000000
,
00000000
00000000
00010000
00000000
00000000
00000000
00010000
00000000
00000000
01000000
00100000
00000000
01000000
00000000
00100000
00000000
,
20000000
00000000
01000000
01000000
30000000
00100000
00000000
00001000
,
00000000
00000000
00010000
00000000
00000000
00000000
00000010
00000000
00000000
00001000
00000100
00000000
00001000
00000000
00000100
00000000
,
00000010
00000000
00000100
00010000
00000000
00001000
00000000
00010000
,
00000000
00011000
00000000
01000000
00000000
00010000
00000000
00010000
,
00200000
00000000
00002000
00300000
,
00023000
00000000
00030020
00000030
,
00002020
00003030
00002200
00003300
,
00020000
00000000
00030000
00000000
00001000
00000000
00010000
00010000
,
00010000
00000000
00001000
01000000
00010000
00000000
01010000
00000000
,
00010000
00000000
10000000
00010000
10000000
00000000
01010000
00000000
,
10000000
00010000
01000000
00001000
00010000
00000010
00000100
00000000
,
00001001
00000000
00000001
00001000
00000100
00010000
00001000
00000000
,
00022000
00000000
00000000
00033000
,
00200000
00000000
00000000
00300000
00010000
10000000
10000000
00000000
,
02000000
00000000
00000000
00000000
,
03000000
00000000
00100000
00100000
00000000
00100000
00000000
00000000
00000000
00010000
00000000
00000000
01000000
00000000
01000000
00000000
,
00000000
00000000
00000000
00100000
00000000
00100000
00000000
00200000
00000000
00000000
00000000
00000000
00000000
00000000
00000000
00000000
,
00000000
00000000
00000000
00300000
,
10010000
00000000
00100000
01000000
00010000
10000000
00010000
10000000
,
00010000
00010000
10000000
00010000
10000000
10000000
00100000
01000000
,
00001000
00000000
00010000
00000010
00001000
00000000
00000001
00000010
,
00000100
00000000
00001000
00000100
00001000
00000000
00000010
00000000
,
00010000
00000000
00001000
00000000
01000000
00100000
10000000
00000000
,
01000000
10000000
11000000
01000000
,
20000000
00100000
00100000
30010000
,
10010000
00000000
00100000
00000000
01000000
00001000
00010000
00000000
,
00000100
00000110
00000002
00000000
,
00000000
00000000
00001000
00000000
00000003
00001000
00000000
00000000
00000010
00000000
00000010
00000000
00000000
00010000
00000000
00000000
,
00000000
00001000
00000000
00001000
00000000
00000000
00100000
00000000
00000000
00100000
00000000
00100000
00000000
01000000
00000000
00000000
,
10000000
00000000
00100000
10000000
00010000
10000000
00100000
00000000
,
10010000
00000000
01000000
00010000
10000000
00010000
01000000
00000000
,
10010000
00000000
01000000
00001000
00010000
00000010
00001000
00000000
,
00001010
00000000
00001000
00000001
00000100
00000010
00001000
00000000
,
00001001
00000000
00000000
00000000
;
