#TITLE:INFINITE PRAYER (floating flock style);
#ARTIST:L.E.D. feat. GORO;
#BANNER:INFINITE PRAYER (floating flock style).png;
#BACKGROUND:INFINITE PRAYER (floating flock style)-bg.png;
#CDTITLE:./CDTITLES/Song Pack 6.png;
#MUSIC:INFINITE PRAYER (floating flock style).ogg;
#SAMPLESTART:17.98;
#SAMPLELENGTH:15;
#DISPLAYBPM:120;
#BPMS:0=120.007;

//---------------dance-single - ----------------
#NOTES:
     dance-single:
     :
     Beginner:
     1:
     :
0000
0000
0000
0000
,
0000
0000
0000
0000
,
0000
0000
0000
0000
,
0000
0000
0000
0000
,
0000
0000
0000
0000
,
1001
0000
0001
0000
,
0010
0000
1000
0000
,
0100
0000
0010
0000
,
0100
0000
0000
0000
,
0001
0000
0001
0000
,
0001
0000
1000
0000
,
1000
0000
0100
0000
,
0010
0000
0001
0000
,
1000
0000
0001
0000
,
0001
0000
1000
0000
,
1000
0000
0010
0000
,
1000
0000
0010
0000
,
1000
0000
0100
0000
,
1000
0000
1000
0000
,
0001
0000
1000
0000
,
0010
0000
0001
0000
,
0010
0000
1000
0000
,
0100
0000
0010
0000
,
0001
0000
0100
0000
,
0001
0000
0100
0000
,
0001
0000
0010
0000
,
0010
0000
0001
0000
,
1000
0000
0100
0000
,
0001
0000
1000
0000
,
0110
0000
0100
0000
,
1000
0000
0010
0000
,
0100
0000
0001
0000
,
0010
0000
0001
0000
,
1001
0000
0100
0000
,
0110
0000
0001
0000
,
1000
0000
0100
0000
,
0010
0000
0001
0000
,
1001
0000
0010
0000
,
0110
0000
1000
0000
,
0001
0000
0010
0000
,
0100
0000
1000
0000
,
1001
0000
0001
0000
,
0100
0000
0000
0000
,
0110
0000
1000
0000
,
0010
0000
0000
0000
,
1001
0000
0100
0000
,
0010
0000
0000
0000
,
0110
0000
0010
0000
,
1000
0000
1000
0000
,
1001
0000
0001
0000
,
0110
0000
1000
0000
,
1001
0000
0100
0000
,
0110
0000
0001
0000
,
1001
0000
0000
0000
,
0000
0100
0000
0000
,
0001
0000
0001
0000
,
0110
0000
0000
0000
;

//---------------dance-single - ----------------
#NOTES:
     dance-single:
     :
     Easy:
     3:
     :
0000
0000
0000
0000
,
0000
0000
0000
0000
,
0000
0000
0000
0000
,
0000
0000
0000
0000
,
0000
0000
0000
0000
,
1001
0000
0001
1000
,
0010
0000
1000
0001
,
0100
0000
0010
0000
,
0200
0000
0000
0300
,
0001
0000
0001
0010
,
0001
0000
1000
0010
,
1000
0100
0100
0100
,
0010
0010
0001
0001
,
1000
0000
0001
0100
,
0001
0000
1000
0100
,
1000
0010
0010
0010
,
1000
1000
0010
0010
,
1000
0010
0100
0001
,
1000
0010
1000
1000
,
0001
1001
1000
1001
,
0010
1000
0001
0100
,
0010
0010
1000
1000
,
0100
0100
0010
0010
,
0001
1001
0100
0010
,
0002
0023
0230
2300
,
3001
0100
0010
1000
,
0010
0110
0001
0001
,
1000
1010
0100
0100
,
0001
1001
1000
0001
,
0101
0010
0100
0001
,
1000
1001
0010
0010
,
0100
1100
0001
0001
,
0020
0000
0031
0001
,
1001
0001
0100
0100
,
0110
0100
0001
0001
,
1000
0000
0100
0100
,
0010
0000
0001
0001
,
1001
1000
0010
0010
,
0110
0010
1000
1000
,
0001
0000
0010
0010
,
0100
0000
1000
1000
,
1001
2000
3002
0000
,
0200
0000
0000
0303
,
0101
0002
2003
0000
,
0020
0000
0000
3030
,
1010
0020
0230
0000
,
0020
0000
0000
0330
,
0110
0200
0320
0000
,
1000
1000
1000
1030
,
1010
0000
0001
0100
,
0101
0000
1000
0010
,
1010
0000
0100
0010
,
0110
0000
0001
1000
,
2002
0000
0000
3003
,
0000
0100
0100
0000
,
0001
0001
0001
0000
,
0110
0000
0000
0000
;

//---------------dance-single - ----------------
#NOTES:
     dance-single:
     :
     Medium:
     6:
     :
0000
0000
0000
0000
,
0000
0000
0000
0000
,
0000
0000
0000
0000
,
0000
0000
0000
0000
,
0000
0000
0000
0000
,
1001
0000
0000
0000
1000
0001
1000
1000
,
0010
0000
0000
0000
1000
1000
0001
0000
,
0100
0000
0000
0000
0100
0000
0100
0001
,
0200
0000
0000
0300
,
0001
0001
0000
0000
1000
0100
0010
0001
,
1000
0000
0000
0000
0001
0010
0100
1000
,
0001
0110
0010
0100
,
0010
0010
0010
0000
1000
0001
0001
0000
,
1000
1000
0000
0000
0100
0010
0100
0001
,
0100
0000
0000
0000
0010
0100
0010
1000
,
0010
0110
0100
0010
,
0100
0100
0100
0000
0001
1000
1000
0000
,
1001
0000
0010
0000
1000
0000
0010
0100
,
0001
1000
0001
0100
0001
1000
0001
0000
,
1000
0001
1001
0000
0001
1000
1001
0000
,
0010
1000
0001
0000
1000
0001
0100
0000
,
0010
1000
0010
0000
0100
0000
1000
0001
,
0100
0000
0100
0000
0010
0010
0010
0000
,
1000
0001
1001
0000
0110
1000
0010
0000
,
2000
3200
0320
0032
,
1003
0000
1000
0001
1000
0010
1000
0000
,
1010
0000
0110
0000
0001
0001
0001
0000
,
0101
0101
1010
1010
,
0001
0000
1001
1000
1000
1000
0002
0000
,
0103
0000
0100
0010
0100
0001
0100
0000
,
0101
0000
1001
0000
0010
0010
0010
0000
,
0101
0101
1010
1010
,
0010
1010
1000
1000
,
1001
1000
0001
0001
0101
0100
0100
0000
,
0110
0010
0100
0000
0001
0000
0001
0000
,
1000
0001
1010
0000
0100
0001
0100
0000
,
0010
0000
1000
0000
1001
0100
0001
0100
,
1001
0001
1000
1000
1010
0010
0010
0000
,
0110
0100
0010
0000
1000
0000
1000
0000
,
0001
1000
0101
0000
0010
1000
0010
0000
,
0100
0000
0001
0000
1001
0010
1000
0010
,
1001
0000
2000
0010
3002
0000
0000
0100
,
0000
0100
0000
0100
0000
0100
0003
0000
,
0101
0000
0002
0100
2003
0000
0000
0010
,
0000
0010
0000
0010
0000
0010
3000
0000
,
1010
0000
0020
1000
0230
0000
0000
0010
,
0000
0010
0000
0010
0000
0010
0300
0000
,
0110
0000
0200
0001
0320
0000
0030
0000
,
1000
0001
1000
0010
1000
1000
1000
0000
,
1010
0010
1000
0010
1000
0000
1100
0000
,
0101
0001
0100
0001
1000
0000
1010
0000
,
1010
1000
0010
1000
0100
0000
0110
0000
,
1100
0000
0011
0000
0001
0001
1000
1000
,
2002
0000
0000
3003
,
0000
0001
0100
0001
0200
0000
0300
0000
,
0001
1000
0001
1000
0002
0000
0003
0000
,
0200
0000
0000
0000
,
0300
0000
0000
0000
;

//---------------dance-single - ----------------
#NOTES:
     dance-single:
     :
     Hard:
     7:
     :
0000
0000
0000
0000
,
0000
0000
0000
0000
,
0000
0000
0000
0000
,
0000
0000
0000
0000
,
0000
0000
0000
0000
,
1001
0000
0100
0000
0001
0000
1000
1000
0000
0000
0001
0000
1000
0000
1000
0000
,
0100
1001
0010
0000
1000
1000
0001
0000
,
0101
0000
0101
0000
0101
0000
0000
1000
0000
1000
0000
1000
0000
0000
0001
0000
,
0210
0000
0002
0000
0003
0010
0300
0000
,
1001
0000
1000
0000
0001
0000
0010
0100
1000
0000
1000
0000
0010
0000
1000
0000
,
0001
0100
0001
0000
1001
1000
0001
0100
,
0101
0000
0110
0000
1000
1000
0001
0000
,
0010
1000
0001
1000
0010
0000
0000
0000
1000
0000
0010
0100
0010
0000
0000
0000
,
1000
0000
0110
0000
0110
0000
0000
0000
1000
0001
1000
0001
0100
0000
0001
0000
,
2000
0000
0100
0000
3100
0000
0000
0000
0010
0000
0010
0000
0010
0000
0100
1000
,
0100
0110
0000
1100
0000
0011
0000
0000
,
1000
0001
1000
0001
1000
0000
0000
0000
0001
0100
0000
0100
0000
0100
0010
0000
,
1001
0000
0001
0000
1000
0000
0100
0010
0001
0000
0001
0000
0100
0000
0001
0000
,
0010
0100
1000
0000
1001
0001
1000
0100
,
1010
0000
0000
1100
0000
0011
0000
0000
,
0100
0001
1000
0001
0100
0000
0000
0000
0001
0000
1000
0010
1000
0000
0000
0000
,
0100
0000
0110
0000
0100
0000
0000
0000
0001
1000
0001
1000
0010
0000
1000
0000
,
0002
0000
1000
0000
1003
0000
0000
0000
0001
0000
0001
0000
0001
0000
0010
0001
,
0010
0200
0000
0300
1000
0000
1000
0000
,
0010
0001
0010
0001
0010
0000
0000
0000
0002
1000
0000
1000
0003
1000
0000
0000
,
1001
0000
0000
0000
0110
0000
0001
0001
0000
0100
0100
0000
0001
0000
0000
0000
,
1001
0000
1000
0000
0100
0000
0100
0000
1001
0000
0000
0110
0000
0000
0001
0000
,
0101
1000
0101
0000
0020
1000
1030
0000
,
1010
0000
0001
0000
1000
0000
0000
0100
0000
0000
0100
0000
1000
0000
0000
0000
,
1001
0000
0000
0000
0110
0000
1000
1000
0000
0010
0010
0000
1000
0000
0000
0000
,
1001
0000
0001
0000
0010
0000
0010
0000
1001
0000
0000
0110
0000
0000
1000
0000
,
1000
0001
0010
0000
0100
0001
0101
0000
,
0202
0000
0000
0000
0303
0000
0000
0000
1001
0000
0000
1010
0000
0000
0001
0000
,
1001
0000
1000
0000
1001
0000
1000
0100
0000
0000
0100
0000
0100
0000
0000
0000
,
0110
0010
0100
0000
1001
0010
0101
0000
,
1001
0001
1010
0000
0110
0001
0110
0000
,
1010
0000
1010
0000
1000
0000
0000
0000
1000
0001
0100
0001
1000
0001
0100
0000
,
1001
0000
1001
0000
0110
1001
0100
0000
,
0110
0000
0001
0000
1100
0010
0101
0000
,
1001
0000
1000
0000
0100
0000
1000
0010
0000
1000
0001
0000
0010
0000
0000
0000
,
0110
0000
1000
0000
1010
0100
1001
0010
,
1001
0000
2000
0010
3001
2000
0000
3100
,
1000
0010
0100
0001
0010
0001
1000
0000
,
0101
0000
0001
0100
0002
0000
0003
0010
,
0001
0100
0010
1000
0100
1000
0001
0000
,
1010
0000
0020
1000
0230
0000
0000
0310
,
0010
1000
0100
0010
0001
0001
1000
0000
,
0110
0000
0200
0001
0320
0000
0030
0000
,
1001
0000
0100
0000
0000
0000
0010
0000
1100
0000
0000
1001
0000
0000
0010
0000
,
0101
0000
0010
0001
0010
0000
0001
0000
0101
0000
0000
0000
0101
0000
0000
0000
,
1010
0000
0100
0001
0100
0000
0001
0000
1010
0000
0000
0000
1010
0000
0000
0000
,
0110
0000
0001
0100
0001
0000
1000
0000
0110
0000
0000
0000
0110
0000
0000
0000
,
0101
0000
1000
0010
1000
0000
0001
0000
1100
0000
0000
0000
1100
0000
0000
0000
,
0022
0000
0000
0000
0000
0000
0033
0100
,
0001
1000
0100
1000
0200
0000
0300
0000
,
1000
0010
1000
0010
0101
0000
0101
0000
,
1010
0000
0000
0000
;

//---------------dance-single - ----------------
#NOTES:
     dance-single:
     :
     Challenge:
     8:
     :
0000
0000
0000
0000
,
0000
0000
0000
0000
,
0000
0000
0000
0000
,
0010
1000
0100
0010
0100
1000
0001
0000
,
0110
0000
0101
0000
0000
0000
0000
0000
0100
0001
0000
0001
0000
0001
0000
0000
,
0010
0001
0100
0010
0100
0001
1000
0001
,
0110
1100
0100
0001
0100
0001
0100
1000
,
0100
1000
0010
0100
0010
1000
0001
0000
,
1001
0000
0000
0110
0000
0000
1100
0000
0000
0101
0000
0000
1010
0000
0000
0000
,
0010
1000
0100
0010
0100
1000
0001
1000
,
0110
0101
0100
1000
0100
1000
0100
0001
,
0100
0001
0010
0100
0010
0001
1000
0001
,
0110
0110
0010
0001
0010
0001
1000
0010
,
0100
0001
0010
0100
0010
0001
1000
0001
,
0110
1100
0010
0001
0010
0001
0010
1000
,
0010
1000
0100
0010
0100
1000
0001
1000
,
0110
0000
0110
0000
0100
0000
1000
0000
0100
0001
0000
0001
0000
0001
0000
0000
,
0010
0001
0100
0010
0100
0001
1000
0001
,
0110
1100
0100
0001
0100
0001
0100
1000
,
0100
1000
0010
0100
0010
1000
0001
1000
,
0110
0110
0010
1000
0010
1000
0001
0010
,
0100
1000
0010
0100
0010
1000
0001
1000
,
0110
0101
0010
1000
0010
1000
0010
0001
,
0010
0001
0100
0010
0100
0001
1000
0001
,
0110
0000
0110
0000
0100
0000
0001
0000
0100
1000
0000
1000
0000
1000
0000
0000
,
0000
2000
3001
0000
0020
0031
0000
2000
,
3100
0000
0020
0031
0000
0002
0013
0000
,
1000
0001
0100
0010
1000
0001
0010
0100
,
1000
0001
0100
0010
1000
0001
0010
0100
,
1000
0001
0100
0010
1000
0100
1000
0001
,
0020
0100
0130
0002
0100
0103
2000
0010
,
3010
0200
0001
0301
0020
0100
0130
2000
,
0001
3001
0200
0010
0310
2000
0100
3100
,
0000
0002
1003
0000
0020
1030
0000
0002
,
0103
0000
0020
1030
0000
2000
3010
0000
,
0001
1000
0100
0010
0001
1000
0010
0100
,
0001
1000
0100
0010
0001
1000
0010
0100
,
0001
1000
0100
0010
0001
0100
0001
1000
,
0020
0100
0130
2000
0100
3100
0002
0010
,
0013
0200
1000
1300
0020
0100
0130
0002
,
1000
1003
0200
0010
0310
0002
0100
0103
,
1100
0101
1100
0000
1000
0010
0100
0001
,
0010
0001
1000
0100
0010
0001
1000
0001
,
0101
1100
0110
0000
1000
0100
0010
0001
,
0100
0010
1000
0001
0100
0010
1000
0001
,
0101
1100
0101
0000
0001
0010
0100
1000
,
0010
1000
0001
0100
0010
1000
0001
1000
,
0101
1100
0101
0000
0000
0000
1001
0110
,
1001
0000
0000
0110
0000
0000
1100
0000
0000
0101
0000
0000
1010
0000
0000
0000
,
0010
1000
0100
0010
0100
1000
0001
1000
,
0110
0101
0100
1000
0100
1000
0100
0001
,
0100
0001
0010
0100
0010
0001
1000
0001
,
0110
0110
0010
0001
0010
0001
1000
0010
,
0100
0001
0010
0100
0010
0001
1000
0001
,
0110
1100
0010
0001
0010
0001
0010
1000
,
0010
1000
0100
0010
0100
1000
0001
1000
,
0102
0000
0000
0003
;

//---------------dance-double - ----------------
#NOTES:
     dance-double:
     :
     Beginner:
     1:
     :
00000000
00000000
00000000
00000000
,
00000000
00000000
00000000
00000000
,
00000000
00000000
00000000
00000000
,
00000000
00000000
00000000
00000000
,
00000000
00000000
00000000
00000000
,
10010000
00000000
10000000
00000000
,
00100000
00000000
01000000
00000000
,
00010000
00000000
00000010
00000000
,
00000100
00000000
00000000
00000000
,
00000001
00000000
00001000
00000000
,
00010000
00000000
00001000
00000000
,
00100000
00000000
01000000
00000000
,
00100000
00000000
00010000
00000000
,
10000000
00000000
00010000
00000000
,
00001000
00000000
00010000
00000000
,
00000100
00000000
00000010
00000000
,
00000001
00000000
00000010
00000000
,
00000100
00000000
00001000
00000000
,
00010000
00000000
00010000
00000000
,
01000000
00000000
00000000
10000000
,
00000000
10000000
00000000
01000000
,
00000000
00100000
00000000
01000000
,
00000000
00010000
00000000
00100000
,
00000000
00010000
00000000
00000010
,
00000000
00001001
00000000
00010000
,
00000000
00010000
00000000
00010000
,
00000000
01000000
00000000
00010000
,
00000000
00010000
00000000
01000000
,
00000000
00011000
00000000
00000010
,
00000000
00000100
00000000
00000100
,
00000000
00001001
00000000
00000010
,
00000000
00001000
00000000
00100000
,
00000000
00000000
10000000
00000000
,
10010000
00000000
01000000
00000000
,
01100000
00000000
00001000
00000000
,
00010000
00000000
00000100
00000000
,
00000001
00000000
00000001
00000000
,
00001001
00000000
00000010
00000000
,
00000110
00000000
00001000
00000000
,
01000000
00000000
00100000
00000000
,
01000000
00000000
00010000
00000000
,
10010000
00000000
00001000
00000000
,
00010000
00000000
00000000
00000000
,
00011000
00000000
00001000
00000000
,
00000010
00000000
00000000
00000000
,
00001001
00000000
00010000
00000000
,
00001000
00000000
00000000
00000000
,
00011000
00000000
00100000
00000000
,
01000000
00000000
01000000
00000000
,
01100000
00000000
00001000
00000000
,
00011000
00000000
00000100
00000000
,
00000110
00000000
00000001
00000000
,
00001001
00000000
00000010
00000000
,
00011000
00000000
00010000
00000000
,
00000000
01000000
00000000
00000000
,
00010000
00000000
00010000
00000000
,
01000000
00000000
00000000
00000000
;

//---------------dance-double - ----------------
#NOTES:
     dance-double:
     :
     Easy:
     3:
     :
00000000
00000000
00000000
00000000
,
00000000
00000000
00000000
00000000
,
00000000
00000000
00000000
00000000
,
00000000
00000000
00000000
00000000
,
00000000
00000000
00000000
00000000
,
10010000
00000000
10000000
10000000
,
00100000
00000000
01000000
00001000
,
00010000
00000000
00000010
00000000
,
00000200
00000000
00000000
00000300
,
00000001
00000000
00001000
00000010
,
00010000
00000000
00001000
00001000
,
00100000
01000000
01000000
01000000
,
00100000
00100000
00010000
00010000
,
10000000
00000000
00010000
01000000
,
00001000
00000000
00010000
00010000
,
00000100
00000010
00000010
00000010
,
00000001
00000001
00000010
00000010
,
00000100
00010000
00001000
00100000
,
00010000
00010000
00010000
00100000
,
02000000
10000000
00000000
13000000
,
00100000
10000000
00010000
01000000
,
00100000
00100000
01000000
01000000
,
00010000
00010000
00100000
00100000
,
00001000
00010000
00000100
00000010
,
00000001
00001001
00000010
00010000
,
00011000
00010000
00010000
00010000
,
00001000
01000000
00010000
00010000
,
00100000
00010000
01000000
01000000
,
00001000
00011000
00010000
00000010
,
00000110
00000100
00000100
00000100
,
00000001
00001001
00000010
00000010
,
00010000
00001000
00100000
00100000
,
00020000
00000000
10000000
10030000
,
10010000
00010000
01000000
01000000
,
01100000
01000000
00001000
00001000
,
00010000
00000000
00000100
00000010
,
00000001
00000000
00000001
00000001
,
00001001
00000001
00000010
00000010
,
00000110
00010000
00001000
00001000
,
01000000
00000000
00100000
00100000
,
01000000
00000000
00010000
00010000
,
10010000
02000000
03002000
00000000
,
00020000
00000000
00000000
00033000
,
00011000
00000200
00002300
00000000
,
00000020
00000000
00000000
00003030
,
00001010
00000020
00020030
00000000
,
00002000
00000000
00000000
00033000
,
00011000
02000000
03200000
00000000
,
01000000
01000000
01000000
01300000
,
01100000
00000000
00001000
00010000
,
00011000
00000000
00000100
00001000
,
00001100
00000000
00000001
00001000
,
00001001
00000000
00000010
00010000
,
00011000
00001000
00010000
00000000
,
00000000
01000000
01000000
00000000
,
00010000
00010000
00010000
00000000
,
01000000
00000000
00000000
00000000
;

//---------------dance-double - ----------------
#NOTES:
     dance-double:
     :
     Medium:
     6:
     :
00000000
00000000
00000000
00000000
,
00000000
00000000
00000000
00000000
,
00000000
00000000
00000000
00000000
,
00000000
00000000
00000000
00000000
,
00000000
00000000
00000000
00000000
,
10010000
00000000
00000000
00000000
00100000
00010000
10000000
10000000
,
00100000
00000000
00000000
00000000
10000000
10000000
00010000
00000000
,
01000000
00000000
00001000
00010000
,
00000200
00000000
00000000
00000300
,
00001000
00001000
00000000
00000000
00000001
00000001
00000010
00000001
,
00001000
00000000
00000000
00000000
00000100
00000100
00000100
00010000
,
00010000
00011000
00010000
00001000
,
00100000
00100000
00100000
00000000
00010000
10000000
10000000
00000000
,
01000000
01000000
00000000
00000000
00010000
00010000
10000000
00010000
,
01000000
00000000
00000000
00000000
00001000
00001000
00001000
00010000
,
00010000
00001100
00000011
00001000
,
00000100
00000100
00000100
00000000
00001000
00000001
00000001
00000000
,
00001001
00000000
00000010
00000000
00001000
00000000
00000010
00010000
,
00010000
00010000
00001000
00001000
,
01000000
00010000
00010000
00000000
10000000
00010000
00010000
00000000
,
00100000
00010000
10000000
00000000
00010000
01000000
00001000
00000000
,
00010000
00000000
00010000
00000000
00001000
00000000
00011000
00010000
,
00000100
00000000
00000100
00000000
00000010
00000010
00000010
00000000
,
00000001
00001000
00001001
00000000
00000110
00000001
00001000
00000000
,
00000100
00010000
00011000
00100000
,
00110000
00000000
00010000
10000000
00010000
00100000
00001000
00000000
,
01000000
00000000
00001000
00000000
00010000
00010000
00010000
00000000
,
00011000
00010000
00001000
00011000
,
00000100
00000000
00001100
00001000
00001000
00001000
00000001
00000000
,
00000101
00000000
00000010
00010000
00001000
01000000
00010000
00000000
,
10010000
00000000
10010000
00000000
00100000
00100000
00100000
00000000
,
00110000
10010000
01010000
01010000
,
00002000
00013000
00010000
00010000
,
00000100
00001000
00000001
00000001
00000101
00000100
00000100
00000000
,
00000110
00000010
00000100
00000000
00000001
00000000
00000001
00000000
,
00001000
00000001
00001100
00000000
00010000
00001000
00010000
00000000
,
00001000
00000000
00100000
00000000
00110000
01000000
00010000
01000000
,
10010000
00010000
10000000
10000000
10100000
00100000
00100000
00000000
,
01100000
01000000
00001000
00000000
00010000
00000000
00010000
00000000
,
00000010
00001000
00000110
00000000
00000001
00000100
00000001
00000000
,
00001000
00000000
00000001
00000000
00001001
00000010
00001000
00000010
,
00001001
00000000
00002000
00000010
00003200
00000000
00000000
00001000
,
00000000
00001000
00000000
00001000
00000000
00001000
00000300
00000000
,
00011000
00000000
00001000
00010000
00200000
00000000
00000000
00010000
,
00000000
00010000
00000000
01000000
00000000
01000000
00300000
00000000
,
00110000
00000000
00200000
00010000
02300000
00000000
00000000
10000000
,
00000000
10000000
00000000
00100000
00000000
00100000
03000000
00000000
,
00011000
00000000
00020000
00001000
00032000
00000000
00003000
00000000
,
00010000
00000100
00001000
00000010
00002000
00000000
00003000
00000000
,
00001010
00000010
00001000
00000010
00010000
00000000
00011000
00000000
,
01010000
00010000
01000000
00010000
10000000
00000000
10100000
00000000
,
10100000
10000000
00010000
01000000
01000000
00000000
01100000
00000000
,
11000000
00000000
00110000
00000000
00001000
00001000
00010000
00010000
,
00022000
00000000
00000000
00033000
,
00000000
00000010
00000100
00000010
00002000
00000000
00003000
00000000
,
00000100
00010000
00001000
00010000
00001000
00000000
00001000
00000000
,
00010000
00000000
00000000
00000000
;

//---------------dance-double - ----------------
#NOTES:
     dance-double:
     :
     Hard:
     8:
     :
00000000
00000000
00000000
00000000
,
00000000
00000000
00000000
00000000
,
00000000
00000000
00000000
00000000
,
00000000
00000000
00000000
00000000
,
00000000
00000000
00000000
00000000
,
10010000
00000000
00100000
00000000
00010000
00000000
10000000
10000000
00000000
00000000
00010000
00000000
10000000
00000000
10000000
00000000
,
01000000
10010000
00100000
00000000
00010000
10000000
00010000
00000000
,
01010000
00000000
01010000
00000000
01010000
00000000
00000000
00001000
00000000
00001000
00000000
00001000
00000000
00000000
00010000
00000000
,
00000010
00000000
00000202
00000000
00000003
00000010
00000300
00000000
,
00001001
00000000
00001001
00000000
00001001
00000000
00000010
00000100
00001000
00000000
00001000
00000000
00000010
00000000
00010000
00000000
,
00011000
00010000
00001000
00000000
00010000
00001000
00010000
00000100
,
00011000
00100000
00001000
00010000
,
00000010
00001000
00000001
00001000
00000010
00000000
00000000
00000000
00001000
00000000
00000001
00000100
00000001
00000000
00000000
00000000
,
00001000
00000000
00001100
00000000
00000011
00000000
00000000
00000000
00001000
00000001
00001000
00000001
00000100
00000000
00000001
00000000
,
00001000
00000000
00001100
00000000
00001100
00000000
00000000
00000000
00010000
00000000
00010000
00000000
00010000
00000000
00001000
01000000
,
01000000
01100000
00000000
11000000
00000000
00110000
00000000
00000000
,
01000000
00010000
01000000
00010000
01000000
00000000
00000000
00000000
00010000
01000000
00000000
01000000
00000000
01000000
00000000
00000000
,
00011000
00000000
00011000
00000000
00010000
00000000
00000100
00001000
00000001
00000000
00000001
00000000
00000100
00000000
00000001
00000000
,
00000010
00000100
00001100
00000000
00001100
00001100
00000100
00010000
,
00011000
02020000
00000000
03030000
,
01000000
00010000
10000000
00010000
01000000
00000000
00000000
00000000
00001000
00000000
00010000
00001000
00010000
00000000
00000000
00000000
,
00001000
00000000
00010000
00000000
00010000
00000000
00000000
00000000
00000100
00001000
00000010
00001000
00000100
00000000
00001000
00000000
,
00000001
00000000
00001000
00000000
00001001
00000000
00000000
00000000
00000100
00000000
00000100
00000000
00000100
00000000
00000010
00000001
,
00000010
00000110
00000000
00001100
00000000
00000011
00000000
00000000
,
00000010
00000001
00000010
00000001
00000010
00000000
00000000
00000000
00000100
00001000
00000000
00001000
00000000
00001000
00000000
00000000
,
00000100
00000000
00000000
00000000
00011000
00000000
00010000
00001000
00000000
00010000
00001000
00000000
00010000
00000000
00000000
00000000
,
00011000
00000000
00001000
00000000
01000000
00000000
01000000
00000000
10010000
00000000
00000000
01100000
00000000
00000000
00010000
00000000
,
01010000
10000000
01010000
00000000
00001000
00011000
00011000
00000000
,
00011000
00000000
00000100
00000000
00001000
00000000
00001000
00000001
00000000
00000000
00000001
00000000
00000001
00000000
00000000
00000000
,
00001001
00000000
00000000
00000000
00000110
00000000
00001000
00001000
00000000
00000010
00000010
00000000
00001000
00000000
00000000
00000000
,
00000100
00000000
00010000
00000000
00001000
00000000
00001000
00000000
00011000
00000000
00000000
00100000
00000000
01000000
10000000
00000000
,
10000000
00010000
10100000
00000000
01000000
00100000
01100000
00000000
,
02020000
00000000
00000000
00000000
03030000
00000000
00000000
00000000
10010000
00000000
00000000
10100000
00000000
00000000
00010000
00000000
,
00110000
00000000
00001000
00000000
00010000
00000000
00000010
00000100
00000000
00000000
00000100
00000000
00000100
00000000
00000000
00000000
,
00000110
00000010
00000100
00000000
00001001
00000010
00000101
00000000
,
00001001
00000001
00000010
00000000
00010000
00001000
00011000
00000000
,
00100000
00000000
00100000
00000000
00010000
00000000
00000000
00000000
10000000
00010000
01000000
00010000
10000000
00010000
01000000
00000000
,
10010000
10000000
00000000
00010000
01100000
00100000
01000000
00000000
,
00001000
00011000
00011000
00000000
00011000
00000010
00001000
00000000
,
00001001
00000000
00000001
00000000
00000100
00000000
00000001
00000010
00000000
00000001
00001000
00000000
00000010
00000000
00000000
00000000
,
00000110
00000000
00000001
00000000
00001010
00000100
00001001
00000010
,
00001001
00000000
00000002
00000010
00001003
00000001
00000000
00000010
,
00000001
00000100
00000010
00001000
00000100
00001000
00000100
00000000
,
00011000
00000000
00001000
01000000
00020000
00000000
00030000
00100000
,
00010000
01000000
00100000
10000000
01000000
10000000
00010000
00000000
,
10100000
00000000
00200000
10000000
02300000
00000000
00000000
03000000
,
00100000
10000000
01000000
00100000
00001000
00010000
00001000
00000000
,
00010000
00000000
00000010
00001000
00000100
00000000
00000100
00000000
,
00001001
00000000
00000010
00000000
00000000
00000000
00000001
00000000
00001100
00000000
00000000
00001001
00000000
00000000
00000001
00000000
,
00001010
00000000
00001000
00000001
00001000
00000000
00000100
00000000
00010000
00000000
00000000
00000000
00001000
00000000
00000000
00000000
,
00001000
00000000
01000000
00010000
01000000
00000000
00010000
00000000
10010000
00000000
00000000
00000000
10010000
00000000
00000000
00000000
,
10100000
00000000
00100000
01000000
00010000
00000000
10000000
00000000
11000000
00000000
00000000
00000000
00110000
00000000
00000000
00000000
,
00001000
00000000
00010000
00001000
00010000
00000000
00000010
00000000
00000011
00000000
00000000
00000000
00001100
00000000
00000000
00000000
,
00002002
00000000
00000000
00000000
00000000
00000000
00003003
00000110
,
00001000
00000100
00010000
00001000
00010000
00000000
00010000
00000000
,
00001000
00100000
00010000
10000000
10100000
00000000
10100000
00000000
,
01010000
00000000
00000000
00000000
;
