#TITLE:GORGEOUS 2012;
#ARTIST:THE SURRENDERS;
#BANNER:GORGEOUS 2012.png;
#BACKGROUND:GORGEOUS 2012-bg.png;
#CDTITLE:./CDTITLES/Song Pack 6.png;
#MUSIC:GORGEOUS 2012.ogg;
#SAMPLESTART:49.742;
#SAMPLELENGTH:15;
#DISPLAYBPM:135;
#BPMS:0=135.849,4=135.009;

//---------------dance-single - ----------------
#NOTES:
     dance-single:
     :
     Beginner:
     1:
     :
0000
0000
0000
0000
,
0000
0000
0000
0000
,
0000
0000
0000
0000
,
0000
0000
0000
0000
,
0000
0000
0000
0000
,
0000
0000
0000
0000
,
1000
0000
1000
0000
,
0010
0000
0001
0000
,
1000
0000
0010
0000
,
1000
0000
0000
0001
,
0000
0000
0100
0000
,
0100
0000
0001
0000
,
0100
0000
1000
0000
,
0100
0000
1001
0000
,
1001
0000
0010
0000
,
0010
0000
1000
0000
,
0010
0000
0001
0000
,
0010
0000
1001
0000
,
0000
0110
0000
0000
,
0000
0000
0000
0000
,
1001
0000
0110
0000
,
0110
0000
1001
0000
,
0000
0110
0000
0000
,
0000
0000
0000
0000
,
1001
0000
0000
0000
,
1000
0000
0010
0000
,
0010
0000
1000
0000
,
0010
0000
1000
0000
,
0001
0000
0001
0000
,
1000
0000
0000
0100
,
0000
1000
0000
1000
,
0000
0010
0000
0010
,
0000
1000
0000
1000
,
0000
0100
0000
0010
,
0000
0001
0000
0001
,
0000
0100
0000
0100
,
0000
0000
0000
0100
,
0000
0000
0010
0000
,
0110
0000
0000
0001
,
0000
0000
1000
0000
,
0000
0000
0000
0000
,
0000
0000
0000
0000
,
0000
0000
0000
0000
,
0000
0000
0000
0000
,
1001
0000
0000
0000
,
0001
0000
1000
0000
,
0010
0000
0001
0000
,
0100
0000
1000
0000
,
1001
0000
0001
0000
,
0001
0000
0100
0000
,
0010
0000
0001
0000
,
0100
0000
0001
0000
,
1000
0000
0000
0000
,
0010
0000
1000
0000
;

//---------------dance-single - ----------------
#NOTES:
     dance-single:
     :
     Easy:
     3:
     :
0000
0000
0000
0000
,
0000
0000
0000
0000
,
0000
0000
0000
0000
,
0000
0000
0000
0000
,
0000
0000
0000
0000
,
0000
0000
0000
0000
,
1000
1000
1000
0000
,
0010
0010
0001
0000
,
2000
3001
0020
1030
,
2000
0000
0000
3001
,
1001
0000
0100
0010
,
0100
0000
0001
0010
,
0100
0000
1000
0001
,
0100
0000
2002
3003
,
1001
0000
0010
0100
,
0010
0000
1000
0100
,
0010
0000
0001
1000
,
0010
0000
2002
3003
,
0000
0220
0000
0000
,
0000
0000
0000
0330
,
1001
0000
1100
0000
,
0110
0000
0011
0000
,
0000
0220
0000
0000
,
0000
0000
0000
0330
,
1001
0000
0000
0000
0000
1000
0000
0000
,
1000
0000
0010
0000
,
0010
0010
0000
0000
1000
1000
0000
0000
,
0010
0010
0000
1000
1000
0000
0000
0000
,
0001
0001
0001
0001
,
2000
3020
0030
0100
,
1000
1000
1000
1000
,
0001
0010
0001
0010
,
1000
1000
1000
1000
,
0002
0203
0300
0010
,
0001
0001
0001
0001
,
1000
0100
1000
0100
,
2002
0000
3003
0100
,
0000
0010
0000
0000
0010
0000
0000
0000
,
0220
0000
0330
0001
,
0000
1000
0000
0000
1000
0000
0000
0000
,
0000
0010
0000
1000
0000
0010
0000
1000
,
0000
0010
0000
1000
0000
0001
0000
0010
,
0000
0001
0000
0010
0000
0001
0000
0100
,
0000
0010
0000
0100
0000
0001
0000
0000
,
2002
0000
0000
3003
,
0001
0001
1000
1000
,
0010
0100
0001
0001
,
0100
0010
1000
1000
,
1001
0000
0001
0010
,
0001
0100
0100
0100
,
0020
2030
3002
0000
,
0203
0300
0001
1000
,
2000
0000
3000
0000
,
0010
0010
0000
1000
1000
0000
0000
0000
;

//---------------dance-single - ----------------
#NOTES:
     dance-single:
     :
     Medium:
     5:
     :
0000
0000
0000
0000
,
0000
0000
0000
0000
,
0000
0000
0000
0000
,
0000
0000
0000
0000
,
0000
0000
0000
0000
,
0000
0000
0000
0000
,
1001
0000
1000
0000
1000
0001
1000
0000
,
0010
0000
0010
0000
0001
1000
0001
0000
,
2000
0000
3001
1000
0002
0000
1003
0001
,
0200
0000
0301
0100
0020
0000
1030
0010
,
1001
0000
1001
0000
0100
0001
0020
0000
,
0130
0000
0110
0000
0001
1000
0020
0000
,
0130
0000
0110
0000
1000
0001
0020
0000
,
0031
0011
2002
3003
,
1001
0000
1001
0000
0010
1000
0200
0000
,
0310
0000
0110
0000
1000
0001
0200
0000
,
0310
0000
0110
0000
0001
1000
0200
0000
,
1300
1100
2002
3003
,
1001
0000
0020
0000
0000
0100
0000
0000
,
0000
0000
0100
0000
0000
0000
0000
0000
0030
0000
1000
0000
0000
1000
0000
0000
,
1001
0000
0000
0000
0000
1010
0000
0000
,
0000
0000
0110
0000
0000
0000
0000
0000
0000
0000
0011
0000
0000
0011
0000
0000
,
0011
0000
0200
0000
0000
0010
0000
0000
,
0000
0000
0010
0000
0000
0000
0000
0000
0300
0000
0010
0000
0000
0010
0000
0000
,
1001
0001
0002
0000
0003
1000
1000
1000
,
0000
0000
0100
0100
0100
0000
0000
1000
,
0010
0100
0000
0001
1000
0100
0000
0010
,
0001
1000
0000
1000
2000
0000
0000
0000
,
3001
0000
0001
0000
0001
0100
0001
0000
,
2000
0000
3010
1000
0020
0000
0130
0001
,
1000
0000
1000
0000
1000
0001
1000
0000
,
0001
0000
0010
0001
1000
0000
0010
0000
,
1000
0000
1000
0000
1000
0010
1000
0000
,
0002
0000
0103
0001
0200
0000
0310
1000
,
0001
0000
0001
0000
0001
1000
0001
0000
,
1000
0000
0100
1000
0001
0000
0100
0000
,
1001
0000
0000
1000
0000
0000
0010
0000
0000
0100
0000
0000
1001
0000
0000
0000
,
0000
0000
0010
0000
0000
1000
0000
0000
0001
0000
0000
0100
0000
0000
0000
0000
,
0000
0000
0000
0001
0000
0000
0100
0000
0000
0010
0000
0000
1000
0000
0000
0000
,
0000
0000
0000
0000
0100
0000
0000
0000
0000
0000
0000
0001
0000
0000
0000
0000
0000
0000
1000
0000
0000
0000
0000
0010
0000
0000
0000
0000
0000
0000
0000
0000
,
0000
0100
0000
1000
0000
0110
0000
1001
,
0000
0010
0000
1000
0000
1100
0000
0011
,
0000
0001
0000
0010
0000
1001
0000
0110
,
0000
0010
0000
0100
0000
0001
1000
0001
,
2002
0000
0000
3003
,
0001
0000
1000
0010
1000
0000
0001
0000
,
0010
0000
0100
1000
0001
0000
0001
1000
,
0100
0000
0010
0001
1000
0000
1000
0000
,
2002
0000
3003
0000
0001
0001
0010
0010
,
0002
0000
0203
0000
0301
1000
0100
0000
,
0020
0000
0032
0000
1003
1000
0010
0010
,
0200
0000
0301
0001
2000
0000
3001
0001
,
1000
0001
0000
0000
0000
0000
0000
1000
,
0010
0010
0000
1000
0001
0000
1001
0000
;

//---------------dance-single - ----------------
#NOTES:
     dance-single:
     :
     Hard:
     7:
     :
0000
0000
0000
0000
,
0000
0000
0000
0000
,
0000
0000
0000
0000
,
0000
0000
0000
0000
,
0000
0000
0000
0000
,
0000
0000
0000
0000
,
1001
0000
0110
0001
1000
0001
1000
0000
,
1010
0000
1100
1000
0001
1000
0010
0000
,
1000
0010
1001
1000
0001
0010
1001
0001
,
0101
0000
0001
0100
0120
0000
1030
0010
,
1000
0001
1001
0000
0010
1000
0010
0000
,
1100
0000
0110
0000
0101
1000
0010
0000
,
0110
0000
0110
0000
1000
0001
0010
0000
,
0011
0000
1001
0000
2000
3000
1000
0000
,
1001
0010
1000
0002
0013
0001
0100
0000
,
0110
0000
1010
0000
1001
0001
0100
0000
,
0010
0000
0110
0000
0001
1000
0010
0000
,
1010
0002
1003
0010
1000
0020
0130
0000
,
0110
1000
0020
0000
0030
0101
0020
0000
,
0030
0000
0101
0000
0020
0000
0000
0000
0030
0000
0101
0000
0000
1001
0000
0000
,
1010
0000
0000
0100
0000
0001
0001
0100
0000
0000
0101
0000
0000
0000
0000
0000
,
0000
0000
0110
0000
0000
0000
0000
0000
0000
0000
0011
0000
0000
1001
0000
0000
,
1010
0000
0200
0000
0300
1010
0200
0000
,
0300
0000
1010
0000
0200
0000
0000
0000
0300
0000
0011
0000
0000
1001
0000
0000
,
1100
0000
0002
0000
0003
0000
0100
0001
0100
0000
0101
0000
0000
0000
0000
0000
,
1000
0001
0010
0002
0000
0000
0000
0000
0000
0000
0003
0000
0000
0000
1001
0000
,
0110
0101
0000
1001
1010
1100
0000
0110
,
1001
1001
0000
1000
0010
0000
1001
0000
,
0002
0103
0001
1000
0200
0310
0100
0000
,
1000
0001
1010
1000
0010
0000
0110
0001
,
2000
3001
2000
3001
2000
3001
1000
0000
,
0001
0000
0000
0100
0010
0000
0000
1000
0001
0000
0000
0100
0010
0000
0000
0000
,
2000
3010
1000
0101
0020
0130
0010
0000
,
0001
1000
0101
1001
0100
0000
0110
1000
,
0002
1003
0002
1003
0002
1003
0001
0000
,
1000
0000
0000
0010
0100
0000
0000
0001
1000
0000
0000
0010
0100
0000
0000
0001
,
1001
0000
0000
1001
0000
0000
0110
0000
0000
0101
0000
0000
1001
0000
0000
0000
,
0000
0000
1010
0000
0000
1100
0000
0000
0011
0000
0000
0110
0000
0000
0000
0000
,
0000
0000
0000
0011
0000
0000
0110
0000
0000
1010
0000
0000
1001
0000
0000
0000
,
0000
0000
0000
0000
0110
0000
0000
0000
0000
0000
0000
1001
0000
0000
0000
0000
0000
0000
1100
0000
0000
0000
0000
0011
0000
0000
0000
0000
0000
0000
0000
0000
,
0000
1001
0100
0001
1000
0001
0100
1001
,
0000
1001
0010
1000
0001
1000
0010
1001
,
0000
1001
0100
0010
1000
0001
0100
0110
,
0000
0001
1000
0100
1000
0001
1000
0010
,
2002
0000
0000
0000
3003
0100
0001
0100
,
1000
0001
1010
1000
0010
0000
0110
0001
,
2000
3001
2000
3001
2000
3001
1000
0000
,
0001
0000
0000
0100
0010
0000
0000
1000
0001
0000
0000
0100
0010
0000
0000
0000
,
2000
3010
1000
0101
0020
0130
0010
0000
,
0001
1000
0101
1001
0100
0000
0110
1000
,
0002
1003
0002
1003
0002
1003
0001
0000
,
1000
0000
0000
0010
0100
0000
0000
0001
1000
0000
0000
0010
0100
0000
0000
0001
,
1001
0001
0000
0000
0000
0000
0000
1000
,
0010
0010
0000
1000
0001
0000
1001
0000
;

//---------------dance-double - ----------------
#NOTES:
     dance-double:
     :
     Beginner:
     1:
     :
00000000
00000000
00000000
00000000
,
00000000
00000000
00000000
00000000
,
00000000
00000000
00000000
00000000
,
00000000
00000000
00000000
00000000
,
00000000
00000000
00000000
00000000
,
00000000
00000000
00000000
00000000
,
10000000
00000000
10000000
00000000
,
00100000
00000000
00010000
00000000
,
01000000
00000000
00010000
00000000
,
00001000
00000000
00000000
00000001
,
00000000
00000000
00000100
00000000
,
00010000
00000000
00001000
00000000
,
01000000
00000000
10000000
00000000
,
01000000
00000000
10010000
00000000
,
00011000
00000000
00000010
00000000
,
00000010
00000000
00001000
00000000
,
00010000
00000000
00001000
00000000
,
00010000
00000000
10010000
00000000
,
00000000
01100000
00000000
00000000
,
00000000
00000000
00000000
00000000
,
10010000
00000000
00011000
00000000
,
00000110
00000000
00001001
00000000
,
00000000
00000110
00000000
00000000
,
00000000
00000000
00000000
00000000
,
00000110
00000000
00000000
00000000
,
00001000
00000000
00100000
00000000
,
00010000
00000000
10000000
00000000
,
00100000
00000000
01000000
00000000
,
00000010
00000000
00000010
00000000
,
00001000
00000000
00000000
00000100
,
00000000
00001000
00000000
00010000
,
00000000
01000000
00000000
00010000
,
00000000
10000000
00000000
10000000
,
00000000
01000000
00000000
00001000
,
00000000
00010000
00000000
00010000
,
00000000
00000100
00000000
00000100
,
00000000
00000000
00000000
00000100
,
00000000
00000000
00010000
00000000
,
00011000
00000000
00000000
01000000
,
00000000
00000000
00010000
00000000
,
00000000
00000000
00000000
00000000
,
00000000
00000000
00000000
00000000
,
00000000
00000000
00000000
00000000
,
00000000
00000000
00000000
00000000
,
00001001
00000000
00000000
00000000
,
00000001
00000000
00001000
00000000
,
00000010
00000000
00001000
00000000
,
01000000
00000000
10000000
00000000
,
10010000
00000000
00010000
00000000
,
00001000
00000000
00010000
00000000
,
00001000
00000000
00010000
00000000
,
00000100
00000000
00001000
00000000
,
00001000
00000000
00000000
00000000
,
00000010
00000000
00001000
00000000
;

//---------------dance-double - ----------------
#NOTES:
     dance-double:
     :
     Easy:
     3:
     :
00000000
00000000
00000000
00000000
,
00000000
00000000
00000000
00000000
,
00000000
00000000
00000000
00000000
,
00000000
00000000
00000000
00000000
,
00000000
00000000
00000000
00000000
,
00000000
00000000
00000000
00000000
,
10000000
10000000
10000000
00000000
,
00100000
00100000
00010000
00000000
,
02000000
03001000
00020000
00030010
,
00002000
00000000
00000000
00003001
,
00001001
00000000
00000100
00000010
,
00010000
00000000
00001000
00100000
,
01000000
00000000
10000000
00010000
,
01000000
00000000
00220000
00330000
,
00011000
00000000
00000010
00000100
,
00000010
00000000
00001000
00000100
,
00010000
00000000
00001000
01000000
,
00010000
00000000
20020000
30030000
,
00000000
02200000
00000000
00000000
,
00000000
00000000
00000000
03300000
,
00110000
00000000
00011000
00000000
,
00001100
00000000
00001001
00000000
,
00000000
00000220
00000000
00000000
,
00000000
00000000
00000000
00000330
,
00001100
00000000
00000000
00000000
00000000
00010000
00000000
00000000
,
00001000
00000000
00100000
00000000
,
00010000
00010000
00000000
00000000
10000000
10000000
00000000
00000000
,
00100000
00100000
00000000
01000000
01000000
00000000
00000000
00000000
,
00000010
00000010
00000010
00000010
,
00002000
00003020
00000030
00000100
,
00001000
00001000
00000100
00010000
,
00001000
01000000
00010000
00010000
,
10000000
10000000
10000000
10000000
,
00020000
02030000
03000000
00001000
,
00010000
00010000
00010000
00010000
,
00011000
00000100
00001000
00000100
,
00002002
00000000
00003003
00000100
,
00000000
00000010
00000000
00000000
00010000
00000000
00000000
00000000
,
00022000
00000000
00033000
01000000
,
00000000
00010000
00000000
00000000
00010000
00000000
00000000
00000000
,
00000000
00100000
00000000
10000000
00000000
00100000
00000000
10000000
,
00000000
00100000
00000000
01000000
00000000
00001000
00000000
00100000
,
00000000
00001000
00000000
00010000
00000000
00000100
00000000
00001000
,
00000000
00000010
00000000
00000100
00000000
00000001
00000000
00000000
,
00002002
00000000
00000000
00003003
,
00000001
00000001
00001000
00001000
,
00000010
00010000
00001000
00001000
,
01000000
00100000
10000000
10000000
,
10010000
00000000
00010000
00100000
,
00001000
00010000
00010000
00010000
,
00002000
00003000
00020000
00030000
,
00000200
00000300
00001000
00000001
,
00002000
00000000
00003000
00000000
,
00000010
00000010
00000000
00001000
00001000
00000000
00000000
00000000
;

//---------------dance-double - ----------------
#NOTES:
     dance-double:
     :
     Medium:
     5:
     :
00000000
00000000
00000000
00000000
,
00000000
00000000
00000000
00000000
,
00000000
00000000
00000000
00000000
,
00000000
00000000
00000000
00000000
,
00000000
00000000
00000000
00000000
,
00000000
00000000
00000000
00000000
,
10010000
00000000
10000000
00000000
10000000
00010000
10000000
00000000
,
00100000
00000000
00100000
00000000
00010000
10000000
00010000
00000000
,
02000000
00000000
03001000
00010000
00002000
00000000
00013000
00000100
,
00002000
00000000
00003001
00001000
00000020
00000000
00001030
00000010
,
00001001
00000000
00001001
00000000
00000100
00000001
00000020
00000000
,
00000130
00000000
00000110
00000000
00000100
00010000
00002000
00000000
,
00013000
00000000
00011000
00000000
01000000
00010000
00200000
00000000
,
00310000
00110000
20020000
30030000
,
10010000
00000000
00110000
00000000
00001000
00010000
00000200
00000000
,
00001300
00000000
00001100
00000000
00001000
00000001
00000200
00000000
,
00000310
00000000
00000110
00000000
00000010
00001000
00000200
00000000
,
00010300
00001000
02000000
03000000
,
00110000
00000000
00200000
00000000
00000000
01000000
00000000
00000000
,
00000000
00000000
01000000
00000000
00000000
00000000
00000000
00000000
00300000
00000000
10000000
00000000
00000000
10000000
00000000
00000000
,
10010000
00000000
00000000
00000000
00000000
00110000
00000000
00000000
,
00000000
00000000
00011000
00000000
00000000
00000000
00000000
00000000
00000000
00000000
00001100
00000000
00000000
00001100
00000000
00000000
,
00001100
00000000
00000200
00000000
00000000
00000010
00000000
00000000
,
00000000
00000000
00000010
00000000
00000000
00000000
00000000
00000000
00000300
00000000
00000010
00000000
00000000
00000100
00000000
00000000
,
00001100
00010000
00020000
00000000
00030000
00001000
00001000
00001000
,
00000000
00000000
01000000
01000000
01000000
00000000
00000000
00100000
,
00100000
01000000
00000000
00010000
10000000
01000000
00000000
00100000
,
00010000
01000000
00000000
01000000
02000000
00000000
00000000
00000000
,
03001000
00000000
00001000
00000000
00001000
00010000
00000100
00000000
,
00002000
00000000
00003010
00001000
00000020
00000000
00000130
00000001
,
00001000
00000000
00001000
00000000
00001000
00000100
00010000
00000000
,
00001000
00000000
01000000
00010000
10000000
00000000
00100000
00000000
,
10000000
00000000
10000000
00000000
10000000
00100000
01000000
00000000
,
00002000
00000000
00013000
00010000
00000200
00000000
00001300
00000010
,
00000100
00000000
00000100
00000000
00000100
00000001
00001000
00000000
,
00000100
00000000
00010000
00001000
01000000
00000000
00010000
00000000
,
10010000
00000000
00000000
10000000
00000000
00000000
00100000
00000000
00000000
01000000
00000000
00000000
10010000
00000000
00000000
00000000
,
00000000
00000000
00010000
00000000
00000000
00100000
00000000
00000000
00001000
00000000
00000000
00010000
00000000
00000000
00000000
00000000
,
00000000
00000000
00000000
00000010
00000000
00000000
00000100
00000000
00000000
00000010
00000000
00000000
00001000
00000000
00000000
00000000
,
00000000
00000000
00000000
00000000
00000100
00000000
00000000
00000000
00000000
00000000
00000000
00010000
00000000
00000000
00000000
00000000
00000000
00000000
00001000
00000000
00000000
00000000
00000000
00100000
00000000
00000000
00000000
00000000
00000000
00000000
00000000
00000000
,
00000000
01000000
00000000
10000000
00000000
01100000
00000000
10010000
,
00000000
00100000
00000000
10000000
00000000
11000000
00000000
00110000
,
00000000
00001000
00000000
00010000
00000000
00011000
00000000
00001100
,
00000000
00000010
00000000
00000100
00000000
00000001
00001000
00000001
,
00002002
00000000
00000000
00003003
,
00000001
00000000
00001000
00000010
00010000
00000000
00010000
00000000
,
00001000
00000000
01000000
00010000
10000000
00000000
10000000
00010000
,
01000000
00000000
00100000
10000000
10000000
00000000
10000000
00000000
,
02020000
00000000
03030000
00000000
00001000
00001000
00100000
00100000
,
00002000
00000000
00023000
00000000
00030100
00001000
00000100
00000000
,
00000020
00000000
00000032
00000000
00001003
00001000
00000010
00000010
,
00000200
00000000
00000301
00000001
00002000
00000000
00003100
00000100
,
00010000
00001000
00000000
00000000
00000000
00000000
00000000
01000000
,
00100000
00100000
00000000
10000000
00010000
00000000
10010000
00000000
;

//---------------dance-double - ----------------
#NOTES:
     dance-double:
     :
     Hard:
     7:
     :
00000000
00000000
00000000
00000000
,
00000000
00000000
00000000
00000000
,
00000000
00000000
00000000
00000000
,
00000000
00000000
00000000
00000000
,
00000000
00000000
00000000
00000000
,
00000000
00000000
00000000
00000000
,
10010000
00000000
01100000
00010000
10000000
00010000
10000000
00000000
,
10100000
00000000
10010000
10000000
00010000
10000000
00100000
00000000
,
01000000
00001000
00000000
01000000
00001000
00010000
00011000
00000100
,
00001000
00000000
00001001
00000100
00000010
00000000
00001010
00000010
,
00002000
00003001
00001001
00000000
00000100
00001000
00000010
00000000
,
00010000
00000000
00011000
00000000
01000000
00010000
00100000
00000000
,
11000000
00000000
01100000
00000000
10010000
00010000
00100000
00000000
,
01100000
00000000
00110000
00000000
00001000
00002000
00013000
00000000
,
00011000
00000100
00000010
00000002
00000013
00000001
00000100
00000000
,
00000110
00000000
00001001
00000000
00001000
00000100
00010000
00000000
,
00011000
00000000
00100000
00000000
00001000
00001000
00200000
00000000
,
00310000
20000000
30010000
00100000
00010000
02000000
03100000
00000000
,
01100000
10000000
00200000
00000000
00300000
01010000
00200000
00000000
,
00300000
00000000
01010000
00000000
00200000
00000000
00000000
00000000
00300000
00000000
01010000
00000000
00000000
00011000
00000000
00000000
,
00011000
00000000
00000000
00010000
00000000
00000100
00001000
00000010
00000000
00000000
00001010
00000000
00000000
00000000
00000000
00000000
,
00000000
00000000
00000110
00000000
00000000
00000000
00000000
00000000
00000000
00000000
00000101
00000000
00000000
00001001
00000000
00000000
,
00001010
00000000
00002000
00000000
00003000
00000110
00002000
00000000
,
00003000
00000000
00000110
00000000
00002000
00000000
00000000
00000000
00003000
00000000
00000100
00000000
00000000
00011000
00000000
00000000
,
00110000
00000000
00020000
00000000
00030000
00000000
01000000
00010000
01000000
00000000
10010000
00000000
00000000
00000000
00000000
00000000
,
10000000
00010000
00100000
00020000
00000000
00000000
00000000
00000000
00000000
00000000
00030000
00000000
00000000
00000000
01000000
00000000
,
00011000
00011000
00000000
00001000
00010000
00001100
00000000
00000110
,
00001001
00001001
00000000
00001000
00000010
00000000
00001001
00000000
,
00000002
00000103
00000001
00001000
00000200
00000310
00001000
00000000
,
00001000
00000001
00001100
00001100
00010000
00000000
00011000
01000000
,
00020000
01030000
00020000
10030000
00020000
10030000
00010000
00000000
,
00010000
00000000
00000000
01000000
00100000
00000000
00000000
10000000
00010000
00000000
00000000
01000000
00100000
00000000
00000000
00000000
,
20000000
30100000
01000000
00001000
00020000
00030100
00001000
00000000
,
00000100
00000010
00001100
00001100
00000010
00000000
00000110
00001000
,
00000002
00001003
00000002
00001003
00000002
00001003
00000001
00000000
,
00000100
00000000
00000000
00000010
00001000
00000000
00000000
00000100
00010000
00000000
00000000
00001000
00100000
00000000
00000000
00000000
,
01010000
00000000
00000000
01010000
00000000
00000000
01100000
00000000
00000000
10010000
00000000
00000000
11000000
00000000
00000000
00000000
,
00000000
00000000
10100000
00000000
00000000
11000000
00000000
00000000
00110000
00000000
00000000
01100000
00000000
00000000
00000000
00000000
,
00000000
00000000
00000000
00110000
00000000
00000000
00011000
00000000
00000000
00011000
00000000
00000000
00001100
00000000
00000000
00000000
,
00000000
00000000
00000000
00000000
00000110
00000000
00000000
00000000
00000000
00000000
00000000
00001001
00000000
00000000
00000000
00000000
00000000
00000000
00001100
00000000
00000000
00000000
00000000
00000011
00000000
00000000
00000000
00000000
00000000
00000000
00000000
00000000
,
00000000
00001001
00000100
00000001
00001000
00000001
00000100
00001001
,
00000000
00001001
00000010
00010000
00001000
01000000
00010000
10010000
,
00000000
10010000
10000000
00100000
01000000
00100000
10000000
01100000
,
00000000
00010000
10000000
01000000
10000000
00010000
01000000
00001000
,
00022000
00000000
00000000
00000000
00033000
00000010
00001000
00000010
,
00001000
00000001
00001010
00001000
00000010
00000000
00000110
00000001
,
00002000
00003001
00002000
00003001
00002000
00003001
00001000
00000000
,
00000001
00000000
00000000
00001000
00000100
00000000
00000000
00010000
00001000
00000000
00000000
00010000
00001000
00000000
00000000
00000000
,
02000000
03010000
00100000
00010000
00200000
01300000
00100000
00000000
,
00010000
10000000
01010000
00010000
01000000
00000000
01100000
10000000
,
00020000
10030000
00020000
01030000
00020000
01030000
00010000
00000000
,
01000000
00000000
00000000
00010000
00100000
00000000
00000000
00001000
00010000
00000000
00000000
00000100
00001000
00000000
00000000
00000000
,
00001001
00000001
00000000
00000000
00000000
00000000
00000000
00001000
,
00000010
00000010
00000000
00001000
00000001
00000000
00001001
00000000
;
