#TITLE:GET IT ALL;
#ARTIST:BRASS TRICKS;
#BANNER:GET IT ALL.png;
#BACKGROUND:GET IT ALL-bg.png;
#CDTITLE:./CDTITLES/Song Pack 5.png;
#MUSIC:GET IT ALL.ogg;
#SAMPLESTART:23.962;
#SAMPLELENGTH:15;
#DISPLAYBPM:140;
#BPMS:0=140.078,8=140.017;

//---------------dance-single - ----------------
#NOTES:
     dance-single:
     :
     Beginner:
     1:
     :
0000
0000
0000
0000
,
0000
0000
0000
0000
,
0000
0000
0000
0000
,
0000
0000
0000
0000
,
0000
0000
0000
0000
,
0100
0000
0100
0000
,
1000
0000
1000
0000
,
0001
0000
0110
0000
,
0100
0000
1000
0000
,
0001
0000
1000
0000
,
0001
0000
0001
0000
,
1001
0000
0100
0000
,
0100
0000
0001
0000
,
0110
0000
0001
0000
,
1001
0000
0000
0001
,
0000
0010
0000
0001
,
0000
0001
0000
0100
,
0000
1000
0000
0001
,
0000
0100
0000
0001
,
0000
0010
0000
1000
,
0000
0010
0000
1000
,
0000
0001
0000
0100
,
0000
0000
1001
0000
,
0001
0000
0100
0000
,
0110
0000
1001
0000
,
1000
0000
0010
0000
,
1001
0000
0000
1000
,
0000
1000
0000
0100
,
0000
0010
0000
1000
,
0000
1000
0000
0100
,
0000
0001
0000
1000
,
0000
1001
0000
0100
,
0000
0010
0000
1000
,
0000
1000
0000
0001
,
0000
0001
0000
0001
,
0000
0100
0000
0000
,
0001
0000
0001
0000
,
0100
0000
0001
0000
,
0001
0000
0001
0000
,
0100
0000
0010
0000
,
0110
0000
1000
0000
,
0100
0000
0001
0000
,
1001
0000
0010
0000
,
0100
0000
1000
0000
,
1000
0000
0100
0000
,
1000
0000
1000
0000
,
0001
0000
0100
0000
,
0001
0000
0001
0000
,
0100
0000
1000
0000
,
0100
0000
0100
0000
,
0010
0000
0001
0000
,
0010
0000
0010
0000
,
1001
0000
0110
0000
,
1001
0000
0000
0000
;

//---------------dance-single - ----------------
#NOTES:
     dance-single:
     :
     Easy:
     4:
     :
0000
0000
0000
0000
,
0000
0000
0000
0000
,
0000
0000
0000
0000
,
0000
0000
0000
0000
,
0000
0000
0000
0000
,
0200
0320
0230
0320
,
1030
1000
1000
1000
,
0001
0001
0101
0010
,
0100
1000
1000
0100
,
0002
0000
1000
0203
,
0301
0001
0001
0001
,
0011
0010
0100
1000
,
0100
0001
0001
0100
,
0101
0000
0001
0010
,
0011
0001
0000
0001
,
0010
0010
0100
0001
,
1000
0001
1000
0100
,
1000
0000
1000
0010
1000
0000
0001
0000
,
0101
0100
0001
0001
,
0001
0010
0100
1000
,
1001
0010
0100
1000
,
0001
0001
1001
0100
,
1100
0000
1001
0000
,
0001
0010
0100
1000
,
1100
0000
1001
0000
,
1000
0100
0010
0001
,
1001
0000
0000
1000
,
1001
1000
0010
0100
,
0100
0010
0001
1000
,
0010
1000
1001
0100
,
0001
0001
0001
1000
,
1000
1001
0001
0100
,
0010
0010
1000
1000
,
0010
1000
1000
0001
,
0100
0001
0101
0001
,
0100
0200
0000
0300
,
0001
1000
0001
0001
,
0100
1000
0001
0100
,
0001
0100
0001
0001
,
0100
1000
0010
0100
,
0110
1000
1000
0010
,
0100
0100
0001
1000
,
1001
0010
0010
0100
,
0100
0001
2000
3100
,
2000
0000
0000
0002
3000
0000
0000
0000
0203
0000
0000
0000
0310
0000
0000
0000
,
1000
1000
1000
1000
,
0002
0000
0000
2000
0003
0000
0000
0000
3200
0000
0000
0000
0310
0000
0000
0000
,
0001
0001
0001
0001
,
0100
0000
0000
0010
0000
0000
0000
0000
1000
0000
0000
0000
1001
0000
0000
0000
,
0100
0100
0100
0100
,
0010
0000
0000
0100
0000
0000
0000
0000
0001
0000
0000
0000
1001
0000
0000
0000
,
0010
0010
0010
0010
,
1001
0000
0110
0000
,
1001
0000
0000
0000
;

//---------------dance-single - ----------------
#NOTES:
     dance-single:
     :
     Medium:
     5:
     :
0000
0000
0000
0000
,
0000
0000
0000
0000
,
0000
0000
0000
0000
,
0000
0000
0000
0000
,
0000
0000
0000
0000
,
2000
3002
0203
0302
,
1003
0001
1000
0000
0001
0000
1000
0000
,
0010
0000
1010
0000
0100
0100
0001
0000
,
0100
0000
0100
0001
1000
0000
0100
0000
,
1000
0001
1000
0001
1001
0000
0100
0000
,
0001
0001
0101
0100
,
0100
0001
0010
0000
0100
1000
0001
0000
,
0100
0100
1000
1000
,
1001
1001
0011
1001
,
0001
0001
0000
0000
0010
0000
0000
0000
0010
0000
0000
0000
0100
0000
0000
0000
,
0100
0000
0100
0000
0010
0001
1000
0000
,
0001
0001
0000
0000
1000
0000
0000
0000
1001
0000
0000
0000
0100
0000
0000
0000
,
0010
0000
1000
0010
1000
0000
0001
0000
,
0010
0000
0020
0000
0001
0001
0031
0000
,
0002
0203
0320
2030
,
3001
0001
0000
0000
0010
0010
0000
0000
0100
0100
0000
1000
0000
0000
0000
0000
,
1001
0000
0001
0000
1000
0100
1000
0000
,
2200
0000
0000
0000
3300
0000
0000
0000
0000
1000
0000
0000
0001
0000
0100
0000
,
0002
0023
0230
1300
,
2200
0000
0000
0000
3300
0000
0000
0000
0000
0001
0000
0000
1000
0000
0100
0000
,
1000
0010
0100
0001
,
0100
0000
0001
1000
0001
1000
0001
0000
,
1001
0001
0010
0110
,
1000
0000
0000
0000
0010
0000
0100
0000
0001
0000
0000
0000
0001
0000
0000
0010
,
0000
0000
0001
0000
0000
0000
0000
0000
1000
0001
0000
1000
0000
0000
0000
0000
,
1001
0000
0001
1000
0001
0100
0001
1000
,
0002
1000
1003
1100
,
0010
0001
0001
0000
1000
0100
0100
0000
,
0110
0000
0001
1000
0001
0000
1001
0000
,
1000
0100
1000
0000
0100
0100
1000
0000
,
0100
0000
0100
0000
0001
0000
0001
1000
,
0001
0001
0000
0000
1000
1000
0000
0000
0001
0001
0000
0000
0100
0000
0000
0000
,
0101
0000
0001
0000
1000
0001
0100
0000
,
0001
0001
0000
0000
1000
1000
0000
0000
0001
0001
0000
0000
0100
0000
0000
0000
,
0100
0001
0001
0000
1000
0001
1000
0000
,
1010
0010
0001
1000
,
0100
0000
1100
0000
1000
0010
0200
0000
,
0310
0010
0000
0000
1000
1000
0000
0000
0010
0010
0000
0000
0100
0000
0000
0000
,
0100
0001
1000
0000
1001
0000
0100
0000
,
0001
0000
0000
1000
0000
0000
1000
0000
0100
0000
0000
0000
1100
0000
0000
0000
,
0001
0000
0000
1000
0000
0000
1000
0000
0001
0000
0000
0000
0101
0000
0000
0000
,
1000
0000
0000
0001
0000
0000
0001
0000
0100
0000
0000
0000
0101
0000
0000
0000
,
0001
0000
0000
1000
0000
0000
1000
0000
0001
0000
0000
0000
0011
0000
0000
0000
,
0100
0000
0000
0010
0000
0000
0010
0000
0001
0000
0000
0000
0011
0000
0000
0000
,
0100
0000
0000
0010
0000
0000
0010
0000
0100
0000
0000
0000
0100
0000
0000
0000
,
0010
0000
0000
0100
0000
0000
0100
0000
1000
0000
0000
0000
1100
0000
0000
0000
,
0010
0000
0000
1000
0000
0000
0001
0000
1000
0000
0000
0000
0001
0000
0000
0000
,
1100
0000
0011
0000
,
0110
0000
0000
0000
;

//---------------dance-single - ----------------
#NOTES:
     dance-single:
     :
     Hard:
     8:
     :
0000
0000
0000
0000
,
0000
0000
0000
0000
,
0000
0000
0000
0000
,
0000
0000
0000
0000
,
0000
0000
0000
0000
,
2000
0000
3020
0000
0230
0000
0301
0001
,
1000
0001
1000
0000
1001
0000
0100
0010
,
0110
1000
1000
0100
1000
0000
0100
1000
,
1001
0000
0100
0110
1000
0000
0100
0000
,
1100
0000
0010
0000
0100
0000
0001
0000
0001
0000
0000
0100
0000
0000
0100
0000
,
0001
0001
0101
0101
,
1000
0000
0010
0000
0010
0100
0001
0000
,
1000
0000
0001
0000
0000
0001
0000
0000
0001
0000
0000
0001
0000
0000
0010
0000
,
1000
0000
0001
1000
0000
0001
0010
0000
0001
0000
0000
0100
0000
0000
0100
0000
,
0001
0001
0000
0000
0100
0100
0000
0000
0010
0010
0000
0000
1010
0000
0000
0000
,
0100
0000
0110
0000
0001
0000
0101
0000
0010
1000
0000
0001
0000
0000
0001
0000
,
0001
0001
0000
0000
1000
1000
0000
0000
0010
0010
0000
0000
1010
0000
0000
0000
,
1000
0010
1000
0010
1000
0001
0001
0000
,
0200
0000
0000
0000
0001
0001
0000
0000
0010
0010
0000
0000
0301
0000
0000
0000
,
0100
0000
0110
0000
0001
0000
0110
0010
0000
1000
0000
0001
0000
0000
0000
0000
,
0001
0001
0000
0000
0010
0010
0000
0000
0100
0100
0000
0000
1000
0000
0000
0000
,
0100
0110
0001
0110
2002
0000
3003
0000
,
1001
1000
0000
0000
0001
0000
1000
1000
0000
0002
0000
0003
1000
0000
0100
0000
,
0000
0000
1000
0000
0000
1000
0000
0000
0100
0000
0000
0010
0000
0000
0001
0000
,
0100
0100
0000
0000
0001
0000
1000
1000
0000
0001
0000
0001
1000
0000
0100
0000
,
0000
0000
1000
0000
0000
1000
0000
0000
0100
0000
0000
0010
0000
0000
0001
0000
,
1000
0000
0001
0000
1000
0000
0001
0000
0000
0001
0000
0001
0000
0001
0000
0000
,
1000
0000
0001
0000
1000
0001
0000
1000
0000
0000
0010
0000
0000
0000
0010
0000
,
1000
1001
0010
0001
1000
0000
1010
0010
,
0000
0000
0010
0000
0001
0000
1000
0000
0001
1000
0000
0001
0000
0000
1000
0000
,
0001
1000
0100
1000
0000
0100
1000
0100
1000
0000
0001
0000
0100
0000
0000
0000
,
0101
2002
3000
0203
,
0301
0000
1001
0000
0010
0000
0110
0000
0001
0000
0000
1000
0000
0000
0002
0000
,
1003
0001
0010
0001
1000
0100
0000
0000
,
0010
0100
1000
0001
0000
0010
0011
0000
,
0100
0000
0100
0000
0001
0000
1000
0001
,
1000
1000
0000
0000
0100
0100
0000
0000
0010
0010
0000
0000
0011
0000
0000
0000
,
0100
0000
0110
0000
1000
0000
1100
0000
0010
0000
0001
2000
0000
0000
3000
0000
,
1000
1000
0000
0000
0001
0001
0000
0000
0010
0010
0000
0000
0011
0000
0000
0000
,
0001
0011
0001
0010
0001
1001
1001
0000
,
0200
0000
0000
0000
0001
0001
0000
0000
0010
0010
0000
0000
0301
0000
0000
0000
,
0100
0110
1000
0100
0010
0001
1000
0000
,
1000
1000
0000
0000
0010
0010
0000
0000
0100
0100
0000
0000
0001
0000
0000
0000
,
0100
0110
1000
0100
0220
0000
0330
0000
,
1100
0000
0000
0001
0100
0000
0010
0000
0100
0000
0000
0000
1100
0000
0000
0000
,
0001
0000
0000
0100
0000
0000
0010
0000
1000
0000
1000
0000
1010
0000
0000
0000
,
0011
0000
0000
1000
0010
0000
0100
0000
0010
0000
0000
0000
0011
0000
0000
0000
,
0001
0000
0000
0010
0000
0000
0100
0000
2000
0000
0000
0000
3001
0000
0000
0000
,
0011
0000
0000
1000
0010
0000
0100
0000
0010
0000
0000
0000
0011
0000
0000
0000
,
1000
0000
0000
0010
0000
0000
0100
0000
0001
0000
0001
0000
0101
0000
0000
0000
,
1100
0000
0000
0001
0100
0000
0010
0000
0100
0000
0000
0000
1100
0000
0000
0000
,
1000
0000
0000
0100
0000
0000
0010
0000
0001
0000
0000
0000
1001
0000
0000
0000
,
0000
0000
1000
0001
0000
0100
0001
0000
1000
0000
0000
1000
0000
0000
0010
0100
,
0000
2002
0000
0000
,
3003
0000
0000
0000
;

//---------------dance-double - ----------------
#NOTES:
     dance-double:
     :
     Beginner:
     1:
     :
00000000
00000000
00000000
00000000
,
00000000
00000000
00000000
00000000
,
00000000
00000000
00000000
00000000
,
00000000
00000000
00000000
00000000
,
00000000
00000000
00000000
00000000
,
10000000
00000000
00100000
00000000
,
10000000
00000000
00010000
00000000
,
10010000
00000000
01000000
00000000
,
00010000
00000000
00010000
00000000
,
00001000
00000000
00001000
00000000
,
00001000
00000000
00001000
00000000
,
00010000
00000000
00001000
00000000
,
00010000
00000000
01000000
00000000
,
10010000
00000000
10000000
00000000
,
01000000
00000000
01000000
00000000
,
00010000
00000000
00010000
00000000
,
00001000
00000000
00001000
00000000
,
00000010
00000000
00000010
00000000
,
00000110
00000000
00000001
00000000
,
00001000
00000000
00010000
00000000
,
00100000
00000000
00010000
00000000
,
01100000
00000000
00010000
00000000
,
01100000
00000000
01100000
00000000
,
00001000
00000000
00000010
00000000
,
00001001
00000000
00001001
00000000
,
00001000
00000000
00000010
00000000
,
00000000
00000000
00000000
00001000
,
00000000
00010000
00000000
00100000
,
00000000
00010000
00000000
01000000
,
00000000
10010000
00000000
01000000
,
00000000
00010000
00000000
10000000
,
00000000
10010000
00000000
01000000
,
00000000
00010000
00000000
00000110
,
00000000
00001000
00000000
00000000
,
00000100
00000000
00000100
00000000
,
00000001
00000000
00001000
00000000
,
00000100
00000000
00001000
00000000
,
01000000
00000000
10000000
00000000
,
10000000
00000000
10000000
00000000
,
01000000
00000000
00001000
00000000
,
00011000
00000000
00010000
00000000
,
00000100
00000000
00000001
00000000
,
00001001
00000000
00000010
00000000
,
00000100
00000000
00001001
00000000
,
00010000
00000000
00010000
00000000
,
01000000
00000000
10000000
00000000
,
10000000
00000000
01000000
00000000
,
00010000
00000000
00000010
00000000
,
00000001
00000000
00000010
00000000
,
00000100
00000000
00000100
00000000
,
00000010
00000000
00010000
00000000
,
01000000
00000000
00010000
00000000
,
10010000
00000000
01100000
00000000
,
10010000
00000000
00000000
00000000
;

//---------------dance-double - ----------------
#NOTES:
     dance-double:
     :
     Easy:
     4:
     :
00000000
00000000
00000000
00000000
,
00000000
00000000
00000000
00000000
,
00000000
00000000
00000000
00000000
,
00000000
00000000
00000000
00000000
,
00000000
00000000
00000000
00000000
,
20000000
32000000
03200000
00320000
,
10030000
10000000
00010000
10000000
,
10100000
00100000
01000000
00001000
,
00010000
00010000
00010000
00000100
,
00001000
00000100
00001000
00000001
,
00001000
00001000
00001000
00000100
,
00010000
00010000
00001000
01000000
,
00010000
10000000
01000000
00100000
,
00110000
00010000
10000000
00100000
,
01000000
01100000
01000000
00001000
,
00010000
00001000
00010000
00000100
,
00001000
00001000
00001000
00000100
,
00000010
00000000
00000010
00000001
00000010
00000000
00000010
00000000
,
00000101
00000100
00000001
00000001
,
00001000
00000100
00010000
00001000
,
00100000
00010000
00010000
01000000
,
01100000
10000000
00010000
01000000
,
01010000
00000000
01010000
00000000
,
00001000
00010000
00000010
00001000
,
00001010
00000000
00001010
00000000
,
00002000
00003200
00000320
00000032
,
00000000
00000000
00000000
00001003
,
00000100
00010000
00001000
00100000
,
00001000
00010000
00001000
01000000
,
00010000
10010000
00010000
01000000
,
01010000
00010000
00010000
10000000
,
10000000
10010000
00010000
01000000
,
00001000
00010000
00000100
00001100
,
00000010
00001000
00001001
00000000
,
00000100
00000001
00000100
00000010
,
00000001
00000001
00001000
00001000
,
00000100
00010000
00001000
00001000
,
01000000
00010000
10000000
01000000
,
10000000
00010000
10000000
10010000
,
01000000
01000000
00001000
00010000
,
00011000
00010000
00010000
00000100
,
00000100
00001100
00000001
00000010
,
00000011
00000001
00000010
00000001
,
00000100
00000001
00001001
00000100
,
00020000
00000000
00000000
00002000
00030000
00000000
00000000
00000000
00023000
00000000
00000000
00000000
00031000
00000000
00000000
00000000
,
01000000
00010000
10000000
01000000
,
20000000
00000000
00000000
00020000
30000000
00000000
00000000
00000000
01030000
00000000
00000000
00000000
00001000
00000000
00000000
00000000
,
00010000
00010000
00000010
00001000
,
00000002
00000000
00000000
00000200
00000003
00000000
00000000
00000000
00000320
00000000
00000000
00000000
00001030
00000000
00000000
00000000
,
00000100
00000100
00000100
00000100
,
00000020
00000000
00000000
00000200
00000030
00000000
00000000
00000000
00020300
00000000
00000000
00000000
00031000
00000000
00000000
00000000
,
01000000
01000000
00010000
00010000
,
10010000
00000000
01100000
00000000
,
10010000
00000000
00000000
00000000
;

//---------------dance-double - ----------------
#NOTES:
     dance-double:
     :
     Medium:
     5:
     :
00000000
00000000
00000000
00000000
,
00000000
00000000
00000000
00000000
,
00000000
00000000
00000000
00000000
,
00000000
00000000
00000000
00000000
,
00000000
00000000
00000000
00000000
,
00020000
00230000
02300000
23000000
,
30010000
10000000
00010000
00000000
00010000
00000000
10000000
00000000
,
10100000
00000000
10100000
00000000
01000000
01000000
00001000
00000000
,
00010000
00000000
00000100
00001000
00000001
00000000
00000100
00000000
,
00000001
00001000
00000001
00000000
00001001
00000000
00000100
00000000
,
00001000
00000100
00010000
00011000
,
00001000
00010000
00001000
00000000
01000000
00010000
10000000
00000000
,
01000000
00100000
00001000
00001000
,
00011000
00010000
00000010
00001000
,
00000100
00000100
00000000
00000000
00001000
00000000
00000000
00000000
00001000
00000000
00000000
00000000
00000100
00000000
00000000
00000000
,
00000100
00000000
00000100
00000000
00000110
00000001
00001000
00000000
,
00000100
00000100
00000000
00000000
00010000
00000000
00000000
00000000
00011000
00000000
00000000
00000000
01000000
00000000
00000000
00000000
,
00010000
00000000
10000000
00100000
01000000
00000000
00001000
00000000
,
00021000
00000000
00000000
00000000
00001000
00001000
00031000
00000000
,
00010000
00000100
00001100
00001001
,
00001000
00001000
00000000
00000000
00000010
00000010
00000000
00000000
00000100
00000100
00000000
00000000
00000001
00000000
00000000
00000000
,
00001001
00000000
00001000
00000000
00000100
00010000
00001000
00000000
,
00011000
00000000
00000000
00000000
00011000
00000000
00000000
00000000
00000000
00010000
00000000
00000000
00001000
00000000
01000000
00000000
,
00020000
00230000
02300000
13000000
,
22000000
00000000
00000000
00000000
33000000
00000000
00000000
00000000
00000000
00010000
00000000
00000000
10000000
00000000
01000000
00000000
,
00100000
00001000
00011000
00000100
,
00001100
00000000
00000001
00001000
00000100
00010000
00001000
00000000
,
00011000
00000100
00001000
00001100
,
00000110
00000000
00000000
00000000
00000001
00000000
00000100
00000000
00000010
00000000
00000000
00000000
00000010
00000000
00000000
00010000
,
00000000
00001000
00001000
00000000
00100000
00000000
00010000
00000000
,
10000000
00000000
00100000
01000000
00001000
00010000
00010000
00001000
,
00020000
00000000
00001000
00000000
00030000
00001000
00010000
00000000
,
00000010
00001000
00001000
00000000
00000001
00000100
00000100
00000000
,
00000110
00000000
00010000
00001000
00010000
00000000
00011000
00000000
,
00100000
00010000
00100000
00000000
01000000
00100000
00010000
00000000
,
10010000
00000000
10000000
00000000
00100000
00000000
10000000
00100000
,
10000000
10000000
00000000
00000000
00010000
00010000
00000000
00000000
01000000
01000000
00000000
00000000
00001000
00000000
00000000
00000000
,
00011000
00000000
00000010
00000000
00000100
00000001
00001000
00000000
,
00000010
00000010
00000000
00000000
00001000
00001000
00000000
00000000
00000001
00000001
00000000
00000000
00000100
00000000
00000000
00000000
,
00000100
00000010
00000010
00000000
00010000
00001000
00001000
00000000
,
00110000
10000000
00010000
01000000
,
01000000
00000000
00001000
00000000
00011000
00001000
00010000
00000000
,
00001000
00001000
00000000
00000000
00010000
00010000
00000000
00000000
00001000
00001000
00000000
00000000
00020000
00000000
00000000
00000000
,
00030000
00000100
00001000
00000000
00001001
00000000
00000100
00000000
,
00000001
00000000
00000000
00001000
00000000
00000000
00001000
00000000
00000100
00000000
00000000
00000000
00001100
00000000
00000000
00000000
,
00010000
00000000
00000000
00001000
00000000
00000000
00001000
00000000
00010000
00000000
00000000
00000000
00011000
00000000
00000000
00000000
,
01000000
00000000
00000000
00010000
00000000
00000000
00010000
00000000
01000000
00000000
00000000
00000000
01010000
00000000
00000000
00000000
,
00010000
00000000
00000000
10000000
00000000
00000000
10000000
00000000
00010000
00000000
00000000
00000000
10010000
00000000
00000000
00000000
,
01000000
00000000
00000000
00100000
01000000
00000000
00100000
00000000
10000000
00000000
00000000
00000000
10100000
00000000
00000000
00000000
,
01000000
00000000
00000000
00010000
01000000
00000000
00010000
00000000
00100000
00000000
00000000
00000000
00001000
00000000
00000000
00000000
,
00010000
00000000
00000000
00001000
00010000
00000000
00001000
00000000
00010000
00000000
00000000
00000000
00001100
00000000
00000000
00000000
,
00000001
00000000
00000000
00000100
00000001
00000000
00000100
00000000
00000010
00000000
00000000
00000000
00000110
00000000
00000000
00000000
,
00001100
00000000
00000011
00000000
,
00001001
00002020
00000000
00000000
,
00003030
00000000
00000000
00000000
;

//---------------dance-double - ----------------
#NOTES:
     dance-double:
     :
     Hard:
     8:
     :
00000000
00000000
00000000
00000000
,
00000000
00000000
00000000
00000000
,
00000000
00000000
00000000
00000000
,
00000000
00000000
00000000
00000000
,
00000000
00000000
00000000
00000000
,
20000000
00000000
30200000
00000000
02300000
00000000
03010000
00010000
,
10000000
00010000
10000000
00000000
10010000
00000000
10000000
00100000
,
00100000
10000000
10100000
00010000
01000000
00000000
01000000
00001000
,
00011000
00000000
00000100
00001000
00001001
00000000
00000101
00000000
,
00000001
00000000
00001000
00000000
00000100
00000000
00001000
00000000
00000100
00000000
00000000
00001000
00000000
00000000
00001000
00000000
,
00000010
00010000
00011000
01000000
,
00010000
00000000
00000000
00000000
00100000
00000000
00010000
00000000
01000000
00000000
00000000
00000000
00010000
00000000
00000000
00010000
,
01000000
00000000
00001000
00000000
00000000
00010000
00000000
00000000
00000100
00000000
00000000
00000000
00001100
00000000
00000010
00000000
,
00001000
00000000
00000001
00001000
00000000
00000001
00000010
00000000
00000001
00000000
00000100
00000000
00000100
00000000
00000000
00000000
,
00000001
00000001
00000000
00000000
00000100
00000100
00000000
00000000
00000010
00000010
00000000
00000000
00010000
00000000
00000000
00000000
,
00001000
00000000
00100000
00000000
00010000
00000000
01010000
00000000
00100000
00000000
10000000
00010000
00000000
00000000
00010000
00000000
,
00010000
00010000
00000000
00000000
10000000
10000000
00000000
00000000
00100000
00100000
00000000
00000000
01000000
00000000
00000000
00000000
,
00100000
01100000
00010000
00100000
00001000
00010000
00000100
00000000
,
00000020
00000000
00000000
00000000
00000001
00000001
00000000
00000000
00000100
00000100
00000000
00000000
00000031
00000000
00000000
00000000
,
00000100
00000000
00000110
00000000
00001000
00000000
00000110
00000000
00000010
00000000
00000001
00001000
00000000
00000000
00000000
00000000
,
00000001
00000001
00000000
00000000
00000010
00000010
00000000
00000000
00000100
00000100
00000000
00000000
00010000
00000000
00000000
00000000
,
00001000
00100000
00010000
01010000
02200000
00000000
03300000
00000000
,
10000000
10000000
00000000
00000000
00010000
00000000
10000000
10000000
00000000
00020000
00000000
00030000
10000000
00000000
01000000
00000000
,
00000000
00000000
10000000
00000000
00000000
10000000
00000000
00000000
01000000
00000000
00000000
00100000
00000000
00000000
00001000
00000000
,
00010000
00010000
00000000
00000000
00000100
00000000
00001000
00001000
00000000
00000002
00000000
00000003
00001000
00000000
00000100
00000000
,
00000000
00000000
00000010
00000000
00000000
00000010
00000000
00000000
00000001
00000000
00000000
00001000
00000000
00000000
00000100
00000000
,
00010000
00000000
00001000
00000000
00100000
00000000
00010000
00000000
00000000
00010000
00000000
00010000
00000000
00010000
00000000
00000000
,
00100000
00000000
00010000
00000000
10000000
00010000
00000000
10000000
00000000
00000000
00100000
00000000
00000000
00000000
00100000
00000000
,
01000000
00001000
00010000
00000100
00001000
00000000
00001001
00000010
,
00000000
00000000
00000010
00000000
00000001
00000000
00001000
00000000
00000001
00001000
00000000
00000001
00000000
00000000
00001000
00000000
,
00000001
00001000
00000001
00000100
00000000
00000001
00000100
00000001
00000100
00000001
00000000
00001000
00000000
00000100
00000000
00000000
,
00000100
00000000
00022000
00000000
00030000
00000000
00003000
01000000
,
00010000
00000000
10010000
00000000
00100000
00000000
01100000
00000000
00010000
00000000
00000000
01000000
00000000
00000000
00010000
00000000
,
10010000
10000000
00100000
10000000
00010000
01000000
00000000
01000000
,
00001000
00000000
00010000
00000000
00000100
00000000
00001000
00000000
00000010
00000000
00001000
00000010
00000000
00000000
00000000
00000000
,
00000010
00000000
00000001
00000000
00001000
00000000
00000100
00010000
,
00001000
00001000
00000000
00000000
00010000
00010000
00000000
00000000
00001000
00001000
00000000
00000000
01000000
00000000
00000000
00000000
,
00010000
00000000
00110000
00000000
01000000
00000000
11000000
00000000
00100000
00000000
10000000
00020000
00000000
00000000
00030000
00000000
,
10000000
10000000
00000000
00000000
00010000
00010000
00000000
00000000
00100000
00100000
00000000
00000000
00001000
00000000
00000000
00000000
,
00010000
00000010
00001000
00000010
00001000
00001001
00001001
00000000
,
00000200
00000000
00000000
00000000
00001000
00001000
00000000
00000000
00001000
00001000
00000300
00000000
00010000
00000000
00000000
00000000
,
00001000
00000000
00011000
00000000
00001000
00000000
01000000
00000000
00010000
00000000
10000000
00020000
00000000
00000000
00030000
00000000
,
00010000
00010000
00000000
00000000
00100000
00100000
00000000
00000000
00010000
00010000
00000000
00000000
01000000
00000000
00000000
00000000
,
01000000
01100000
10000000
10000000
02200000
00000000
03300000
00000000
,
01000000
00000000
00000000
00001000
00000000
00000000
00010000
00000000
00000100
00000000
00000000
00000000
00001100
00000000
00000000
00000000
,
00000001
00000000
00000000
00000100
00000000
00000000
00000010
00000000
00001000
00000000
00001000
00000000
00001010
00000000
00000000
00000000
,
00000001
00000000
00000000
00001000
00000000
00000000
00001000
00000000
00000100
00000000
00000000
00000000
00001100
00000000
00000000
00000000
,
00010000
00000000
00000000
00001000
00000000
00000000
00010000
00000000
00001000
00000000
00000000
00000000
01000000
00000000
00000000
00000000
,
00010000
00000000
00000000
10010000
10000000
00000000
00010000
00000000
01000000
00000000
00000000
00000000
01010000
00000000
00000000
00000000
,
10000000
00000000
00000000
01000000
00000000
00000000
00100000
00000000
00010000
00000000
00010000
00000000
00110000
00000000
00000000
00000000
,
00100000
00000000
00000000
00001000
00000000
00000000
00010000
00000000
00001000
00000000
00000000
00000000
00011000
00000000
00000000
00000000
,
00010000
00000000
00000000
00000010
00000000
00000000
00001000
00000000
00000002
00000000
00000000
00000000
00001003
00000000
00000000
00000000
,
00000000
00000000
00001000
00000001
00000000
00000100
00000001
00000000
00001000
00000000
00000000
00001000
00000000
00000000
00000010
00000100
,
00000000
00002002
00000000
00000000
,
00003003
00000000
00000000
00000000
;
