#TITLE:FIRE DUB;
#ARTIST:ASLETICS;
#BANNER:FIRE DUB.png;
#BACKGROUND:FIRE DUB-bg.png;
#CDTITLE:./CDTITLES/Song Pack 2.png;
#MUSIC:FIRE DUB.ogg;
#SAMPLESTART:11.24;
#SAMPLELENGTH:15;
#DISPLAYBPM:85;
#BPMS:0=85.002;

//---------------dance-single - ----------------
#NOTES:
     dance-single:
     :
     Beginner:
     1:
     :
0000
0000
0000
0000
,
0000
0000
0000
0000
,
0000
0000
0000
0000
,
1000
0100
0000
0000
,
1000
0100
0000
0010
,
0010
0001
0000
0000
,
1000
0001
0100
0100
,
0001
0000
1000
0010
,
0010
0001
1000
1000
,
0001
0100
0001
0001
,
1001
0000
0000
0000
,
1000
0000
0100
0100
,
0100
0000
1000
1000
,
1000
0010
0100
0100
,
0001
0000
1000
1000
,
1000
0100
0000
0000
,
1000
0100
0000
0010
,
0010
0001
0000
0000
,
1000
0001
0100
0100
,
0110
1000
0001
1001
,
1001
0100
0010
0000
,
0110
1000
0001
0000
,
0100
0001
1000
0010
,
0010
0100
0001
0001
,
0100
0000
1000
1000
,
0001
0000
0100
0100
,
1000
0001
0001
1000
,
1001
0000
0000
0000
;

//---------------dance-single - ----------------
#NOTES:
     dance-single:
     :
     Easy:
     3:
     :
0000
0000
0000
0000
,
0000
0000
0000
0000
,
0000
0000
0000
0000
,
1000
0200
0000
0300
,
1000
0200
0000
0310
,
0010
0002
0000
0003
,
1000
0001
0100
0100
,
0002
0000
1003
0010
,
0010
0002
1000
2003
,
3002
0203
0301
0001
,
2002
0000
0000
3003
,
1000
0002
0000
0000
0000
0000
0000
0000
0103
0000
0000
0000
0100
0000
0000
0000
,
0100
0020
0000
0000
0000
0000
0000
0000
1030
0000
0000
0000
1000
0000
0000
0000
,
1000
0020
0130
0100
,
0002
0000
1000
1003
,
1000
0200
0000
0300
,
1000
0200
0000
0310
,
0010
0002
0000
0003
,
1000
0001
0100
0100
,
0110
1000
0001
1001
,
1001
0100
0020
0030
,
0110
1000
0002
0003
,
0100
0001
2000
0010
,
3010
0100
0001
0001
,
0100
0002
0000
0000
0000
0000
0000
0000
1003
0000
0000
0000
1000
0000
0000
0000
,
0001
2000
0000
0000
0000
0000
0000
0000
3100
0000
0000
0000
0100
0000
0000
0000
,
1000
0001
0001
1000
,
2002
0000
0000
0000
,
3003
0000
0000
0000
;

//---------------dance-single - ----------------
#NOTES:
     dance-single:
     :
     Medium:
     5:
     :
0000
0000
0000
0000
,
0000
0000
0000
0000
,
0000
0000
0000
0000
,
1000
0001
0200
0000
0000
0000
0301
0001
,
1000
0010
0200
0000
0000
0000
0310
0010
,
1000
0001
2000
0000
0000
0000
3000
0000
,
1000
1000
0001
0001
0100
0100
0002
0000
,
1000
2000
0003
0000
3010
0010
2000
0000
,
3020
0000
0000
0000
1030
0000
1000
0001
,
2000
3200
1300
0001
,
2002
0000
0000
0000
3000
0000
1003
1000
,
1000
0002
0000
0000
0000
0000
0003
0000
1000
0200
0000
0000
0300
0000
0000
0000
,
0100
0020
0000
0000
0000
0000
0000
0000
0031
0000
0000
0000
0001
0000
0000
0000
,
0001
1000
0002
0000
0003
0000
0000
0000
0100
0000
0000
0000
0100
0000
0000
0000
,
0001
1000
0002
0000
0000
0000
0000
0000
2003
0000
0000
0000
3001
0000
0000
0000
,
1000
0001
0200
0000
0000
0000
0301
0001
,
1000
0010
0200
0000
0000
0000
0310
0010
,
1000
0001
2000
0000
0001
0000
3001
0000
,
1000
1000
0001
0001
0100
0010
0200
0000
,
0310
2000
3001
0001
0002
0000
2003
0000
,
3010
0200
0301
1000
2000
0000
3000
0000
,
0110
2000
3001
0100
0200
0000
0300
0000
,
0110
0002
1003
0100
0010
0200
0000
0000
,
1300
0002
0103
0010
0020
0000
1030
1000
,
0001
0200
0310
1000
2000
0000
3001
0001
,
0010
0200
1300
0001
0002
0000
1003
0000
,
1000
0001
0000
1000
0010
1000
0000
0010
0100
0010
0000
0100
0001
0000
1000
0000
,
2002
0000
0000
0000
,
3003
0000
0000
0000
;

//---------------dance-single - ----------------
#NOTES:
     dance-single:
     :
     Hard:
     6:
     :
0000
0000
0000
0000
,
0000
0000
0000
0000
,
0000
0000
0000
0000
,
1000
0000
0002
0000
0103
0010
0200
0000
0301
0000
0002
0000
2003
0000
3001
0000
,
1000
0000
0002
0000
0103
0010
0200
0000
0301
0000
2000
0000
3010
0000
0100
0000
,
0001
0000
1000
0000
0010
0100
0020
0000
1030
0000
2000
0000
3002
0000
1003
0000
,
0001
0000
0100
0000
0010
0100
0020
0000
1030
0000
0002
0000
0203
0000
0000
0000
,
0302
0000
0000
0000
0000
0000
0003
0000
0010
0010
0001
0000
2000
0000
0000
0000
,
3001
0000
1000
0000
0002
0000
0000
0000
0103
0010
1000
0020
0000
0000
0000
0000
,
0230
0000
0000
0000
0000
0000
0300
0000
0001
1000
0001
0000
0002
0000
1000
0000
,
2003
0010
0000
3010
1000
0001
2002
3003
,
1000
0020
0000
0030
0000
1000
0010
1000
0002
0000
0000
0000
0003
0000
1000
0000
,
0010
0200
0000
0000
0300
0000
0001
0202
0000
0000
0000
0000
0303
0000
1000
0000
,
0001
1000
0002
0000
0003
0100
0010
1000
0200
0000
0000
0000
0300
1000
0100
1000
,
0001
1000
0010
0100
0002
0000
0003
0000
1000
2000
3000
0010
0200
0000
0000
0300
,
0001
0000
2000
0000
3010
0010
0020
0000
1030
0000
2000
0000
3002
0000
1003
0000
,
0001
0000
0100
0000
0010
0010
0020
0000
1030
0000
0002
0000
0103
0000
0010
0000
,
1000
0000
0002
0000
0103
0100
0200
0000
0301
0000
0002
0000
2003
0000
3001
0000
,
1000
0000
0010
0000
0100
0100
0200
0000
0310
1000
0001
1000
0200
0000
0000
0000
,
0310
0002
0000
1000
1003
0000
0020
0000
2030
0000
3001
0000
0200
0000
0300
0000
,
0010
0200
0000
0001
0301
0000
0020
0000
0032
0000
0103
0000
0020
0000
0030
0000
,
0100
0020
0000
1000
1030
0000
0200
0000
2300
0000
3010
0000
0200
0302
0003
2000
,
0000
3002
0000
0000
0003
0000
0100
0002
0000
0000
1003
0200
0000
0000
1300
0000
,
0001
0100
0020
0000
1000
0000
0100
0000
0230
0000
0301
0000
0201
0000
0300
0000
,
0010
1000
0002
0000
0100
0000
1000
0000
2003
0000
3010
0000
2010
0000
3000
0000
,
1000
0010
0200
0000
0001
0000
0010
0000
0320
0000
1030
0000
1020
0000
0030
0000
,
0100
0001
2000
0000
0010
0000
0001
0000
3002
0000
0103
0000
0101
0000
0101
0000
,
2002
0000
0000
0000
,
3003
0000
0000
0000
;

//---------------dance-single - ----------------
#NOTES:
     dance-single:
     :
     Challenge:
     8:
     :
0000
0000
0000
0000
,
0000
0000
0000
0000
,
0000
0000
0000
0000
,
1000
0000
0001
0000
0100
0010
0200
0000
0010
0000
0001
0000
0301
0000
1000
0000
,
0100
0000
0010
0000
0001
1000
0002
0000
1000
0000
0103
0000
0100
0000
1000
0000
,
0010
0000
0100
0000
0001
1000
0200
0000
0010
0000
0310
0000
0001
0000
0000
0000
,
0010
0000
0100
0000
0001
1000
0002
0000
1000
0000
0013
0000
0100
0000
0000
0000
,
0020
0000
0000
0000
0030
0000
0000
0000
1000
0001
1000
0000
0020
0000
0000
0000
,
0230
0000
0000
0000
0000
0000
0000
0000
0301
1000
0100
0010
0000
0000
0000
0000
,
0200
0000
0000
0000
0300
0000
0000
0000
0001
1000
0001
0000
0200
0000
0000
0000
,
0320
0000
0000
0000
0000
0000
0000
0000
1030
0001
0010
0000
0100
0000
0000
0000
,
0010
0200
0000
0000
0300
0001
1000
0001
0200
0000
0000
0000
0300
0000
0000
0000
,
0010
2000
0000
0000
0000
0000
3100
0020
0000
0000
0000
0000
0030
0000
0001
0000
,
0010
0100
0010
0000
0000
0001
1000
0001
0200
0000
0000
0000
0300
1000
0001
0100
,
0010
0100
0010
0100
1000
0000
0100
0000
0010
0010
0000
1000
0001
0000
1000
0000
,
0010
0000
0001
0000
0100
0010
0200
0000
0010
0000
0001
0000
0301
0000
1000
0000
,
0100
0000
0010
0000
0001
1000
0002
0000
1000
0000
0100
0000
0103
0000
1000
0000
,
0010
0000
0100
0000
0001
1000
0200
0000
0010
0000
0010
0000
1300
0000
0001
0000
,
0100
0000
0010
0000
1000
0001
1000
0000
0010
0100
0000
0010
0100
0000
0000
0000
,
1000
1000
0000
0001
0100
0000
0010
0000
0100
0000
0010
0000
0200
0000
0000
0000
,
0301
0001
0000
1000
0100
0000
0010
0000
0100
0000
0010
0000
0100
0000
0000
0000
,
1000
1000
0000
0001
0100
0000
0010
0000
0100
0000
0010
0000
0200
0000
0000
0000
,
0301
0000
1000
0000
0002
0000
0000
0000
1003
0000
0000
0001
2000
0000
0000
0000
,
3001
0001
0000
1000
0100
0000
0010
0000
0001
0001
0000
1000
0100
0000
0000
0000
,
0010
0100
0000
0001
1000
0000
0010
0000
0100
0010
1000
0000
0001
0000
0000
0000
,
0100
0010
0000
0100
0001
0000
1000
0000
0001
1000
0100
0000
0010
0000
0000
0000
,
0010
0100
0000
0000
0010
0100
0000
0000
0010
0100
0000
0000
0010
0100
0000
0000
,
2002
0000
0000
0000
,
3003
0000
0000
0000
;

//---------------dance-double - ----------------
#NOTES:
     dance-double:
     :
     Beginner:
     1:
     :
00000000
00000000
00000000
00000000
,
00000000
00000000
00000000
00000000
,
00000000
00000000
00000000
00000000
,
10000000
01000000
00000000
00000000
,
10000000
01000000
00000000
00100000
,
00001000
00010000
00000000
00000000
,
00000100
00001000
00000100
00000100
,
00001000
00000000
00000001
00001000
,
00000010
00010000
00001000
00001000
,
01000000
00010000
10000000
10000000
,
10010000
00000000
00000000
00000000
,
10000000
00000000
01000000
01000000
,
01000000
00000000
01000000
00001000
,
00010000
00000100
00001000
00001000
,
00000001
00000000
00001000
00001000
,
00000100
00010000
00000000
00000000
,
00001000
01000000
00000000
00100000
,
00100000
10000000
00000000
00000000
,
10000000
00010000
01000000
00001000
,
00011000
00010000
00000100
00000110
,
00000110
00000001
00000010
00000000
,
00000110
00001000
00000100
00000000
,
00010000
00001000
01000000
00100000
,
00100000
01000000
00010000
00010000
,
01000000
00000000
10000000
10000000
,
00010000
00000000
00010000
00001000
,
00010000
00000100
00001000
00000001
,
00001001
00000000
00000000
00000000
;

//---------------dance-double - ----------------
#NOTES:
     dance-double:
     :
     Easy:
     4:
     :
00000000
00000000
00000000
00000000
,
00000000
00000000
00000000
00000000
,
00000000
00000000
00000000
00000000
,
10000000
02000000
00000000
03000000
,
10000000
02000000
00000000
03100000
,
00001000
00020000
00000000
00030000
,
00000100
00001000
00000100
00000100
,
00002000
00000000
00003001
00001000
,
00000010
00020000
00001000
00032000
,
02003000
03020000
10030000
10000000
,
20020000
00000000
00000000
30030000
,
10000000
00020000
00000000
00000000
00000000
00000000
00000000
00000000
01030000
00000000
00000000
00000000
01000000
00000000
00000000
00000000
,
01000000
00200000
00000000
00000000
00000000
00000000
00000000
00000000
01300000
00000000
00000000
00000000
00001000
00000000
00000000
00000000
,
00010000
00000200
00001300
00001000
,
00000002
00000000
00001000
00001003
,
00000100
00020000
00000000
00030000
,
00001000
02000000
00000000
03100000
,
00100000
20000000
00000000
30000000
,
10000000
00010000
01000000
00001000
,
00011000
00010000
00000100
00001100
,
00001100
00000001
00000020
00000030
,
00000110
00001000
00000200
00000300
,
00010000
00001000
02000000
00100000
,
03100000
01000000
00010000
00010000
,
01000000
00020000
00000000
00000000
00000000
00000000
00000000
00000000
10030000
00000000
00000000
00000000
10000000
00000000
00000000
00000000
,
00010000
02000000
00000000
00000000
00000000
00000000
00000000
00000000
03010000
00000000
00000000
00000000
00001000
00000000
00000000
00000000
,
00010000
00000100
00001000
00000001
,
00002002
00000000
00000000
00000000
,
00003003
00000000
00000000
00000000
;

//---------------dance-double - ----------------
#NOTES:
     dance-double:
     :
     Medium:
     5:
     :
00000000
00000000
00000000
00000000
,
00000000
00000000
00000000
00000000
,
00000000
00000000
00000000
00000000
,
10000000
00010000
02000000
00000000
00000000
00000000
03010000
00010000
,
10000000
00100000
02000000
00000000
00000000
03000000
00001000
00010000
,
00000010
00000100
00000002
00000000
00000000
00000000
00000003
00000000
,
00000001
00000001
00001000
00001000
00000100
00000100
00020000
00000000
,
00001000
00002000
00030000
00000000
00003000
00000000
00200000
00000000
,
02300000
00000000
00000000
00000000
13000000
00000000
00010000
10000000
,
00020000
02030000
03001000
00010000
,
00022000
00000000
00000000
00000000
00003000
00000000
00031000
00001000
,
00001000
00020000
00000000
00000000
00000000
00000000
00030000
00000000
00000100
00002000
00000000
00000000
00003000
00000000
00000000
00000000
,
00000001
00000020
00000000
00000000
00000000
00000000
00000000
00000000
00000130
00000000
00000000
00000000
00000100
00000000
00000000
00000000
,
00010000
00001000
00020000
00000000
00030000
00000000
00000000
00000000
00001000
00000000
00000000
00000000
01000000
00000000
00000000
00000000
,
00010000
10000000
00020000
00000000
00030000
00000000
00000000
00000000
10000000
00000000
00000000
00000000
10000000
00000000
00000000
00000000
,
10000000
00010000
02000000
00000000
00000000
00000000
03001000
00001000
,
00010000
00000010
00000200
00000000
00000000
00000000
00000301
00000001
,
00001000
00000100
00020000
00000000
00000000
00000000
00030000
00000000
,
00001000
00001000
01000000
01000000
00010000
00010000
02000000
00000000
,
03100000
20000000
30010000
00010000
00020000
00000000
02030000
00000000
,
03001000
00020000
00030100
00001000
00002000
00000000
00003000
00000000
,
00000110
00002000
00003001
00000100
00000200
00000000
00000300
00000000
,
00000110
00000002
00001003
00000100
00000100
00000200
00000000
00000000
,
00010300
00002000
01003000
00100000
00200000
00000000
10300000
10000000
,
00010000
02000000
03100000
10000000
20000000
00000000
30010000
00010000
,
01000000
00002000
00013000
00000100
00002000
00000000
00003000
00000000
,
00001000
00000001
00000000
00001000
00000010
00001000
00000000
00000010
00000100
00000010
00000000
00000100
00000001
00000000
00001000
00000000
,
00002002
00000000
00000000
00000000
,
00003003
00000000
00000000
00000000
;

//---------------dance-double - ----------------
#NOTES:
     dance-double:
     :
     Hard:
     7:
     :
00000000
00000000
00000000
00000000
,
00000000
00000000
00000000
00000000
,
00000000
00000000
00000000
00000000
,
10000000
00000000
00020000
00000000
01030000
00100000
02000000
00000000
03010000
00000000
00020000
00000000
20030000
00000000
30010000
00000000
,
10000000
00000000
00100000
00000000
01000000
00100000
02000000
00000000
03001000
00000000
00020000
00000000
00030100
00000000
00001000
00000000
,
00000001
00000000
00002000
00000000
00003010
00000100
00000020
00000000
00001030
00000000
00002000
00000000
00003002
00000000
00001003
00000000
,
00000001
00000000
00000100
00000000
00000010
00000100
00000020
00000000
00010030
00000000
00002000
00000000
02003000
00000000
00000000
00000000
,
03010000
00000000
00020000
00000000
00000000
00000000
00030000
00000000
00100000
00100000
00010000
00000000
20000000
00000000
00000000
00000000
,
30200000
00000000
00000000
00000000
10000000
00000000
00300000
00000000
01000000
00010000
00100000
00000000
00002000
00000000
00000000
00000000
,
00023000
00000000
00000000
00000000
00030010
00000000
00000000
00000000
00001000
00001000
00000001
00000000
00000002
00000000
00001000
00000000
,
00002003
00000010
00000000
00000010
00003000
00000100
00020000
00030000
,
00001000
00200000
00000000
00300000
00000000
00010000
01000000
00100000
20000000
00000000
00000000
00000000
30000000
00000000
10000000
00000000
,
00100000
02000000
00000000
00000000
03000000
00000000
00010000
02020000
00000000
00000000
00000000
00000000
03030000
00000000
00001000
00000000
,
00010000
00001000
00020000
00000000
00030000
00000100
00001000
00000100
00002000
00000000
00000000
00000000
00003000
00000010
00001000
00000001
,
00001000
00000001
00000010
00000100
00002000
00000000
00003000
00000000
00000001
00000002
00000003
00000010
00000200
00000000
00000000
00000300
,
00010000
00000000
00002000
00000000
00013000
00010000
00020000
00000000
00031000
00000000
00200000
00000000
00320000
00000000
10030000
00000000
,
10000000
00000000
01000000
00000000
00100000
00100000
00200000
00000000
00310000
00000000
20000000
00000000
30010000
00000000
01000000
00000000
,
00001000
00000000
00020000
00000000
00031000
00001000
00002000
00000000
00013000
00000000
00000020
00000000
00002030
00000000
00003001
00000000
,
00000001
00000000
00000010
00000000
00000100
00000100
00000200
00000000
00001300
00000001
00001000
00000100
00000200
00000000
00000000
00000000
,
00010300
00001000
00000000
00100000
00010000
00000000
00200000
00000000
00310000
00000000
10000000
00000000
02000000
00000000
03000000
00000000
,
00100000
02000000
00000000
10000000
13000000
00000000
00200000
00000000
20300000
00000000
31000000
00000000
00200000
00000000
00300000
00000000
,
00001000
00010000
00000000
00000010
00001000
00000000
00000200
00000000
00002300
00000000
00003010
00000000
00000200
00000302
00000003
00002000
,
00000000
00003002
00000000
00000000
00000003
00000000
00000100
00000002
00000000
00000000
00001003
00000200
00000000
00000000
00010300
00000000
,
00001000
01000000
00200000
00000000
10000000
00000000
01000000
00000000
02300000
00000000
03010000
00000000
02010000
00000000
03000000
00000000
,
00100000
10000000
00020000
00000000
01000000
00000000
10000000
00000000
20030000
00000000
30100000
00000000
10200000
00000000
00300000
00000000
,
10000000
00100000
02000000
00000000
03001000
00000000
00010000
00000000
00002000
00000000
00013000
00000000
00010000
00000000
00000010
00000000
,
00000100
00000001
00002000
00000000
00000010
00000000
00000001
00000000
00003002
00000000
00000103
00000000
00000101
00000000
00000101
00000000
,
00002002
00000000
00000000
00000000
,
00003003
00000000
00000000
00000000
;
