#TITLE:Castles In The Sky;
#ARTIST:Ian Van Dahl feat. Marsha;
#BANNER:Castles In The Sky.png;
#BACKGROUND:Castles In The Sky-bg.png;
#CDTITLE:./CDTITLES/Dance Dance Revolution ULTRAMIX.png;
#MUSIC:Castles In The Sky.ogg;
#SAMPLESTART:63.86;
#SAMPLELENGTH:15;
#BPMS:0=140;

//---------------dance-single - ----------------
#NOTES:
     dance-single:
     :
     Easy:
     3:
     :
0000
0000
0000
0000
,
0000
0000
0000
0000
,
0000
0000
0000
0000
,
1000
0000
0100
0000
,
0010
0000
0001
0000
,
1000
0001
0010
0100
,
0001
1000
0100
1001
,
0010
0100
1001
1000
,
0100
0010
0001
1000
,
0001
0010
0100
0000
,
0010
0010
0010
0010
,
1000
1000
1000
1000
,
0000
0100
0000
0001
,
1000
0001
1000
0100
,
1000
0001
0110
1001
,
0000
1000
0000
0010
,
0100
1000
0001
1000
,
1001
0000
0100
0010
,
0001
1000
0100
1000
,
0001
0000
1000
0000
,
0001
0100
0100
0100
,
2002
0000
0000
0000
,
0000
0000
3003
0000
,
1000
0100
0010
0001
,
2000
0000
0000
0000
0000
0002
3000
0000
,
0000
0000
0000
0003
,
0100
0000
0010
0000
0001
0000
0000
0100
,
0000
0010
0000
0001
0000
1000
0000
0002
,
0000
0000
1000
0000
,
1000
0000
0000
0003
,
2000
0000
0001
0000
,
0001
0000
3001
0000
,
2000
0000
0002
0000
,
3000
0000
0000
0003
,
1000
0000
0010
0000
,
1000
0000
0001
0000
,
1000
0000
0010
0000
,
1000
0001
1000
0001
,
1001
1000
0001
0100
,
0010
1000
0001
0100
,
0100
0100
1000
0001
,
0100
0010
0000
0010
,
1000
0010
0000
0100
,
0001
0010
0000
0100
,
1000
1000
0001
0000
,
1000
1000
0000
0100
,
1000
1000
0000
0001
,
1000
0000
1000
0000
0000
0000
0000
1000
,
0000
0100
0000
0010
0000
0001
0000
1000
,
0000
0001
0000
1000
0000
0010
0000
2000
,
0000
0000
0000
3000
,
0001
0010
0000
0100
,
1000
1000
0001
0000
,
1000
1000
0000
0100
,
1000
1000
0001
0001
,
1000
1000
0001
0100
,
0100
0100
0000
1000
,
0010
0001
1000
0010
,
1000
0001
0010
1000
,
0001
0010
0000
0100
,
1000
0001
1000
0100
,
1000
1000
0000
0100
,
1001
0000
0000
0000
;

//---------------dance-single - ----------------
#NOTES:
     dance-single:
     :
     Medium:
     6:
     :
0000
0000
0000
0000
,
0000
0000
0000
0000
,
0000
0000
0000
0000
,
1000
0100
0100
0010
,
0100
0001
1001
0000
,
1000
0001
1000
0000
0101
0000
1000
0000
,
1001
0010
0010
0001
,
1001
0010
1001
0010
,
1000
0001
0100
0000
0101
0000
0010
0000
,
1000
0100
0010
0000
0001
0000
0010
0000
,
0100
0010
0001
0000
1000
0000
0010
0000
,
1000
0001
0100
0000
0101
0000
0010
0000
,
1000
0000
0000
0000
0001
0000
0000
0000
0010
0000
0100
0000
0000
0100
0000
0000
,
1000
0000
1000
0000
1000
0001
0100
0000
,
1000
0000
1001
0000
0100
0001
1000
0000
,
0001
1001
0010
1001
,
0010
1000
0001
0000
0100
0000
0101
0000
,
1000
0010
0100
0000
0001
0000
1000
0000
,
0010
0010
1000
0010
,
0010
1001
0100
0010
,
1000
0001
1000
0001
1000
0000
0110
0000
,
2002
0000
0000
3003
,
0010
0100
1000
0001
,
2000
0000
0000
0002
0000
0000
3000
0000
,
1000
0000
0000
0000
0000
1000
0003
0000
,
0000
0001
0010
0100
,
1000
0000
0010
0000
0100
0000
0001
1000
,
0000
0002
0000
0020
0003
0200
0030
2000
,
0300
0000
0100
0000
,
0100
0000
0100
3000
,
0002
0000
2003
0000
3020
0000
0030
0200
,
0000
0000
0000
0000
0300
0001
0100
0000
,
0002
0000
2000
0000
,
0000
0000
0003
3001
,
1000
0001
1000
0010
,
0100
0001
1000
0010
,
1000
0001
1000
0001
1000
0001
1000
0001
,
1000
0100
0010
0001
1000
0100
0010
0001
,
1000
1001
1000
0001
,
1000
0001
1000
0000
0001
1000
0010
0000
,
0100
0000
0100
0000
0001
1000
0100
0010
,
0100
1000
0001
0000
1000
0000
1000
0000
,
1001
0000
0010
0001
0000
0000
0110
0000
,
0001
0000
0010
0001
1000
0000
0100
0000
,
1000
0000
1000
0010
0001
0000
0100
0000
,
1000
0100
1000
0000
0100
0000
0100
0000
,
1000
0010
1000
0000
0100
0000
0001
0000
,
1000
0001
1000
0000
0000
0000
0100
0000
,
0100
1000
0100
0000
0010
0000
1001
0000
,
0010
1000
0001
0000
0100
0000
0010
0000
,
1000
0000
0010
0000
0010
0000
0100
0010
,
0001
0010
0100
0100
,
1000
0001
1000
0000
0001
0100
0010
0000
,
1000
0100
1000
0000
0010
1000
0100
0000
,
1000
0000
1000
0000
0001
0100
0001
0000
,
1000
0100
1000
0000
0001
0010
0100
1000
,
0001
1001
1000
1000
,
0010
0000
0001
0100
1000
0000
0010
0000
,
1000
0100
0010
0000
0001
1000
0100
0000
,
0001
0000
0010
0000
1000
0000
0100
0010
,
1000
0000
0001
0100
1000
0010
0100
0000
,
0001
0010
0001
1000
0010
0100
0100
0000
,
1001
0000
0000
0000
;

//---------------dance-single - ----------------
#NOTES:
     dance-single:
     :
     Hard:
     8:
     :
0000
0000
0000
0000
,
0000
0000
0000
0000
,
0000
0000
0000
0000
,
1000
1000
0001
1000
0010
0010
0100
0001
,
0100
0100
0010
1000
0001
0001
1000
0000
,
0001
0000
0100
0000
0010
1000
0001
0000
,
0100
0001
0010
0100
1000
0010
0100
0001
,
1000
0000
0001
0000
0001
0010
0100
0000
,
1000
0001
0100
0010
1000
0001
0100
0000
,
0110
0110
0001
1000
0010
0100
0001
0000
,
1000
0001
1000
0000
0001
1000
0001
0000
,
0010
0100
1000
0010
0100
0001
1000
0000
,
1000
0000
0000
0000
0001
0000
0000
0000
1000
0000
0010
0000
0000
0100
0000
0000
,
0002
0000
1000
1003
,
1000
0100
0010
0001
0100
0010
1000
0000
,
0002
0000
0013
0100
2000
0000
3001
0000
,
1000
0001
1000
0001
1000
0000
0001
0000
,
0020
0100
0001
0130
,
2000
0000
3001
1000
0002
0000
1003
0000
,
1000
0001
0010
0100
,
0002
0010
0100
0013
,
2200
0000
0000
3300
,
0002
0000
0000
0000
1003
0000
0001
1000
,
0000
0010
0000
0100
0000
2000
0000
0000
,
0002
0000
3000
0023
,
0000
0200
0000
0330
,
2000
0000
0000
0000
3001
0000
1000
0001
,
0000
2000
0000
0002
3000
0200
0003
0020
,
0300
0000
1000
0000
,
1000
0000
1000
0030
,
2000
0000
0000
0000
0000
0000
0000
0000
3001
0000
0000
0000
1000
0001
0000
0000
,
0100
0000
0010
0000
0000
0001
0100
0002
,
0000
0000
0000
0000
0000
2000
0000
0000
,
0000
0000
3003
0000
,
1000
0001
1000
0001
,
1000
0001
1000
0000
0001
1000
0001
0000
,
1000
0001
1000
0001
1000
0001
1000
0001
,
1000
0001
1000
0001
1000
0001
1000
0001
1000
0001
1000
0001
1000
0001
0000
0000
,
1000
0000
0000
0000
0001
0000
1000
0001
1000
0000
0000
0000
0001
0000
0000
0000
,
1000
0010
0100
0001
0000
0100
0000
1000
,
0000
0100
0000
0010
0000
0001
0000
1000
,
0001
0100
0010
1000
0001
0010
0100
1000
,
0010
0000
0100
0000
0010
0000
1000
0001
1000
0000
0001
0000
1000
0000
0000
0000
,
0001
1000
0000
0001
0000
0000
0001
0000
1000
0000
0010
0000
0100
0000
0001
0000
,
1000
0100
1000
0010
0100
0010
0100
0001
,
1000
0100
1000
0010
1000
0000
0100
0000
,
1000
0000
0010
0000
1000
0000
0000
0010
0100
0000
0000
0000
0001
0000
0000
0000
,
1000
0000
0001
0000
1000
0000
0001
0000
0000
0000
0000
0010
0100
0000
0000
0000
,
1000
0000
0001
0000
1000
0000
0000
0000
0010
0000
0000
1000
0001
0000
0000
1000
,
0001
0000
0000
0000
0000
0000
0000
0000
0001
0000
0000
1000
0001
0000
0000
1000
,
0001
0000
0000
0000
0100
0000
0000
0000
0010
0000
0000
0100
0010
0000
0000
0100
,
0010
0000
0000
0000
1000
0000
0000
0000
0001
0000
0000
1000
0001
0000
0000
1000
,
0001
0000
0000
1000
0001
0000
0000
0000
0010
0000
0000
0000
0100
0000
0000
0000
,
1000
0100
1000
0000
0001
1000
0001
0000
,
1000
0001
1000
0000
0001
0100
0001
0000
,
1000
0100
1000
0000
0010
1000
0100
0000
,
0001
0010
0100
1000
,
0010
0100
0001
1000
,
0001
0010
0001
0010
0001
0010
0001
0100
,
0010
1000
0100
1000
0100
1000
0001
0000
,
1000
0001
0100
0010
,
1000
0001
0010
0100
1000
0001
1000
0000
,
1001
0000
0000
0000
;

//---------------dance-double - ----------------
#NOTES:
     dance-double:
     :
     Easy:
     3:
     :
00000000
00000000
00000000
00000000
,
00000000
00000000
00000000
00000000
,
00000000
00000000
00000000
00000000
,
10000000
00000000
01000000
00000000
,
00100000
00000000
00010000
00000000
,
10000000
00010000
00100000
01000000
,
00010000
10000000
01000000
00100000
,
00001000
00000000
00011000
00000000
,
01000000
00100000
10000000
00010000
,
01000000
00000000
01000000
00000000
,
00100000
00100000
01000000
01000000
,
00001000
00010000
00000100
00000100
,
00000000
00000010
00000000
00000001
,
00001000
00000001
00001000
00000100
,
00000001
00001000
00000110
00001001
,
00000000
00000001
00000000
00000100
,
00000010
00010000
00001000
00100000
,
01000000
00000000
00010000
10000000
,
00010000
10000000
01000000
10000000
,
00010000
10000000
00100000
01000000
,
00001000
00010000
00000010
00000100
,
00002002
00000000
00000000
00000000
,
00000000
00000000
00003003
00000010
,
00000100
00010000
00001000
00100000
,
00020000
00000000
00000000
00000000
00000000
20000000
00030000
00000000
,
00000000
00000000
30000000
00010000
,
01000000
00000000
00011000
00000000
00000010
00000000
00000000
00000100
,
00000000
00000010
00000000
00001000
00000000
00000001
00000000
00002000
,
00000000
00000000
00000100
00003000
,
00010000
00001000
01000000
00100000
,
20000000
00000000
00010000
00000000
,
00010000
00000000
30010000
00000000
,
20000000
00000000
00020000
00000000
,
30030000
01000000
00100000
00001000
,
00010000
00000100
00000010
00000000
,
00001000
00000001
00001000
00000100
,
00010000
00001000
00100000
01000000
,
10000000
00010000
10000000
00010000
,
10000000
10000000
00000000
00010000
,
10000000
10000000
00000000
01000000
,
01000000
00001000
00000000
00010000
,
00000010
00001000
00000000
00000010
,
00001000
00000010
00000000
00000100
,
00000001
00000010
00000000
00000100
,
00001000
00010000
00001000
00000000
,
01000000
00100000
00000000
00010000
,
10000000
10000000
00000000
00010000
,
10000000
00000000
01000000
00000000
00001000
00000000
00000000
00010000
,
00000000
00000010
00000000
00000100
00000000
00000001
00000000
00001000
,
00000000
00000100
00000000
00000010
00000000
00000001
00000000
00002000
,
00000000
00000000
00000000
00003000
,
00000001
00000010
00000000
00000100
,
00001000
00001000
00000100
00000000
,
00010000
00001000
01000000
00000000
,
00010000
10000000
00010000
00010000
,
10000000
10000000
00010000
01000000
,
01000000
01000000
00000000
10000000
,
00100000
00010000
10000000
00100000
,
01000000
00001000
00000000
00010000
,
00000100
00000010
00000000
00000100
,
00001000
00000001
00001000
00000100
,
00001000
00001000
00000000
00000100
,
00011000
00000000
00000000
00000000
;

//---------------dance-double - ----------------
#NOTES:
     dance-double:
     :
     Medium:
     7:
     :
00000000
00000000
00000000
00000000
,
00000000
00000000
00000000
00000000
,
00000000
00000000
00000000
00000000
,
10000000
01000000
01000000
00100000
,
01000000
00010000
10010000
00000000
,
10000000
00010000
01000000
00000000
00011000
00000000
00000010
00000000
,
00001000
00000010
00000010
00000001
,
00001001
00000010
00001001
00000010
,
00000100
00000001
00000100
00000000
00000101
00000000
00000010
00000000
,
00000100
00001000
00000001
00000000
00001000
00000000
00000100
00000000
,
00000010
00000001
00001000
00000000
00000100
00000000
00010000
00000000
,
00011000
00000000
00100000
00010000
10000000
00000000
00010000
00000000
,
00100000
00000000
00000000
00000000
00000000
00000000
00000000
00000000
00100000
00000000
01000000
00000000
00000000
01000000
00000000
00000000
,
10000000
00000000
10000000
00000000
10000000
00010000
01000000
00000000
,
00010000
00000000
10010000
00000000
00100000
10000000
00010000
00000000
,
10000000
10010000
00100000
10010000
,
00100000
10000000
00010000
00000000
01000000
00000000
00011000
00000000
,
00000010
00000000
00000100
00000000
00000001
00001000
00000100
00000000
,
00000010
00000010
00001000
00000010
,
00000010
00001001
00000100
00000010
,
00001000
00000001
00001000
00000001
00001000
00000000
00000110
00000000
,
00002002
00000000
00000000
00003003
,
00000100
00011000
00100000
01000000
,
20000000
00000000
00000000
00020000
00000000
00000000
30000000
00000000
,
10000000
00000000
00000000
00000000
00000000
10000000
00030000
00000000
,
00000000
00010000
10000000
00100000
,
01000000
00000000
00010000
00000000
10000000
00000000
00010000
10000000
,
00000000
00020000
00000000
00200000
00030000
02000000
00300000
20000000
,
03000000
30000000
00010000
01000000
,
00001000
00010000
00000010
00000100
,
00000002
00000000
00002003
00000000
00003020
00000000
00000030
00000200
,
00000000
00000000
00000000
00000000
00000300
00000001
00000100
00000000
,
00000002
00000000
00002000
00000000
,
00000000
00000000
00000003
00003001
,
00001000
00000100
00010000
00001000
,
01000000
00100000
10000000
00010000
,
10000000
00010000
10000000
00010000
10000000
00010000
10000000
00010000
,
10000000
01000000
00100000
00010000
10000000
01000000
00100000
00010000
,
10000000
10010000
10000000
00010000
,
10000000
00010000
10000000
00000000
00010000
00000000
01000000
00000000
,
00001000
00000000
00010000
00000000
00000100
00000010
00000100
00000010
,
00000001
00001000
00000000
00000010
,
00001001
00000000
00000010
00000001
00000000
00000000
00000110
00000000
,
00000001
00000000
00000010
00000001
00001000
00000000
00000100
00000000
,
00001000
00000000
00001000
00000010
00000001
00000000
00000100
00000000
,
00001000
00000100
00001000
00000000
00000100
00000000
00010000
00000000
,
00001000
00100000
00010000
00000000
01000000
00000000
00010000
00000000
,
10000000
00010000
10000000
00000000
00000000
00000000
01000000
00000000
,
01000000
10000000
01000000
00000000
00100000
00000000
10010000
00000000
,
00100000
10000000
00010000
00000000
01000000
00000000
00100000
00000000
,
10000000
00000000
00100000
00000000
01000000
00000000
00001000
00010000
,
00000100
00000010
00000000
00000001
,
00001000
00000001
00001000
00000000
00000001
00000100
00000010
00000000
,
00001000
00000100
00001000
00000000
00000010
00001000
00000100
00000000
,
00001000
00000000
00001000
00000000
00000001
00000100
00000001
00000000
,
00001000
00000100
00001000
00000000
00000001
00000010
00000100
00001000
,
00000001
00001001
00000100
00010000
,
00001000
00000000
00100000
01000000
10000000
00000000
00100000
00000000
,
10000000
01000000
00100000
00000000
00010000
10000000
01000000
00000000
,
00100000
00000000
00001000
00000000
00010000
00000000
00000010
00000100
,
00000001
00001000
00000001
00000100
00000001
00000010
00000100
00000000
,
00001000
00000100
00001000
00000001
00000010
00000100
00000100
00000000
,
00001001
00000000
00000000
00000000
;

//---------------dance-double - ----------------
#NOTES:
     dance-double:
     :
     Hard:
     9:
     :
00000000
00000000
00000000
00000000
,
00000000
00000000
00000000
00000000
,
00000000
00000000
00000000
00000000
,
00001000
00001000
00000001
00001000
00000010
00000010
00000100
00000001
,
00000100
00000100
00000010
00001000
00000001
00000001
00001000
00000000
,
00000100
00010000
00001000
01000000
,
00100000
10000000
01000000
00100000
00010000
01000000
00100000
10000000
,
00010000
00000000
10000000
00000000
10000000
01000000
00100000
00000000
,
00010000
10000000
00100000
01000000
00010000
01000000
00001000
00000000
,
00011000
00000000
00000010
00001000
00000100
00001000
00000001
00000000
,
00001000
00000001
00001000
00000000
00000001
00001000
00000001
00000000
,
00000010
00000100
00001000
00000010
00000100
00000010
00010000
00000000
,
00001000
00000000
00000000
00000000
00100000
00000000
00000000
00000000
01000000
00000000
00100000
00000000
00000000
01000000
00000000
00000000
,
00020000
00000000
10000000
10030000
,
10000000
01000000
00100000
00010000
01000000
00100000
10000000
00000000
,
00020000
00000000
00130000
01000000
20000000
00000000
30010000
00000000
,
01000000
00001000
00010000
00001000
00010000
00000000
00000100
00000000
,
00000020
00000100
00000001
00000130
,
00002000
00000000
00003001
00001000
00000002
00000000
00001003
00000000
,
00000100
00011000
01000000
00100000
,
00020000
00100000
01000000
00130000
,
22000000
00000000
00000000
33000000
,
00020000
00000000
00000000
00000000
10030000
00000000
00010000
10000000
,
00000000
00100000
00000000
01000000
00000000
20000000
00000000
00000000
,
00020000
30000000
01030000
00002000
,
00000000
00020000
00003000
00000000
,
00030020
00000000
00000000
00000000
00001030
00000000
00000001
00001000
,
00000000
00000002
00000000
00002000
00000003
00000020
00003000
00000200
,
00000030
00000000
00000010
00000300
,
00010000
00001000
00100000
01000000
,
20000000
00000000
00000000
00000000
00000000
00000000
00000000
00000000
30010000
00000000
00000000
00000000
10000000
00010000
00000000
00000000
,
01000000
00000000
00100000
00000000
00000000
00010000
01000000
00020000
,
00000000
00000000
00000000
00000000
00000000
20000000
00000000
00000000
,
30030000
01000000
00001000
00010000
,
00000010
00000100
00001000
00000001
,
00001000
00000001
00001000
00000000
00000001
00001000
00000001
00000000
,
00001000
00000001
00001000
00000001
00001000
00000001
00001000
00000001
,
00001000
00000001
00001000
00000001
00001000
00000001
00001000
00000001
00001000
00000001
00001000
00000001
00001000
00000001
00000000
00000000
,
00001000
00000000
00000000
00000000
00000001
00000000
00001000
00000100
00010000
00000000
00000000
00000000
00001000
00000000
00000000
00000000
,
01000000
00100000
10000000
00010000
00000000
00100000
00000000
00010000
,
00000000
00100000
00000000
01000000
00000000
10000000
00000000
00010000
,
10000000
00010000
01000000
00001000
00010000
00000100
00000010
00000001
,
00000100
00000000
00000010
00000000
00000100
00000000
00000001
00001000
00000001
00000000
00001000
00000000
00000001
00000000
00000000
00000000
,
00000001
00001000
00000000
00000001
00000000
00000000
00000001
00000000
00001000
00000000
00000010
00000000
00000100
00000000
00000000
00000001
,
00001000
00000000
00000100
00000000
00001000
00000000
00000010
00000000
00000100
00000000
00000000
00000010
00000100
00000000
00000000
00000000
,
00001000
00000000
00000100
00000000
00001000
00000000
00000000
00000010
00000100
00000000
00000000
00000000
00000001
00000000
00000000
00000000
,
00000010
00000000
00000100
00000000
00010000
00000000
00000000
00001000
00100000
00000000
00000000
00000000
00010000
00000000
00000000
00000000
,
10000000
00000000
00010000
00000000
10000000
00000000
00010000
00000000
10000000
00000000
00000000
00100000
10000000
00000000
00000000
00000000
,
00010000
00000000
10000000
00000000
01000000
00000000
00000000
00000000
00100000
00000000
00000000
00010000
10000000
00000000
00000000
00010000
,
10000000
00000000
01000000
00001000
,
00010000
00000100
00000010
00000001
,
00001000
00000000
00000000
00000000
00001000
00000000
00000000
00000000
00000001
00000000
00000000
00001000
00000001
00000000
00000000
00001000
,
00000001
00000000
00000000
00001000
00000001
00000000
00000000
00000000
00000010
00000000
00000000
00000000
00000100
00000000
00000000
00000000
,
00001000
00000100
00001000
00000000
00000001
00001000
00000001
00000000
,
00001000
00000001
00001000
00000000
00000001
00000100
00000001
00000000
,
00001000
00000100
00001000
00000000
00000010
00001000
00000100
00000000
,
00000001
00000010
00000100
00010000
,
00001000
00100000
01000000
00100000
,
00010000
00000000
00100000
00000000
00010000
00000000
10000000
00000000
00010000
00000000
00100000
00000000
00010000
00000000
00000000
10000000
,
00010000
00000000
00000000
00000000
00100000
00000000
00000000
00010000
10000000
00000000
00000000
00010000
10000000
00000000
00000000
00000000
,
00010000
00000000
00000000
10000000
00010000
00000000
00000000
10000000
00010000
00000000
00100000
00000000
01000000
00000000
00000000
10000000
,
00010000
10000000
00100000
01000000
00100000
01000000
01000000
00000000
,
10010000
00000000
00000000
00000000
;
