#TITLE:BABY BABY GIMME YOUR LOVE 2002;
#ARTIST:DIVAS;
#BANNER:BABY BABY GIMME YOUR LOVE 2002.png;
#BACKGROUND:BABY BABY GIMME YOUR LOVE 2002-bg.png;
#CDTITLE:./CDTITLES/Song Pack 3.png;
#MUSIC:BABY BABY GIMME YOUR LOVE 2002.ogg;
#SAMPLESTART:2.44;
#SAMPLELENGTH:15;
#BPMS:0=96;

//---------------dance-single - ----------------
#NOTES:
     dance-single:
     :
     Beginner:
     1:
     :
0000
0000
0000
0000
,
0000
0000
0000
0000
,
0000
0000
0000
0000
,
1000
0000
0100
0000
,
1000
0000
0100
0000
,
1000
0000
0001
0000
,
0100
0000
0010
0000
,
0010
0000
0001
0000
,
0001
0000
0100
0000
,
0010
0000
0010
0000
,
0001
0000
1000
0000
,
0100
0000
0010
0000
,
0001
0000
1000
0000
,
1001
0000
1000
0000
,
0100
0000
0010
0000
,
1001
0000
0100
0000
,
0001
0000
0100
0000
,
1001
0000
0001
0000
,
0010
0000
0100
0000
,
1001
0000
0010
0000
,
1000
0000
0010
0000
,
1001
0000
0001
0000
,
1001
0000
0010
0000
,
0110
0000
1000
0000
,
0110
0000
0001
0000
,
1001
0000
0110
0000
,
1001
0000
0000
0000
,
1000
0000
0010
0000
,
1000
0000
0010
0000
,
1000
0000
1000
0000
,
0001
0000
0100
0000
,
0001
0000
0001
0000
,
1000
0000
0100
0000
,
1000
0000
0100
0000
,
0100
0000
1000
0000
,
1000
0000
0010
0000
,
0010
0000
1000
0000
;

//---------------dance-single - ----------------
#NOTES:
     dance-single:
     :
     Easy:
     3:
     :
0000
0000
0000
0000
,
0000
0000
0000
0000
,
0000
0000
0000
0000
,
2000
3010
0200
0310
,
2000
3001
0200
0301
,
2000
0001
3001
1000
,
0200
0000
0310
0010
,
0020
0000
0031
0001
,
0002
0000
0103
0100
,
0020
1030
0020
0130
,
0002
0003
2000
3002
,
0203
0300
0020
0230
,
0302
0003
1000
1000
,
1001
0000
1000
0010
,
0200
0300
0010
1000
,
2002
3003
0200
0310
,
0002
0023
0230
1300
,
1001
0000
0001
0100
,
0020
0030
0100
0001
,
2002
3003
0020
0130
,
2000
3200
0320
0031
,
0011
0000
0001
1000
,
1010
0000
0010
0100
,
0101
0000
1000
0100
,
1100
0000
0001
1000
,
2002
3003
0220
0330
,
2002
0000
0000
3003
,
2000
3100
0020
0031
,
2000
3200
0320
0032
,
2003
3000
2000
3000
,
0002
0023
0230
2300
,
3002
0003
0002
0003
,
2000
3020
0230
0302
,
1003
0020
0130
0100
,
0100
0002
1003
1000
,
1000
0200
0310
0010
,
0010
0002
2000
0000
,
3003
0000
0000
0000
;

//---------------dance-single - ----------------
#NOTES:
     dance-single:
     :
     Medium:
     5:
     :
0000
0000
0000
0000
,
0000
0000
0000
0000
,
0000
0000
0000
0000
,
1000
0001
0020
0000
0031
1000
0200
0000
,
0310
0000
0100
1000
0002
0000
1003
1000
,
0002
0000
2003
0000
3001
0010
0002
0000
,
0203
0000
0000
0000
0310
1000
0010
1000
,
0002
0000
0000
0000
1003
0100
1000
0100
,
2000
0000
0000
0000
3100
0010
0100
0010
,
0001
1000
0002
0000
0023
0000
0130
0100
,
2000
0000
3002
0010
0003
0010
0001
1000
,
0200
0000
0300
0000
0020
0031
2000
3001
,
2002
0000
3003
0000
0100
0020
0130
2000
,
3002
0000
2003
3010
0200
0000
0310
0000
,
0200
0000
0302
0000
0013
0000
0001
0001
,
2000
3010
1000
0001
0200
0310
0100
0000
,
0002
0000
0023
0000
0230
0000
1300
1000
,
2002
0000
0003
0000
3010
0000
0100
0001
,
0020
0000
0031
0001
2000
0000
3000
0010
,
0100
0001
1000
0001
0100
0001
1000
0001
,
2000
0000
3200
0000
0320
0000
0031
0001
,
0002
1003
0020
0000
1030
1000
2000
0000
,
3020
0000
2030
0000
3000
0001
0200
0000
,
0302
0103
0020
0000
1030
0000
0100
0000
,
2100
0000
3000
0000
0001
1000
0001
1000
,
2002
3003
0220
0330
,
2002
0000
3000
0000
1003
1000
0010
0100
,
0020
0130
0020
0130
,
0002
0100
0203
0000
0320
1000
2030
0001
,
3002
0000
0003
0000
2000
0000
3000
0001
,
0002
0010
0023
0100
0230
1000
2300
0001
,
3002
0003
0000
0001
0002
0000
0003
0000
,
2000
0010
3020
0000
0230
0001
0302
0000
,
1003
0001
0020
0000
0130
0000
0100
1000
,
0200
0000
2300
0000
3001
0001
0001
0000
,
0001
0100
0200
0000
0310
0010
0020
0000
,
0030
1000
0002
0000
2000
0000
0000
0000
,
3003
0000
0000
0000
;

//---------------dance-single - ----------------
#NOTES:
     dance-single:
     :
     Hard:
     6:
     :
0000
0000
0000
0000
,
0000
0000
0000
0000
,
0000
0000
0000
0000
,
0001
0001
1000
0020
0000
0000
0000
0000
2030
0000
3001
0000
0200
0000
0000
0000
,
0310
0010
0020
2030
3002
0010
1003
2000
,
3002
1000
2003
3100
0010
0010
0011
0000
,
0022
0000
0000
0000
0033
0000
0000
0000
0020
0000
0031
2000
0000
3001
0000
2000
,
0000
0000
0000
0000
0000
0000
0000
0000
3002
0000
0103
0020
0000
0130
0000
0000
,
0002
0000
0000
0000
0203
0310
0200
0310
,
2000
3002
2003
0000
3020
0130
0002
0103
,
0002
0000
1003
1010
0010
0010
2000
3001
,
0200
0001
0302
0000
0023
0031
2000
3001
,
0220
0000
0330
1000
0100
0020
0130
2000
,
3002
1000
2003
3010
0200
0010
0320
0000
,
0230
0001
0302
0010
0023
0000
0130
0100
,
2000
3020
2030
3002
0203
0310
0200
0000
,
0302
0000
0023
0000
0230
0000
1300
0001
,
0220
0000
0030
0000
0310
0000
1000
0002
,
0023
0000
0031
0002
2003
0000
3000
0020
,
0130
0002
2003
3001
0100
0002
1003
0001
,
2000
0000
3200
0000
0320
0000
0031
0001
,
0200
0310
0020
2030
3001
0002
0203
0301
,
0020
0000
0032
0000
0003
1000
0200
1300
,
0001
1000
0100
2000
0000
0000
0000
0000
3001
0100
0000
0020
0000
0000
0000
0000
,
2030
3001
2000
3010
2000
3001
2000
3001
,
2002
0000
3003
0000
0220
0000
0330
0002
,
2003
3100
0020
0130
1001
1001
0020
0130
,
0010
0001
1000
0200
0000
0000
0000
0000
0320
0000
0031
0000
0200
0000
0300
0000
,
0002
0100
0203
0000
0320
1000
2030
0001
,
3001
0022
0033
0000
0002
1003
0200
0300
,
1010
0000
0110
0000
1001
0000
0011
0010
,
0001
0010
0002
1000
2003
0100
3100
0000
,
0110
0011
1010
1001
,
0001
0001
0002
0010
0023
0130
0200
0300
,
0110
1000
0002
0000
2003
3100
2000
0000
,
3000
0000
0001
0010
0001
2000
0000
0000
3000
0000
0001
0010
0001
2000
0000
0000
,
3000
0002
2000
0000
,
3003
0000
0000
0000
;

//---------------dance-single - ----------------
#NOTES:
     dance-single:
     :
     Challenge:
     7:
     :
0000
0000
0000
0000
,
0000
0000
0000
0000
,
0000
0000
0000
0000
,
1000
0000
0001
0000
0010
0000
0100
0000
1000
0000
0001
0100
0000
0000
0000
0000
,
0010
0000
1001
0100
0010
2000
3001
0100
,
0200
0000
0310
0000
2000
0000
0000
0100
3100
0000
0000
0010
0010
0000
0000
0000
,
0002
0000
1003
0000
0020
0000
0000
0100
0130
0000
0000
1000
1000
0000
0000
0000
,
0021
0000
0130
0000
1000
0000
0000
1000
0100
0000
0000
0001
0100
0000
0000
0000
,
1020
0230
0301
0000
0001
0010
0100
1000
,
0020
0000
0130
0000
0002
0000
0000
0010
0013
0000
0000
0100
0100
0000
0000
0000
,
2000
0000
3001
0000
0200
0000
0000
0010
0310
0000
0000
0001
0001
0000
0000
0000
,
1020
0000
0130
0000
0001
0000
0000
0001
0100
0000
0000
1000
0100
0000
0000
0000
,
0021
0230
1300
0000
1000
0010
0100
0001
,
2000
0000
3100
0010
0002
0000
0003
0000
0020
0000
0130
1000
0200
0000
0300
0000
,
2000
0000
3001
0100
0020
0000
0030
0000
1000
0001
0100
0000
0020
0000
0030
0000
,
0100
0000
0000
0001
0010
0000
0000
0000
0010
0000
0000
1000
0100
0000
0000
0000
,
0010
1000
0001
0010
0100
0010
1001
0000
,
0002
0000
0103
0010
2000
0000
3000
0000
0020
0000
0130
0001
0200
0000
0300
0000
,
0002
0000
1003
0100
0020
0000
0030
0000
0001
1000
0100
0000
0020
0000
0030
0000
,
0010
0000
0000
1000
0100
0000
0010
0000
0100
0000
0000
0010
0001
0000
0010
0000
,
0010
0001
1000
0010
0100
0010
1001
0000
,
2001
0000
0000
0000
3010
0000
0100
0000
0001
0000
1000
0100
0000
0000
0000
0000
,
0010
0000
1000
0100
1000
0100
1000
0010
0100
0000
0001
0010
0100
0000
0000
0000
,
1000
0000
0001
0000
0010
0000
0100
0000
1000
0000
0001
0100
0000
0000
0001
0000
,
1000
0000
0010
0100
0010
0100
0010
1000
0001
0000
2000
0000
3001
0000
0100
0000
,
1002
0000
0000
0000
0013
0000
0100
0000
1000
0000
0001
0100
0000
0000
0000
0000
,
0010
0000
0001
0100
0001
0100
0001
0010
0100
0000
1000
0010
0100
0000
0000
0000
,
0001
0000
1000
0000
0010
0000
0100
0000
0001
0000
1000
0100
0000
0000
1000
0000
,
0020
1030
2000
3001
0002
0103
0101
0000
,
2000
0000
0000
3010
0100
0000
0010
0000
1000
0000
0100
0010
0001
0000
0000
0000
,
0010
0010
0001
0001
1000
1000
1000
0000
,
0002
0000
0000
0103
0010
0000
0100
0000
0001
0000
0010
0100
1000
0000
0000
0000
,
0100
0100
1000
1000
0001
0001
0001
0000
,
0020
1000
2030
0001
3002
0100
0203
0010
,
0302
1000
0023
0001
0230
0000
1300
0000
,
1001
0010
0100
0010
1001
0100
0010
0100
,
0010
1000
0001
0101
;

//---------------dance-double - ----------------
#NOTES:
     dance-double:
     :
     Beginner:
     1:
     :
00000000
00000000
00000000
00000000
,
00000000
00000000
00000000
00000000
,
00000000
00000000
00000000
00000000
,
01000000
00000000
10000000
00000000
,
00100000
00000000
10000000
00000000
,
01000000
00000000
00100000
00000000
,
01000000
00000000
00100000
00000000
,
00010000
00000000
01000000
00000000
,
00001000
00000000
00010000
00000000
,
00000010
00000000
00000001
00000000
,
00000100
00000000
00001000
00000000
,
00000100
00000000
00000010
00000000
,
00000100
00000000
00001000
00000000
,
00001001
00000000
00001000
00000000
,
00010000
00000000
00001000
00000000
,
00011000
00000000
00100000
00000000
,
10000000
00000000
01000000
00000000
,
10010000
00000000
01000000
00000000
,
10000000
00000000
00010000
00000000
,
00011000
00000000
01000000
00000000
,
10000000
00000000
00100000
00000000
,
10010000
00000000
01000000
00000000
,
10010000
00000000
00010000
00000000
,
10010000
00000000
10000000
00000000
,
10010000
00000000
00100000
00000000
,
00011000
00000000
00001001
00000000
,
00000110
00000000
00000000
00000000
,
00000001
00000000
00000010
00000000
,
00000001
00000000
00000010
00000000
,
00000001
00000000
00001000
00000000
,
00000100
00000000
00001000
00000000
,
00010000
00000000
10000000
00000000
,
01000000
00000000
00010000
00000000
,
00100000
00000000
00010000
00000000
,
10000000
00000000
00100000
00000000
,
00100000
00000000
10000000
00000000
,
10000000
00000000
01000000
00000000
;

//---------------dance-double - ----------------
#NOTES:
     dance-double:
     :
     Easy:
     3:
     :
00000000
00000000
00000000
00000000
,
00000000
00000000
00000000
00000000
,
00000000
00000000
00000000
00000000
,
02000000
03100000
20000000
30010000
,
00200000
01300000
20000000
30010000
,
02000000
00100000
03100000
10000000
,
02000000
00000000
03100000
00100000
,
00020000
00000000
01030000
01000000
,
00002000
00000000
00013000
00010000
,
00000020
00001030
00000002
00000013
,
00000200
00000300
00002000
00003002
,
00000203
00000300
00000020
00002030
,
00003200
00000300
00001000
00001000
,
00000011
00000000
00001000
00000010
,
00020000
00030000
00001000
00010000
,
00022000
00033000
00200000
00310000
,
20000000
30200000
02300000
03100000
,
10010000
00000000
01000000
00100000
,
20000000
30000000
00010000
00100000
,
00022000
00033000
02000000
03010000
,
20000000
32000000
03200000
00310000
,
10100000
00000000
01000000
00010000
,
10100000
00000000
00010000
00100000
,
00110000
00000000
10000000
01000000
,
10010000
00000000
00100000
00001000
,
00022000
00033000
00002020
00003030
,
00000220
00000000
00000000
00000330
,
00000002
00001003
00000020
00000130
,
00000002
00002003
00003020
00000230
,
00000302
00000003
00002000
00003000
,
00000200
00020300
00032000
02003000
,
03020000
00030000
20000000
30000000
,
02000000
03200000
00320000
20030000
,
30100000
02000000
03010000
10000000
,
10000000
02000000
03100000
00100000
,
00100000
00020000
10030000
10000000
,
10000000
00200000
02000000
00000000
,
03300000
00000000
00000000
00000000
;

//---------------dance-double - ----------------
#NOTES:
     dance-double:
     :
     Medium:
     5:
     :
00000000
00000000
00000000
00000000
,
00000000
00000000
00000000
00000000
,
00000000
00000000
00000000
00000000
,
10000000
00010000
02000000
00000000
03100000
10000000
00020000
00000000
,
00130000
00000000
00100000
00010000
20000000
00000000
30100000
00100000
,
02000000
00000000
03020000
00000000
10030000
00100000
02000000
00000000
,
03200000
00000000
00000000
00000000
10300000
00100000
10000000
00100000
,
02000000
00000000
00000000
00000000
03010000
01000000
00010000
01000000
,
00002000
00000000
00000000
00000000
00013000
00001000
00010000
00001000
,
00010000
00000010
00002000
00000000
00003002
00000000
00000103
00000100
,
00000020
00000000
00002030
00000001
00003000
00000001
00000100
00000010
,
00002000
00000000
00003000
00000000
00000020
00000130
00000002
00000103
,
00000202
00000000
00000303
00000000
00000100
00000020
00000130
00000002
,
00002003
00000000
00003020
00000130
00000200
00000000
00000310
00000000
,
00002000
00000000
00003200
00000000
00010300
00000000
00001000
00001000
,
00200000
00310000
10000000
00010000
02000000
03100000
01000000
00000000
,
00020000
00000000
20030000
00000000
32000000
00000000
03100000
00100000
,
20020000
00000000
30000000
00000000
00130000
00000000
01000000
10000000
,
00200000
00000000
01300000
01000000
00020000
00000000
00030000
10000000
,
00010000
01000000
00100000
10000000
01000000
00100000
00010000
10000000
,
00200000
00000000
02300000
00000000
03020000
00000000
10030000
10000000
,
20000000
30100000
02000000
00000000
03010000
00010000
00020000
00000000
,
20030000
00000000
30020000
00000000
00030000
00100000
02000000
00000000
,
23000000
31000000
20000000
00000000
30010000
00000000
01000000
00000000
,
01002000
00000000
00003000
00000000
00010000
00001000
00010000
00001000
,
00022000
00033000
00002020
00003030
,
00002002
00000000
00000003
00000000
00003001
00000001
00001000
00000100
,
00002000
00003100
00020000
00031000
,
00200000
00010000
00320000
00000000
20030000
01000000
32000000
00100000
,
03200000
00000000
00300000
00000000
02000000
00000000
03000000
10000000
,
20000000
00100000
30200000
01000000
02300000
00010000
03020000
10000000
,
20030000
30000000
00000000
10000000
20000000
00000000
30000000
00000000
,
00200000
10000000
20300000
00000000
32000000
00100000
03200000
00000000
,
00310000
00100000
00020000
00000000
01030000
00000000
01000000
00100000
,
02000000
00000000
03200000
00000000
10300000
10000000
10000000
00000000
,
10000000
00010000
00020000
00000000
10030000
10000000
20000000
00000000
,
30000000
00010000
00200000
00000000
02000000
00000000
00000000
00000000
,
03300000
00000000
00000000
00000000
;

//---------------dance-double - ----------------
#NOTES:
     dance-double:
     :
     Hard:
     7:
     :
00000000
00000000
00000000
00000000
,
00000000
00000000
00000000
00000000
,
00000000
00000000
00000000
00000000
,
01000000
01000000
00100000
00020000
00000000
00000000
00000000
00000000
20030000
00000000
30100000
00000000
02000000
00000000
00000000
00000000
,
03010000
00010000
20000000
32000000
03200000
00010000
01300000
02000000
,
03200000
01000000
02300000
13000000
00100000
00100000
01100000
00000000
,
20020000
00000000
00000000
00000000
30030000
00000000
00000000
00000000
00200000
00000000
01300000
20000000
00000000
31000000
00000000
20000000
,
00000000
00000000
00000000
00000000
00000000
00000000
00000000
00000000
32000000
00000000
03100000
00020000
00000000
00130000
00000000
00000000
,
00002000
00000000
00000000
00000000
00023000
00031000
00020000
00031000
,
00020000
00030020
00002030
00000000
00003002
00000103
00000020
00000130
,
00000020
00000000
00000130
00000101
00000001
00000001
00002000
00003010
,
00000200
00000010
00000320
00000000
00000230
00000310
00002000
00003010
,
00002020
00000000
00003030
00010000
00001000
00020000
00031000
02000000
,
03020000
01000000
02030000
03100000
20000000
00100000
30200000
00000000
,
20300000
00010000
30020000
00100000
00230000
00000000
00310000
00010000
,
02000000
03200000
02300000
03020000
20030000
31000000
20000000
00000000
,
30020000
00000000
00230000
00000000
00302000
00000000
00013000
00001000
,
00022000
00000000
00003000
00000000
00031000
00000000
00001000
00020000
,
00030020
00000000
00001030
00002000
00003002
00000000
00000003
00000200
,
00000310
00002000
00003200
00001300
00000010
00000200
00000301
00000100
,
00000020
00000000
00002030
00000000
00003002
00000000
00000103
00000100
,
00000020
00001030
00002000
00003002
00000013
00000020
00000230
00000310
,
00000002
00000000
00002003
00000000
00003000
00001000
00000200
00001300
,
00000001
00001000
00000100
00002000
00000000
00000000
00000000
00000000
00003001
00000100
00000000
00000020
00000000
00000000
00000000
00000000
,
00002030
00003100
00020000
00031000
00020000
00031000
00020000
00031000
,
00022000
00000000
00033000
00000000
00220000
00000000
00330000
00020000
,
20030000
31000000
20000000
31000000
10100000
10100000
00200000
01300000
,
00100000
10000000
00010000
02000000
00000000
00000000
00000000
00000000
03020000
00000000
10030000
00000000
00200000
00000000
00300000
00000000
,
02000000
00100000
03200000
00000000
20300000
00010000
30020000
01000000
,
01030000
02020000
03030000
00000000
00200000
00301000
00020000
00030000
,
00001010
00000000
00001001
00000000
00000011
00000000
00001001
00000001
,
00001000
00000001
00002000
00000010
00003020
00000100
00000130
00000000
,
00001001
00000110
00000101
00001010
,
00000100
00000100
00000200
00000001
00000302
00001003
00002000
00003000
,
00000110
00000001
00002000
00000000
00003020
00000130
00000020
00000000
,
00000030
00000000
00001000
00000001
00001000
00000020
00000000
00000000
00000030
00000000
00001000
00000001
00001000
00000020
00000000
00000000
,
00000030
00000200
00000002
00000000
,
00000303
00000000
00000000
00000000
;
