#TITLE:ANALYZE;
#ARTIST:B.BANDJ;
#BANNER:ANALYZE.png;
#BACKGROUND:ANALYZE-bg.png;
#CDTITLE:./CDTITLES/Song Pack 3.png;
#MUSIC:ANALYZE.ogg;
#SAMPLESTART:12.84;
#SAMPLELENGTH:15;
#BPMS:0=93;

//---------------dance-single - ----------------
#NOTES:
     dance-single:
     :
     Beginner:
     1:
     :
0000
0000
0000
0000
,
0000
0000
0000
0000
,
0000
0000
0000
0000
,
0000
0000
0000
0000
,
0000
0000
0000
0000
,
1001
0000
0100
0000
,
1001
0000
0100
0000
,
0110
0000
1000
0000
,
0110
0000
0001
0000
,
1001
0000
0010
0000
,
1001
0000
0010
0000
,
0110
0000
0001
0000
,
0110
0000
1000
0000
,
0100
0000
0000
0001
,
0000
0110
0000
0010
,
0000
1001
0000
1000
,
0000
1001
0000
0100
,
0000
0100
0000
0010
,
0000
0001
0000
0000
,
1000
0000
0000
0100
,
0000
0100
0000
0000
,
1000
0000
0000
0001
,
0000
0001
0000
1000
,
0000
0100
0000
1000
,
0000
1000
0000
0001
,
0000
0000
0110
0000
,
0010
0000
0010
0000
,
1001
0000
0110
0000
,
0100
0000
0100
0000
,
0001
0000
0000
0000
,
0100
0000
0000
0000
;

//---------------dance-single - ----------------
#NOTES:
     dance-single:
     :
     Easy:
     4:
     :
0000
0000
0000
0000
,
0000
0000
0000
0000
,
0000
0000
0000
0000
,
0000
0000
0000
0000
,
0000
0000
0000
0000
,
2001
3001
0100
0001
,
1002
1003
0100
1000
,
0110
0000
1000
0001
,
0110
0000
0001
1000
,
1002
1003
0010
1000
,
2001
3001
0010
0001
,
0110
0000
0001
1000
,
0110
0000
1000
0001
,
0100
0210
0300
0001
,
1000
2100
3000
0010
,
0001
0021
0030
1000
,
0010
1020
0030
0100
,
0002
0000
0103
0010
0000
0000
0010
0000
,
0200
0000
0301
2000
0000
0000
3000
0000
,
2000
0000
3001
0100
0000
0000
0100
0000
,
0020
0000
0130
0002
0000
0000
0003
0000
,
2000
0000
3010
0200
0000
0000
0301
0000
,
0020
0000
0032
0100
0003
0000
1000
0000
,
0002
0000
0103
0020
0000
0000
1030
0000
,
0200
0000
2300
0010
3000
0000
0001
0000
,
1001
0000
0110
2000
,
3010
0000
0010
0000
0010
1000
0100
0000
,
1001
0000
0110
0002
,
0103
0000
0100
0000
0100
0001
0010
0000
,
0002
0000
0003
0001
0000
0000
0000
0000
,
0200
0000
0300
0100
0000
0000
0000
0000
;

//---------------dance-single - ----------------
#NOTES:
     dance-single:
     :
     Medium:
     5:
     :
0000
0000
0000
0000
,
0000
0000
0000
0000
,
0000
0000
0000
0000
,
0000
0000
0000
0000
,
0000
0000
0000
0000
,
2001
0001
3001
0200
0000
0300
0001
0000
,
1002
1000
1003
0020
0000
0030
1000
0000
,
0110
0100
0001
0200
0000
0300
0001
0000
,
0110
0010
1000
0020
0000
0030
1000
0000
,
1002
1000
1003
0020
0000
0030
1000
0000
,
2001
0001
3001
0200
0000
0300
0001
0000
,
0110
0010
1000
0020
0000
0030
1000
0000
,
0110
0100
0001
0200
0000
0300
0001
0000
,
0200
0000
0320
1000
0030
0001
1000
0000
,
1000
0100
2000
0001
3000
0002
0103
0000
,
0020
0000
0230
0001
0300
1000
0001
0000
,
0001
0010
0002
1000
0003
2000
3010
0000
,
0002
0000
0103
0001
2000
0001
3002
0000
,
0203
0000
0310
0100
0002
0100
0203
0000
,
0320
0000
1030
0010
0200
0010
0320
0000
,
2030
0000
3100
1000
0002
1000
1003
0000
,
1001
0000
0110
0100
0200
0001
0301
0000
,
0010
0010
2000
0000
3001
0001
0100
0000
,
0002
1003
0002
1003
1000
1000
0010
0000
,
0010
0010
2000
0000
3001
0001
0100
0000
,
1001
0000
0110
0010
0020
1000
1030
0000
,
0100
0100
0002
0000
1003
1000
0010
0000
,
2000
3001
2000
3001
0001
0001
0100
0000
,
0100
0100
0002
0000
1003
1000
0010
0000
,
2002
0000
3003
0110
0000
0000
0000
0000
,
0220
0000
0330
1001
0000
0000
0000
0000
;

//---------------dance-single - ----------------
#NOTES:
     dance-single:
     :
     Hard:
     7:
     :
0000
0000
0000
0000
,
0000
0000
0000
0000
,
0000
0000
0000
0000
,
0000
0000
0000
0000
,
0000
0000
0000
0000
,
1001
0011
1001
0100
0000
0000
0110
0000
,
1001
1010
1001
0010
0000
0000
1001
0000
,
0110
0000
0100
0000
0001
1000
0200
0000
0000
0000
0300
1000
0001
0000
0000
0000
,
0110
0000
0010
0000
1000
0001
0020
0000
0000
0000
0030
0001
1000
0000
0000
0000
,
1001
1100
1001
0010
0000
0000
0110
0000
,
1001
0101
1001
0100
0000
0000
1001
0000
,
0110
0000
0010
0000
1000
0001
0020
0000
0000
0000
0030
0001
1000
0000
0000
0000
,
0110
0000
0100
0000
0001
1000
0200
0000
0000
0000
0300
1000
0001
0000
0000
0000
,
0201
0301
2000
3100
0020
0031
0110
0000
,
2100
3100
2000
3001
0200
0310
1010
0000
,
1020
1030
0200
0301
2000
3100
0110
0000
,
2001
3001
0020
1030
2000
3010
1010
0000
,
1000
0001
0010
0000
0100
0000
2000
0000
0000
0000
3001
0000
1001
0000
0000
0000
,
0100
0001
0200
0000
0320
0000
1030
0001
0200
0000
0300
0000
0001
0000
0000
0000
,
0001
1000
0100
0000
0010
0000
0002
0000
0000
0000
1003
0000
1001
0000
0000
0000
,
0010
1000
0020
0000
0230
0000
0301
1000
0020
0000
0030
0000
1001
0000
0000
0000
,
1001
0000
2000
0000
3010
0000
0020
0000
0030
1000
0001
0000
0100
0001
0100
0000
,
0001
2000
0000
0000
3100
0000
0010
0000
0010
0000
0001
0000
1000
0010
1000
0000
,
0001
0100
0001
1000
0010
1000
0100
0010
0100
0000
0000
0000
1001
0000
0000
0000
,
1000
0002
0000
0000
0013
0000
0100
0000
0100
0000
1000
0000
0001
0100
0001
0000
,
1001
0000
2000
0000
3010
0000
0020
0000
0030
1000
0001
0000
0100
0001
0100
0000
,
0001
2000
0000
0000
3100
0000
0010
0000
0010
0000
0001
0000
1000
0010
1000
0000
,
0001
0100
0001
1000
0010
1000
0100
0010
0100
0000
0000
0000
1001
0000
0000
0000
,
1000
0002
0000
0000
0013
0000
0100
0000
0100
0000
1000
0000
0001
0100
0001
0000
,
2002
0000
3003
0110
0000
0000
0000
0000
,
0220
0000
0330
1001
0000
0000
0000
0000
;

//---------------dance-single - ----------------
#NOTES:
     dance-single:
     :
     Challenge:
     7:
     :
0000
0000
0000
0000
,
0000
0000
0000
0000
,
0000
0000
0000
0000
,
0020
0000
0030
1000
0000
0000
0000
0000
,
0002
0000
0003
0100
0000
0000
0000
0000
,
0010
1000
0100
0000
1000
0100
1000
0000
0000
0010
0100
0000
0101
0000
1000
0000
,
0100
0000
0100
0000
0000
1000
0001
0000
0010
0000
0100
0000
0010
0000
1001
0000
,
0010
0000
0010
0000
1000
0000
0100
0000
0001
1000
0001
0000
1100
0000
0110
0000
,
0010
0010
0100
0010
0011
0100
1100
0010
,
0100
1000
0010
1001
0010
0100
1000
0100
,
0010
1000
0010
0010
0001
1100
1000
0101
,
0010
1000
0100
0000
0010
0001
0100
0000
0010
1000
0100
0000
0010
0001
0100
0000
,
0010
1000
0100
0000
0010
0001
1000
0000
0010
1000
0100
0000
0101
0000
0000
0000
,
0010
0001
0100
0000
0001
0100
0001
0000
0000
0010
0100
0000
1100
0000
0001
0000
,
0100
0000
0100
0000
0000
0001
1000
0000
0010
0000
0100
0000
0010
0000
1001
0000
,
0010
0000
0010
0000
0001
0000
0100
0000
1000
0001
1000
0000
0101
0000
0110
0000
,
0010
0010
0100
0010
1010
0100
0101
0010
,
0100
0001
0010
1001
0010
0100
0001
0100
,
0010
0001
0010
0010
1000
0101
0001
1100
,
0010
0001
0100
0000
0010
1000
0100
0000
0010
0001
0100
0000
0010
1000
0100
0000
,
0010
0001
0100
0000
0010
1000
0001
0000
0010
0001
0100
0000
1100
0000
0000
0000
,
0001
0000
1000
0000
0010
1000
0001
0000
0100
0001
0100
0000
0110
0000
1001
0000
,
0010
0000
0001
0000
1000
0001
0100
0000
0001
1000
0001
0000
0110
0000
1001
0000
,
0010
0100
0010
0100
0010
0100
0010
0100
0010
0000
0100
0000
1001
0000
0010
0000
,
1000
0000
0100
0000
0010
0000
1000
0000
0100
0000
1001
0000
0010
1000
0100
0000
,
1000
0000
0001
0000
0010
0001
1000
0000
0100
1000
0100
0000
0110
0000
1001
0000
,
0010
0000
1000
0000
0001
1000
0100
0000
1000
0001
1000
0000
0110
0000
1001
0000
,
0100
0010
0100
0010
0100
0010
0100
0010
0100
0000
0010
0000
1001
0000
0010
0000
,
0001
0000
0100
0000
0010
0000
0001
0000
0100
0000
1001
0000
0010
0001
0100
0000
;

//---------------dance-double - ----------------
#NOTES:
     dance-double:
     :
     Beginner:
     1:
     :
00000000
00000000
00000000
00000000
,
00000000
00000000
00000000
00000000
,
00000000
00000000
00000000
00000000
,
00000000
00000000
00000000
00000000
,
00000000
00000000
00000000
00000000
,
10010000
00000000
01000000
00000000
,
10010000
00000000
01000000
00000000
,
01100000
00000000
01000000
00000000
,
00011000
00000000
00000010
00000000
,
00001001
00000000
00000100
00000000
,
00011000
00000000
00100000
00000000
,
01100000
00000000
10000000
00000000
,
01100000
00000000
10000000
00000000
,
01000000
00000000
00000000
00001000
,
00000000
00011000
00000000
00000010
,
00000000
00000110
00000000
00000001
,
00000000
00000110
00000000
00001000
,
00000000
00010000
00000000
00000000
,
01000000
00000000
00100000
00000000
,
10000000
00000000
01000000
00000000
,
00100000
00000000
00001000
00000000
,
00010000
00000000
00001000
00000000
,
00000100
00000000
00001000
00000000
,
00010000
00000000
00100000
00000000
,
01000000
00000000
00100000
00000000
,
10010000
00000000
01100000
00000000
,
00010000
00000000
00001000
00000000
,
00000110
00000000
00000110
00000000
,
00000100
00000000
00000010
00000000
,
00000001
00000000
00000000
00000000
,
00000100
00000000
00000000
00000000
;

//---------------dance-double - ----------------
#NOTES:
     dance-double:
     :
     Easy:
     4:
     :
00000000
00000000
00000000
00000000
,
00000000
00000000
00000000
00000000
,
00000000
00000000
00000000
00000000
,
00000000
00000000
00000000
00000000
,
00000000
00000000
00000000
00000000
,
20010000
30010000
01000000
00010000
,
10020000
10030000
01000000
10000000
,
01100000
00000000
01000000
00001000
,
00011000
00000000
00000010
00001000
,
00001002
00001003
00000100
00010000
,
00021000
00031000
00100000
00010000
,
01100000
00000000
10000000
00010000
,
01100000
00000000
10000000
00100000
,
01000000
02100000
03000000
00001000
,
00010000
00021000
00030000
00000010
,
00000100
00000210
00000300
00000001
,
00001000
00000102
00000003
00001000
,
00000020
00010030
00002000
00003000
,
02000000
03010000
00200000
00300000
,
20000000
30010000
02000000
03000000
,
00200000
01300000
00002000
00003000
,
00020000
00030010
00002000
00003001
,
00000200
00000320
00001030
00000100
,
00020000
00031000
00200000
00310000
,
02000000
03020000
00130000
00010000
,
10010000
00000000
01100000
02000000
,
03010000
00000000
00100000
00000000
00001000
00010000
00000100
00000000
,
00001100
00000000
00000110
00000002
,
00000103
00000000
00000001
00000000
00000010
00000001
00000100
00000000
,
00000002
00000000
00000003
00000001
00000000
00000000
00000000
00000000
,
00000200
00000000
00000300
00000100
00000000
00000000
00000000
00000000
;

//---------------dance-double - ----------------
#NOTES:
     dance-double:
     :
     Medium:
     5:
     :
00000000
00000000
00000000
00000000
,
00000000
00000000
00000000
00000000
,
00000000
00000000
00000000
00000000
,
00000000
00000000
00000000
00000000
,
00000000
00000000
00000000
00000000
,
20100000
00100000
30100000
02000000
00000000
03000000
00010000
00000000
,
01020000
01000000
01030000
00200000
00000000
00300000
10000000
00000000
,
01100000
01000000
00001000
00020000
00000000
00030000
00000010
00000000
,
00000110
00000001
00001000
00000002
00000000
00000003
00001000
00000000
,
00000102
00000100
00000103
00000020
00000000
00000030
00010000
00000000
,
00021000
00001000
00031000
02000000
00000000
03000000
00100000
00000000
,
01100000
00100000
10000000
00100000
00000000
00000000
01000000
00000000
,
01010000
00001000
00010000
00000100
00000000
00000000
00001000
00000000
,
00000002
00000000
00002003
00000010
00003000
00000100
00000001
00000000
,
00001000
00000100
00020000
00001000
00030000
00200000
00310000
00000000
,
00200000
00000000
02300000
10000000
03000000
00010000
10000000
00000000
,
00010000
00100000
00020000
01000000
00030000
00002000
00013000
00000000
,
00000020
00000000
00001030
00000100
00002000
00000001
00003002
00000000
,
00000203
00000000
00000301
00001000
00000020
00001000
00002030
00000000
,
00003200
00000000
00010300
00001000
02000000
00010000
03020000
00000000
,
00230000
00000000
00310000
01000000
00020000
10000000
10030000
00000000
,
10010000
00000000
01100000
01000000
02000000
00010000
03010000
00000000
,
00100000
00100000
00002000
00000000
00013000
00010000
00000010
00000000
,
00002000
00003001
00002000
00003001
00000001
00000001
00000100
00000000
,
00000001
00000001
00002000
00000000
00003010
00000010
00000100
00000000
,
00001001
00000000
00000110
00000010
00000020
00001000
00001030
00000000
,
00000100
00000100
00020000
00000000
00031000
00001000
00100000
00000000
,
00020000
10030000
00020000
01030000
01000000
01000000
00001000
00000000
,
00010000
00010000
00000020
00000000
00001030
00001000
00000000
00000000
,
00002002
00000000
00003003
00000110
00000000
00000000
00000000
00000000
,
00000220
00000000
00000330
00001001
00000000
00000000
00000000
00000000
;

//---------------dance-double - ----------------
#NOTES:
     dance-double:
     :
     Hard:
     7:
     :
00000000
00000000
00000000
00000000
,
00000000
00000000
00000000
00000000
,
00000000
00000000
00000000
00000000
,
00000000
00000000
00000000
00000000
,
00000000
00000000
00000000
00000000
,
10010000
00110000
10010000
01000000
00000000
00000000
01100000
00000000
,
10010000
10100000
10010000
00100000
00000000
00000000
10010000
00000000
,
01100000
00000000
01000000
00000000
00001000
00010000
00000200
00000000
00000000
00000000
00000300
00001000
00000010
00000000
00000000
00000000
,
00000110
00000000
00001000
00000000
00000001
00000100
00000020
00000000
00000000
00000000
00000030
00001000
00000001
00000000
00000000
00000000
,
00001001
00000101
00001001
00000010
00000000
00000000
00000110
00000000
,
00001001
00001010
00001001
00000100
00000000
00000000
00001001
00000000
,
00000110
00000000
00000100
00000000
00010000
00001000
00200000
00000000
00000000
00000000
00300000
00010000
10000000
00000000
00000000
00000000
,
01100000
00000000
00100000
00000000
10000000
00010000
02000000
00000000
00000000
00000000
03000000
00010000
10000000
00000000
00000000
00000000
,
02010000
03010000
00200000
00301000
00020000
00030100
00001100
00000000
,
00002100
00003100
00002000
00003010
00000200
00000301
00000101
00000000
,
00002001
00003001
00000200
00000310
00002000
00003001
00000110
00000000
,
00002001
00003001
00000200
00000301
00002000
00003010
00001010
00000000
,
00010000
00001000
00100000
00000000
00010000
00000000
20000000
00000000
00000000
00000000
30010000
00000000
10010000
00000000
00000000
00000000
,
01000000
00010000
02000000
00000000
03020000
00000000
00130000
00001000
00020000
00000000
00030000
00000000
00000010
00000000
00000000
00000000
,
00001000
00000001
00000100
00000000
00000010
00000000
00002000
00000000
00000000
00000000
00003001
00000000
00001001
00000000
00000000
00000000
,
00000010
00001000
00000200
00000000
00020300
00000000
00031000
01000000
00200000
00000000
00300000
00000000
10010000
00000000
00000000
00000000
,
10010000
00000000
20000000
00000000
31000000
00000000
02000000
00000000
03000000
10000000
00010000
00000000
01000000
00010000
01000000
00000000
,
00010000
02000000
00000000
00000000
03001000
00000000
00010000
00000000
00000010
00000000
00001000
00000000
00000001
00000100
00000001
00000000
,
00001000
00000010
00001000
00000001
00000100
00000001
00001000
00000001
00001000
00000000
00000000
00000000
00001001
00000000
00000000
00000000
,
00000100
00000002
00000000
00000000
00001003
00000000
00000010
00000000
00000010
00000000
00010000
00000000
00001000
01000000
00010000
00000000
,
01010000
00000000
00020000
00000000
10030000
00000000
00200000
00000000
00300000
10000000
00100000
00000000
01000000
00010000
01000000
00000000
,
00010000
02000000
00000000
00000000
03001000
00000000
00010000
00000000
00010000
00000000
00000010
00000000
00001000
00000100
00001000
00000000
,
00000001
00000100
00000001
00000010
00000100
00000010
00000001
00001000
00000001
00000000
00000000
00000000
00001001
00000000
00000000
00000000
,
00001000
00000200
00000000
00000000
00010300
00000000
00001000
00000000
00001000
00000000
00100000
00000000
00010000
10000000
00010000
00000000
,
20020000
00000000
30030000
01100000
00000000
00000000
00000000
00000000
,
02200000
00000000
03300000
10010000
00000000
00000000
00000000
00000000
;
