#TITLE:NONSTOP E;
#ARTIST:I'M ALIVE -- MY BABY MAMA -- LOVE MACHINE;
#BANNER:NONSTOP E.png;
#BACKGROUND:NONSTOP E-bg.png;
#CDTITLE:./CDTITLES/DANCE DANCE REVOLUTION SOLO.PNG;
#MUSIC:NONSTOP E.ogg;
#SAMPLESTART:62.947;
#SAMPLELENGTH:15;
#DISPLAYBPM:138:160;
#BPMS:0=140.082,180=137.932,288=144.362,292=160.066;

//---------------dance-single - ----------------
#NOTES:
     dance-single:
     :
     Easy:
     3:
     :
0000
0000
0000
0000
,
0000
0000
0000
0000
,
0000
0000
0000
0000
,
0000
0000
0000
0000
,
0000
0000
0000
0000
,
1000
0000
0000
0000
,
0001
0000
0000
0000
,
1000
0000
0000
0000
,
0000
0000
0000
0000
,
0010
0001
0100
0000
,
1000
0001
0100
0000
,
1001
1001
0000
0000
,
1001
0110
0000
0000
,
0010
0001
0100
0000
,
1000
0001
0100
0000
,
1001
1001
0000
0000
,
1001
0110
0000
0000
,
0001
0000
0001
0000
,
1000
0001
0100
0010
,
1000
0000
1000
0000
,
0001
0100
0000
1001
,
0010
0000
1000
0000
,
0001
0001
1000
0001
,
1000
0000
1000
0000
,
0010
0100
0001
0000
,
1000
0000
0010
0000
,
0001
1000
0001
1000
,
0001
0000
0010
0000
,
1000
0001
1000
0001
,
0100
0100
0010
0010
,
0100
1000
0010
0001
,
1000
0010
0100
0000
,
1001
0000
1001
0000
,
0010
0001
0100
0000
,
1000
0001
0100
0000
,
1001
1001
0000
0000
,
1001
0110
0000
0000
,
1000
0001
1000
0000
,
0001
1000
0001
0000
,
1001
1001
0000
0000
,
1001
0110
0000
0000
,
1000
0000
0000
0000
,
0001
0000
0000
0000
,
0100
0000
0000
0000
,
0010
0100
1000
0001
,
0100
0010
0000
0000
,
1000
0010
0000
0000
,
0001
0010
0000
0000
,
1000
0010
0000
0000
,
1000
0001
0000
0000
,
1000
1000
0000
0000
,
0001
0001
0000
0000
,
1000
0010
0000
0000
,
0001
1000
0001
1000
,
0000
0000
0001
0001
,
0000
0000
1000
1000
,
0001
0001
1000
1000
,
0001
0010
1000
0010
,
1000
0001
1000
0100
,
0010
0001
0010
1000
,
1000
0001
0001
1000
,
0001
0000
0000
1000
0000
0000
0001
0000
,
0000
0000
0000
0010
0010
0000
0000
0000
,
1000
0010
0001
0010
,
1000
0100
0001
0100
,
1000
0010
0001
0010
,
1000
0010
0001
0010
,
1000
0100
0001
0100
,
1000
0010
0001
0010
,
1000
0010
0001
0010
,
1000
0100
0001
0000
,
1000
0000
0000
0001
0000
0000
1000
0000
,
0000
0000
0000
0010
0001
0000
0000
0000
,
0010
1000
0100
1000
,
0010
1000
0100
1000
,
0010
0001
0100
0001
,
0010
0001
0100
0001
,
0010
1000
0000
0000
,
0010
0001
0000
0000
,
0010
0001
0000
0000
,
0010
1000
0000
0000
,
0010
0001
0000
0000
,
0010
1000
0000
0000
,
0010
1000
0000
0000
,
0010
0001
0010
1000
,
0001
1000
0000
0000
,
1000
1001
1000
0100
,
1000
0001
0000
0000
,
0001
0110
1001
0010
,
1000
0001
0000
0000
,
0010
1001
0001
0100
,
0100
0001
0000
0000
,
0010
1000
0110
1001
,
0100
0001
0100
0001
,
0010
0001
0100
0001
,
0010
0001
0100
0001
,
0010
0001
0010
0010
,
0010
1000
0100
1000
,
0010
1000
0100
1000
,
0010
1000
0100
1000
,
0010
1000
0100
0100
,
1001
0000
0000
0000
,
1000
0110
1000
0100
,
1000
0001
0000
0000
,
0001
0110
1001
0010
,
1001
0000
0000
0000
,
0001
0110
0001
0100
,
1001
0000
0110
0000
,
0000
1001
0110
1001
,
0110
0000
0000
0000
;

//---------------dance-single - ----------------
#NOTES:
     dance-single:
     :
     Medium:
     5:
     :
0000
0000
0000
0000
,
0000
0000
0000
0000
,
0000
0000
0000
0000
,
0000
0000
0000
0000
,
0000
0000
0000
0000
,
1001
0000
0000
0110
0000
0000
0001
0000
,
0011
0000
0000
1100
0000
0000
0010
0000
,
1100
0000
0000
1001
0000
0000
0000
0000
,
1010
0101
1001
0000
,
1000
0001
0100
0000
0010
0000
0000
0000
,
1000
0000
0001
0100
0001
0000
0000
0000
,
1001
0000
1001
0000
0000
1001
0000
0000
,
1001
0000
1001
0000
0000
0110
0000
0000
,
1000
0001
0100
0000
0010
0000
0000
0000
,
1000
0000
0001
0100
0001
0000
0000
0000
,
1001
0000
1001
0000
0000
1001
0000
0000
,
0011
1001
0110
1001
,
0000
1000
0000
1000
,
0000
0000
1000
0100
1000
0000
1001
0000
,
0000
0001
0000
0001
,
0000
0000
1000
0010
0000
0000
1001
0000
,
0010
1000
0100
0001
,
0010
0001
1000
0000
0000
0000
1001
0000
,
0000
0100
0000
0100
,
1010
1001
0110
0000
,
0001
0100
0001
0000
0010
0000
0000
0000
,
1000
1000
1000
0000
0001
0001
0001
0000
,
1000
0010
1000
0000
0001
0000
0000
0000
,
0010
0010
0010
0000
0100
0100
0100
0000
,
1000
0001
1000
0000
0010
0000
0000
0000
,
1001
0110
1001
0000
,
1000
0100
0001
0000
1000
0100
0001
0000
,
1000
0010
0001
0000
1000
0010
0001
0000
,
1000
0001
1000
0000
0001
0000
0000
0000
,
1000
0000
0001
1000
0100
0000
0000
0000
,
1001
0000
1001
0000
0000
1001
0000
0000
,
0011
1001
0110
1001
,
1000
0100
1000
0000
0001
0000
0000
0000
,
0001
0000
1000
0010
1000
0000
0000
0000
,
1001
0000
1001
0000
0000
1001
0000
0000
,
1001
0000
1001
0000
0000
0110
0000
0000
,
1001
0000
0000
0110
0000
0000
0001
0000
,
0011
0000
0000
1100
0000
0000
0010
0000
,
1100
0000
0000
1001
0000
0000
0000
0000
,
0010
0000
1000
0000
0001
1000
0001
0000
,
1000
1000
0000
0000
,
0001
0001
0000
0000
,
0100
0100
0000
0000
,
0001
0001
0000
0000
,
0010
0001
0000
0000
,
1000
1000
0000
0000
,
0001
0010
0000
0000
,
0100
1000
0000
0000
,
0001
0000
1000
0000
,
0000
0000
0001
0001
,
0000
0000
1000
1000
,
0010
1000
0001
0000
1000
0001
0100
0000
,
0001
0010
1000
0010
,
0100
0100
0001
0001
,
1000
1000
0100
0100
,
0001
0000
0001
0000
1000
0001
1000
0000
,
0001
0000
0000
1000
0000
0000
0001
0000
,
0000
0000
0000
1000
0001
0000
0000
0000
,
0000
0000
0010
0010
,
0000
0000
0100
0100
,
0000
0000
1000
1000
,
0000
0000
0001
0001
,
0000
0000
0000
0000
0100
1000
0001
0000
,
0000
0000
0000
0000
0010
0001
1000
0000
,
0000
0000
1000
0001
,
0000
0000
0000
0000
0010
0100
1000
0000
,
0010
0001
0000
1000
0100
0000
0001
0100
,
0000
0000
0000
1000
0001
0000
0000
0000
,
0010
0001
0010
0001
,
0010
0000
0001
0000
0010
0001
0010
0000
,
1000
0010
1000
0010
,
1000
0000
0010
0000
1000
0010
1000
0000
,
0110
1000
0001
0100
,
0010
1000
0100
0001
,
0110
0001
1000
0100
,
0010
0001
0100
1000
,
0110
0001
1000
0100
,
0010
0001
0100
1000
,
0110
1000
0001
0100
,
0010
1000
0100
0001
,
0001
1000
0100
0100
,
1000
0000
0001
0000
0100
0010
0100
0000
,
1000
1000
0001
0100
,
0001
0000
0001
0000
1000
0010
0100
0000
,
0001
0011
0100
0100
,
1000
0000
1010
0000
0100
0010
0100
0000
,
0001
1000
0100
0001
,
1000
0101
1100
0101
,
0010
0100
1000
0000
0100
0000
1000
0000
,
0010
0100
0001
0000
0100
0000
0001
0000
,
0010
0100
1000
0000
0100
0000
1000
0000
,
0010
0100
0001
0000
1000
0001
0000
1000
,
0010
0100
0001
0000
0100
0000
0001
0000
,
0010
0100
1000
0000
0100
0000
1000
0000
,
0010
0100
0001
0000
0100
0000
0001
0000
,
0010
0100
1000
0000
0100
0100
0000
0000
,
1000
0000
0000
0000
,
1000
0000
0001
0000
0100
0010
0100
0000
,
1000
1000
0001
0100
,
0001
0000
0001
0000
1000
0010
0100
0000
,
0001
0000
0000
0000
,
1000
0000
0101
0000
0010
0100
0010
0000
,
1000
0000
0001
0000
,
0000
0110
1100
0101
,
0110
0000
0000
0000
;

//---------------dance-single - ----------------
#NOTES:
     dance-single:
     :
     Hard:
     7:
     :
0000
0000
0000
0000
,
0000
0000
0000
0000
,
0000
0000
0000
0000
,
0000
0000
0000
0000
,
0000
0000
0000
0000
,
0001
0000
0000
1000
0000
0000
0100
0000
,
0011
0000
0000
1100
0000
0000
0100
0000
,
1001
0000
0000
0110
0000
0000
0000
0000
,
1000
1000
0010
0100
0001
0000
0000
0000
,
1000
0001
0100
0001
1000
0001
0100
0000
,
1000
0000
0001
0100
0001
0000
0000
0000
,
1001
0000
0000
0000
1001
0000
0000
0010
0000
0000
0101
0000
0000
0000
0000
0000
,
1010
0000
0000
0000
1010
0000
0000
0010
0000
0000
0101
0000
0000
0000
0000
0000
,
0010
1000
0100
0001
1000
0001
0100
0000
,
0001
0000
1000
0100
1000
0000
0000
0000
,
1001
0000
0000
0000
1001
0000
0000
0010
0000
0000
1100
0000
0000
0000
0000
0000
,
0011
0000
0000
0000
0101
0000
0000
0010
0000
0000
1100
0000
0000
0000
0000
0000
,
0010
0100
0100
0000
0100
0001
0000
0000
,
0010
0101
1000
1001
,
0010
0100
0100
0000
0100
1000
0000
0000
,
1001
0110
1001
0110
,
0001
0100
0100
0000
0100
0001
0000
0000
,
0010
0000
0010
0001
0100
0000
1001
0000
,
1000
0100
0100
0000
0100
0010
0000
0000
,
1001
0110
1001
0110
,
1000
0001
0100
0000
0001
1000
0100
0000
,
0001
0001
0100
0000
1000
1000
0100
0000
,
0100
1000
0001
0000
0100
0001
1000
0000
,
1010
0100
0001
0000
0011
0100
1000
0000
,
0000
1010
0000
0101
,
1000
0001
0110
0000
,
1010
0100
0010
0000
1000
1000
0100
0000
,
0011
0100
0010
0000
1000
1000
0100
0000
,
1000
0001
0100
1000
0001
1000
0100
0000
,
1000
0000
0001
1000
0100
0000
0000
0000
,
1001
0000
0000
0000
1001
0000
0000
0010
0000
0000
1100
0000
0000
0000
0000
0000
,
1010
0000
0000
0000
0101
0000
0000
0010
0000
0000
1001
0000
0000
0000
0000
0000
,
0010
1000
0100
0001
0100
1000
0100
0000
,
0001
0000
1000
0001
0100
0000
0000
0000
,
1001
0000
0000
0000
1001
0000
0000
0010
0000
0000
1001
0000
0000
0000
0000
0000
,
0101
0000
0000
0000
1100
0000
0000
0010
0000
0000
1001
0000
0000
0000
0000
0000
,
0001
0000
0000
1000
0000
0000
0100
0000
,
0101
0000
0000
1100
0000
0000
0010
0000
,
1001
0000
0000
0110
0000
0000
0000
0000
,
0010
0100
0010
0100
0001
0100
1000
1000
,
0001
1000
0001
0000
1000
0010
1000
0000
,
0010
0001
1000
0001
1000
0000
0001
0000
,
0010
0001
0010
0000
1000
0000
0010
0001
,
0010
0001
0010
0000
1000
0000
0001
0000
,
0010
1000
0001
0000
1000
0010
1000
0000
,
0001
0010
0001
0000
1000
0000
0001
0000
,
0010
0001
0010
0000
0001
0100
1000
0000
,
0010
1000
0010
0000
1000
0001
1000
0000
,
0001
0010
0100
0000
1100
0000
0101
0000
,
0001
0100
1000
0100
0001
0100
1000
0000
,
0001
0010
1000
0000
0001
1000
0100
0000
,
1010
0101
1100
0011
,
0100
0001
0010
0000
1000
0010
1000
0000
,
0001
0010
0100
0000
0011
0000
0101
0000
,
1000
0010
1000
0000
0001
0000
0010
0001
,
0010
1000
0010
0001
0101
0000
1100
0000
,
1000
0001
0000
0000
0000
0000
0010
0001
0000
0000
0000
0000
1000
0100
0000
0000
,
0000
0000
0000
1000
0010
0001
0010
0001
,
0010
0001
0010
0000
1000
0010
1000
0000
,
0001
0010
0001
0000
1000
0000
0001
0000
,
0100
0010
1000
0000
0010
1000
0010
0000
,
0001
0010
0001
0000
1000
0000
0010
0000
,
0001
0010
0001
0000
1000
0000
0010
0000
,
0001
0010
0001
0100
1000
0000
0001
0000
,
0010
0001
0010
0000
1000
0010
1000
0000
,
0001
0010
0001
0000
1000
0000
0001
0000
,
1000
0001
0000
0000
0000
0000
0010
0001
0000
0000
0000
0000
0100
0010
0000
0000
,
0000
0000
0000
0000
0000
0000
1000
0001
1000
0001
0000
0000
0000
0000
0000
0000
,
1000
0100
0001
0010
,
1000
0000
0010
0000
0100
0010
1000
0000
,
0001
0100
1000
0100
,
0001
0000
0100
0000
1000
0100
0001
0000
,
0101
1000
0011
1000
,
0001
0101
1000
1100
,
0011
0100
1010
0001
,
0010
0000
1000
0001
1000
0001
0010
0100
,
1100
1000
1010
0001
,
1000
1100
0001
0101
,
1010
0100
0101
1000
,
0010
0000
0001
1000
0001
1000
0010
0100
,
0001
1000
0101
0010
,
1100
0000
0101
0000
0100
0010
0100
0000
,
0001
1000
0001
0000
1100
0000
0001
0000
,
0001
1000
0001
0000
0101
0000
0110
0000
,
1000
0001
1100
0010
,
0101
0000
1010
0000
0100
0010
0100
0000
,
1000
0001
1000
0000
0101
0000
1000
0000
,
1000
0001
1000
0001
0100
0010
0100
0010
,
1000
1100
0010
1001
,
0010
1001
0100
1001
,
0001
1100
1001
0011
,
1000
0000
0001
0000
0010
0100
0010
0100
,
0010
0101
0011
0100
,
1001
0010
1001
0100
,
1001
0010
1001
0100
,
0100
0010
0100
0010
0100
0010
1000
0001
,
0010
0001
1100
0010
,
0101
0000
1100
0000
0010
0100
0010
0000
,
0001
1000
0001
0000
0101
0000
0010
0000
,
1000
0001
1000
0000
1100
0000
0110
0000
,
1000
0001
1100
0010
,
0101
0000
1100
0000
0010
0100
0010
0000
,
0001
1000
0001
0000
0001
1000
0100
0000
,
0000
0000
1000
0001
0100
0010
0100
0000
,
0011
0000
0000
0000
;

//---------------dance-threepanel - ----------------
#NOTES:
     dance-threepanel:
     :
     Easy:
     3:
     :
000
000
000
000
,
000
000
000
000
,
000
000
000
000
,
000
000
000
000
,
000
000
000
000
,
100
010
000
000
,
001
010
000
000
,
100
010
000
000
,
000
000
000
000
,
010
001
010
000
,
100
001
010
000
,
101
101
000
000
,
101
010
000
000
,
010
001
010
000
,
100
001
010
000
,
101
101
000
000
,
101
010
000
000
,
001
000
010
000
,
100
001
010
010
,
100
000
010
000
,
001
010
000
101
,
010
000
100
000
,
001
010
100
001
,
100
000
010
000
,
010
010
001
000
,
100
000
010
000
,
001
100
001
100
,
001
000
010
000
,
100
001
100
001
,
010
010
001
010
,
010
100
010
001
,
100
010
010
000
,
101
000
101
000
,
010
001
010
000
,
100
001
010
000
,
101
101
000
000
,
101
010
000
000
,
100
001
100
000
,
001
100
001
000
,
101
101
000
000
,
101
010
000
000
,
100
010
000
000
,
001
001
000
000
,
010
010
000
000
,
010
010
100
001
,
010
010
000
000
,
100
010
000
000
,
001
010
000
000
,
100
010
000
000
,
100
001
000
000
,
100
010
000
000
,
001
010
000
000
,
100
010
000
000
,
001
100
001
100
,
000
000
001
010
,
000
000
100
010
,
001
010
100
010
,
001
010
100
010
,
100
001
100
010
,
010
001
010
100
,
010
001
010
100
,
001
000
000
100
000
000
001
000
,
000
000
000
010
010
000
000
000
,
100
010
001
010
,
100
000
001
000
,
100
010
001
010
,
100
000
001
000
,
100
010
001
000
,
100
010
001
000
,
100
010
001
010
,
100
010
001
000
,
100
000
000
001
000
000
100
000
,
000
000
000
001
001
000
000
000
,
010
100
010
100
,
010
001
010
001
,
010
100
010
100
,
010
001
010
001
,
010
100
000
000
,
010
001
000
000
,
010
001
000
000
,
010
100
000
000
,
010
001
000
000
,
010
100
000
000
,
010
100
000
000
,
010
001
010
100
,
001
100
000
000
,
010
101
100
010
,
100
001
000
000
,
001
010
101
000
,
100
001
000
000
,
010
101
001
010
,
010
001
000
000
,
010
100
010
101
,
000
001
010
001
,
000
100
000
100
,
010
001
010
001
,
010
100
010
010
,
010
100
010
100
,
000
001
000
001
,
010
100
010
100
,
010
001
010
010
,
101
000
000
000
,
100
010
100
010
,
100
001
000
000
,
001
010
101
000
,
101
000
000
000
,
001
010
001
010
,
101
000
010
000
,
000
101
000
101
,
010
000
000
000
;

//---------------dance-threepanel - ----------------
#NOTES:
     dance-threepanel:
     :
     Medium:
     5:
     :
000
000
000
000
,
000
000
000
000
,
000
000
000
000
,
000
000
000
000
,
000
000
000
000
,
101
000
000
010
000
000
001
000
,
011
000
000
110
000
000
010
000
,
110
000
000
101
000
000
000
000
,
110
011
101
000
,
010
001
010
000
010
000
000
000
,
100
000
001
010
001
000
000
000
,
101
000
101
000
000
101
000
000
,
101
000
101
000
000
010
000
000
,
100
001
010
000
010
000
000
000
,
100
000
001
010
001
000
000
000
,
101
000
101
000
000
101
000
000
,
011
101
010
101
,
000
010
000
100
,
000
000
100
010
100
000
101
000
,
000
010
000
001
,
000
000
100
010
000
000
101
000
,
010
100
010
001
,
010
001
100
000
000
000
101
000
,
000
010
000
010
,
110
101
010
000
,
001
010
001
000
010
000
000
000
,
100
010
100
000
001
010
001
000
,
100
010
100
000
001
000
000
000
,
010
010
010
000
010
010
010
000
,
100
001
100
000
010
000
000
000
,
101
010
101
000
,
100
010
001
000
100
010
001
000
,
100
010
001
000
100
010
001
000
,
100
001
100
000
001
000
000
000
,
100
000
001
100
010
000
000
000
,
101
000
101
000
000
101
000
000
,
011
101
010
101
,
100
010
100
000
001
000
000
000
,
010
000
100
010
100
000
000
000
,
101
000
101
000
000
101
000
000
,
101
000
101
000
000
010
000
000
,
101
000
000
010
000
000
001
000
,
011
000
000
110
000
000
010
000
,
110
000
000
101
000
000
000
000
,
010
000
100
000
001
100
001
000
,
100
010
000
000
,
001
001
000
000
,
010
010
000
000
,
001
010
000
000
,
010
001
000
000
,
100
010
000
000
,
001
010
000
000
,
010
100
000
000
,
001
000
100
000
,
000
000
001
010
,
000
000
100
010
,
010
100
001
000
100
001
010
000
,
001
010
100
010
,
010
010
001
010
,
100
100
010
010
,
001
000
010
000
100
001
100
000
,
001
000
000
100
000
000
001
000
,
000
000
000
100
001
000
000
000
,
000
000
010
010
,
000
000
010
010
,
000
000
100
010
,
000
000
001
001
,
000
000
000
000
010
100
001
000
,
000
000
000
000
010
001
100
000
,
000
000
010
001
,
000
000
000
000
010
010
100
000
,
010
001
000
100
010
000
001
010
,
000
000
000
100
001
000
000
000
,
010
001
010
001
,
010
000
001
000
010
001
010
000
,
100
010
100
010
,
100
000
010
000
100
010
100
000
,
010
100
001
010
,
010
100
010
001
,
010
001
100
010
,
010
001
010
100
,
010
001
100
010
,
010
001
010
100
,
010
100
001
010
,
010
100
010
001
,
010
100
010
010
,
100
000
001
000
010
010
010
000
,
100
010
001
010
,
001
000
010
000
100
010
010
000
,
001
011
010
010
,
100
000
110
000
010
010
010
000
,
001
100
010
001
,
100
011
110
011
,
010
010
100
000
010
000
100
000
,
010
010
001
000
010
000
001
000
,
010
010
100
000
010
000
100
000
,
010
010
001
000
100
001
000
100
,
010
010
001
000
010
000
001
000
,
010
010
100
000
010
000
100
000
,
010
010
001
000
010
000
001
000
,
010
010
100
000
010
010
000
000
,
100
000
000
000
,
010
000
001
000
010
010
010
000
,
100
010
001
010
,
001
000
010
000
100
010
010
000
,
001
000
000
000
,
100
000
011
000
010
010
010
000
,
100
000
001
000
,
000
010
110
011
,
010
000
000
000
;

//---------------dance-threepanel - ----------------
#NOTES:
     dance-threepanel:
     :
     Hard:
     7:
     :
000
000
000
000
,
000
000
000
000
,
000
000
000
000
,
000
000
000
000
,
000
000
000
000
,
001
000
000
100
000
000
010
000
,
011
000
000
110
000
000
010
000
,
101
000
000
010
000
000
000
000
,
100
010
010
010
001
000
000
000
,
100
001
010
001
100
001
010
000
,
100
000
001
010
001
000
000
000
,
101
000
000
000
101
000
000
010
000
000
011
000
000
000
000
000
,
110
000
000
000
110
000
000
010
000
000
011
000
000
000
000
000
,
010
100
010
001
100
001
010
000
,
001
000
100
010
100
000
000
000
,
101
000
000
000
101
000
000
010
000
000
110
000
000
000
000
000
,
011
000
000
000
011
000
000
010
000
000
110
000
000
000
000
000
,
010
010
010
000
010
001
000
000
,
010
011
100
101
,
010
010
010
000
010
100
000
000
,
101
010
101
010
,
001
010
010
000
010
001
000
000
,
010
000
010
001
010
000
101
000
,
100
010
010
000
010
010
000
000
,
101
010
101
010
,
100
001
010
000
001
100
010
000
,
001
001
010
000
100
100
010
000
,
010
100
001
000
010
001
100
000
,
110
010
001
000
011
010
100
000
,
000
110
000
011
,
100
001
010
000
,
110
010
010
000
100
100
010
000
,
011
010
010
000
100
100
010
000
,
100
001
010
100
001
100
010
000
,
100
000
001
100
010
000
000
000
,
101
000
000
000
101
000
000
010
000
000
110
000
000
000
000
000
,
110
000
000
000
011
000
000
010
000
000
101
000
000
000
000
000
,
010
100
010
001
010
100
010
000
,
001
000
100
001
010
000
000
000
,
101
000
000
000
101
000
000
010
000
000
101
000
000
000
000
000
,
011
000
000
000
110
000
000
010
000
000
101
000
000
000
000
000
,
010
000
000
100
000
000
010
000
,
011
000
000
110
000
000
010
000
,
101
000
000
010
000
000
000
000
,
010
010
010
010
001
010
100
010
,
001
100
001
000
100
010
100
000
,
010
001
100
001
100
000
001
000
,
010
001
010
000
100
000
010
001
,
010
001
010
000
100
000
001
000
,
010
100
001
000
100
010
100
000
,
001
010
001
000
100
000
001
000
,
010
001
010
000
001
010
100
000
,
010
100
010
000
100
001
100
000
,
001
010
010
000
110
000
011
000
,
001
010
100
010
001
010
100
000
,
001
010
100
000
001
100
010
000
,
110
011
110
011
,
010
001
010
000
100
010
100
000
,
001
010
010
000
011
000
011
000
,
100
010
100
000
001
000
010
001
,
010
100
010
001
011
000
110
000
,
100
001
000
000
000
000
010
001
000
000
000
000
100
010
000
000
,
000
000
000
100
010
001
010
001
,
010
001
010
000
100
010
100
000
,
001
010
001
000
100
000
001
000
,
010
010
100
000
010
100
010
000
,
001
010
001
000
100
000
010
000
,
001
010
001
000
100
000
010
000
,
001
010
001
010
100
000
001
000
,
010
001
010
000
100
010
100
000
,
001
010
001
000
100
000
001
000
,
100
001
000
000
000
000
010
001
000
000
000
000
010
010
000
000
,
000
000
000
000
000
000
100
001
100
001
000
000
000
000
000
000
,
100
010
001
010
,
100
000
010
000
010
010
100
000
,
001
010
100
010
,
001
000
010
000
100
010
001
000
,
011
100
011
100
,
001
011
100
110
,
011
010
110
001
,
010
000
100
001
100
001
010
010
,
110
100
110
001
,
100
110
001
011
,
110
010
011
100
,
010
000
001
100
001
100
010
010
,
001
100
011
010
,
110
000
011
000
010
010
010
000
,
001
100
001
000
110
000
001
000
,
010
100
001
000
011
000
010
000
,
100
001
110
010
,
011
000
110
000
010
010
010
000
,
100
001
100
000
011
000
100
000
,
010
001
100
001
010
010
010
010
,
100
110
010
101
,
010
101
010
101
,
001
110
101
011
,
100
000
001
000
010
010
010
010
,
010
011
011
010
,
101
010
101
010
,
101
010
101
010
,
010
010
010
010
010
010
100
001
,
010
001
110
010
,
011
000
110
000
010
010
010
000
,
001
100
001
000
011
000
010
000
,
100
001
100
000
110
000
010
000
,
100
001
110
010
,
011
000
110
000
010
010
010
000
,
001
100
001
000
010
100
010
000
,
000
000
100
001
010
010
010
000
,
011
000
000
000
;

//---------------dance-solo - ----------------
#NOTES:
     dance-solo:
     :
     Easy:
     5:
     :
000000
000000
000000
000000
,
000000
000000
000000
000000
,
000000
000000
000000
000000
,
000000
000000
000000
000000
,
000000
000000
000000
000000
,
100000
000000
000000
100000
000000
000000
000000
000000
,
000001
000000
000000
000001
000000
000000
000000
000000
,
100000
000000
000000
100000
000000
000000
000000
000000
,
000000
000000
000000
000000
,
000100
000001
001000
000000
,
100000
000001
001000
000000
,
100001
010010
000000
000000
,
100001
001100
000000
000000
,
000100
000001
001000
000000
,
100000
000001
001000
000000
,
100001
010010
000000
000000
,
100001
001100
000000
000000
,
000001
000000
000001
000000
,
100000
000001
001000
000100
,
100000
000000
100000
000000
,
000001
001000
000000
010010
,
000100
000000
100000
000000
,
000001
000001
010000
000010
,
100000
000000
100000
000000
,
000100
001000
000001
000000
,
010000
000000
010000
000000
,
000001
100000
000001
100000
,
000010
000000
000010
000000
,
100000
000001
100000
000001
,
001000
001000
000100
000100
,
010000
100000
000010
000001
,
100000
000100
001000
000000
,
100001
000000
010001
000000
,
000100
000001
001000
000000
,
100000
000001
001000
000000
,
100001
010010
000000
000000
,
100001
001100
000000
000000
,
100000
000001
100000
000000
,
000001
100000
000001
000000
,
100001
010010
000000
000000
,
100001
001100
000000
000000
,
110000
000000
000000
110000
000000
000000
000000
000000
,
000011
000000
000000
000011
000000
000000
000000
000000
,
001000
000000
000000
001000
000000
000000
000000
000000
,
000100
010000
100000
000001
,
000010
000100
000000
000000
,
010000
000100
000000
000000
,
000010
000100
000000
000000
,
010000
000100
000000
000000
,
100000
000001
000000
000000
,
100000
100000
000000
000000
,
000001
000001
000000
000000
,
010000
010000
000000
000000
,
000010
010000
000001
100000
,
000000
000000
000001
000001
,
000000
000000
100000
100000
,
000001
000001
000001
000000
100000
100000
100000
000000
,
000010
000010
010000
010000
,
100000
000001
100000
001000
,
000100
000001
010000
100000
,
100000
000001
000001
100000
,
000001
000000
000000
100000
000000
000000
000001
000000
,
000000
000000
000000
000100
000100
000000
000000
000000
,
010000
000100
000010
000100
,
100000
001000
000001
001000
,
010000
000100
000010
000100
,
100000
000100
000001
000100
,
010000
001000
000010
001000
,
010000
000100
000010
000100
,
100000
010000
000001
000010
,
100000
001000
000001
000000
,
100000
000000
000000
000001
000000
000000
100000
000000
,
000000
000000
000000
010000
000010
000000
000000
000000
,
010000
100000
001000
100000
,
010000
100000
001000
100000
,
000010
000001
001000
000001
,
000010
000001
001000
000001
,
010000
100000
000000
000000
,
000100
000001
000000
000000
,
000010
000001
000000
000000
,
000100
100000
000000
000000
,
000010
000001
000000
000000
,
000100
100000
000000
000000
,
010000
100000
000000
000000
,
000100
000001
000100
100000
,
000010
100000
000000
000000
,
100000
001001
100000
001000
,
010000
000001
000000
000000
,
000001
101000
001001
000100
,
010000
000001
000000
000000
,
000010
101000
000001
001000
,
001000
000001
000000
000000
,
000100
010000
001001
100100
,
000010
000001
001000
000001
,
000010
000001
001000
000001
,
000010
000001
001000
000001
,
000010
000000
000001
000000
000100
010000
000000
000010
,
010000
100000
001000
100000
,
010000
100000
001000
100000
,
010000
100000
001000
100000
,
010000
100000
001000
001000
,
000101
000000
000000
000000
,
100000
001001
100000
001000
,
010000
000001
000000
000000
,
000001
101000
001001
000100
,
101000
000000
000000
000000
,
000010
101000
000001
001000
,
001001
000000
101000
000000
,
000000
100001
001001
101000
,
001100
000000
000000
000000
;

//---------------dance-solo - ----------------
#NOTES:
     dance-solo:
     :
     Medium:
     6:
     :
000000
000000
000000
000000
,
000000
000000
000000
000000
,
000000
000000
000000
000000
,
000000
000000
000000
000000
,
000000
000000
000000
000000
,
100001
000000
000000
001100
000000
000000
000010
000000
,
010001
000000
000000
100010
000000
000000
000100
000000
,
100010
000000
000000
100001
000000
000000
000000
000000
,
100100
001001
100001
000000
,
100000
000001
001000
000000
000100
000000
000000
000000
,
010000
000000
000001
001000
000001
000000
000000
000000
,
100001
000000
100001
000000
000000
010010
000000
000000
,
100001
000000
100001
000000
000000
001100
000000
000000
,
100000
000001
001000
000000
000100
000000
000000
000000
,
010000
000000
000001
001000
000001
000000
000000
000000
,
100001
000000
100001
000000
000000
010010
000000
000000
,
010001
100010
001100
100001
,
000000
100000
000000
100000
,
000000
000000
100000
001000
100000
000000
010010
000000
,
000000
000001
000000
000001
,
000000
000000
100000
000010
000000
000000
010001
000000
,
000100
100000
001000
000001
,
000100
100000
000001
000000
000000
000000
010010
000000
,
000000
001000
000000
001000
,
100010
010001
001100
000000
,
000001
001000
000001
000000
010000
000000
000000
000000
,
100000
100000
100000
000000
000001
000001
000001
000000
,
100000
000100
100000
000000
000010
000000
000000
000000
,
000100
000100
000100
000000
001000
001000
001000
000000
,
100000
000001
100000
000000
000010
000000
000000
000000
,
100001
001100
100001
000000
,
100000
001000
000001
000000
100000
001000
000001
000000
,
100000
000100
000001
000000
100000
000100
000001
000000
,
100000
000010
010000
000000
000001
000000
000000
000000
,
010000
000000
000001
100000
001000
000000
000000
000000
,
100001
000000
100001
000000
000000
010010
000000
000000
,
010001
100010
001100
100001
,
100000
001000
100000
000000
000001
000000
000000
000000
,
000001
000000
100000
000100
100000
000000
000000
000000
,
100001
000000
100001
000000
000000
010010
000000
000000
,
100001
000000
100001
000000
000000
001100
000000
000000
,
100001
000000
000000
001100
000000
000000
000010
000000
,
010001
000000
000000
100010
000000
000000
000100
000000
,
100010
000000
000000
100001
000000
000000
000000
000000
,
010000
000000
100000
000000
000001
100000
000001
000000
,
100000
100000
000000
000000
,
000001
000001
000000
000000
,
001000
001000
000000
000000
,
000001
000001
000000
000000
,
000010
000010
000000
000000
,
100000
100000
000000
000000
,
000001
000010
000000
000000
,
010000
100000
000000
000000
,
000010
000000
010000
000000
,
000000
000000
000001
000001
,
000000
000000
100000
100000
,
000100
100000
000001
000000
100000
000001
001000
000000
,
000010
000010
010000
010000
,
001000
001000
000001
000001
,
100000
100000
001000
001000
,
000001
000000
000001
000000
100000
000001
010000
000000
,
000010
000000
000000
100000
000000
000000
000001
000000
,
000000
000000
000000
100000
000001
000000
000000
000000
,
000000
000000
000100
000100
,
000000
000000
001000
001000
,
000000
000000
100000
100000
,
000000
000000
000001
000001
,
000000
000000
000000
000000
001000
100000
000001
000000
,
000000
000000
000000
000000
000100
000001
100000
000000
,
000000
000000
100000
000001
,
000000
000000
000000
000000
000100
001000
000001
000000
,
000010
000001
000000
100000
001000
000000
000001
001000
,
000000
000000
000000
100000
000001
000000
000000
000000
,
000010
000001
000010
000001
,
000010
000000
000001
000000
000010
000001
000010
000000
,
100000
010000
100000
010000
,
100000
000000
010000
000000
100000
010000
100000
000000
,
010100
110000
000001
001000
,
000100
100000
001000
000001
,
000110
000011
100000
001000
,
000100
000001
001000
100000
,
000110
000011
100000
001000
,
000100
000001
001000
100000
,
010100
110000
000001
001000
,
000100
100000
001000
000001
,
000011
100000
001000
001000
,
110000
000000
000001
000000
001000
000100
001000
000000
,
110000
100000
000001
001000
,
000011
000000
000001
000000
100000
000100
001000
000000
,
000011
010100
001000
001000
,
110000
000000
000110
000000
001000
000100
001000
000000
,
000010
100000
001000
000001
,
010000
001001
101000
001001
,
000010
000010
000001
000000
001000
000000
000001
000000
,
000010
000010
000001
000000
001000
000000
000001
000000
,
000010
000010
000001
000000
001000
000000
000001
000000
,
000010
000010
000001
000000
010000
000010
000000
100000
,
010000
010000
100000
000000
001000
000000
100000
000000
,
010000
010000
100000
000000
001000
000000
100000
000000
,
010000
010000
100000
000000
001000
000000
100000
000000
,
010000
010000
100000
000000
001000
001000
000000
000000
,
110000
000000
000000
000000
,
110000
000000
000001
000000
001000
000100
001000
000000
,
110000
100000
000001
001000
,
000011
000000
000001
000000
100000
000100
001000
000000
,
000011
000000
000000
000000
,
110000
000000
000110
000000
001000
000100
001000
000000
,
110000
000000
000011
000000
,
000000
001100
101000
001001
,
001100
000000
000000
000000
;

//---------------dance-solo - ----------------
#NOTES:
     dance-solo:
     :
     Hard:
     8:
     :
000000
000000
000000
000000
,
000000
000000
000000
000000
,
000000
000000
000000
000000
,
000000
000000
000000
000000
,
000000
000000
000000
000000
,
000011
000000
000000
110000
000000
000000
001000
000000
,
000101
000000
000000
100100
000000
000000
001000
000000
,
100001
000000
000000
001100
000000
000000
000000
000000
,
010000
100000
000010
000001
001000
000000
000000
000000
,
100000
000001
001000
010000
000001
100000
001000
000000
,
010000
000000
000001
001000
000001
000000
000000
000000
,
100001
000000
000000
000000
100001
000000
000000
000100
000000
000000
010001
000000
000000
000000
000000
000000
,
100100
000000
000000
000000
100100
000000
000000
000100
000000
000000
001001
000000
000000
000000
000000
000000
,
000010
100000
001000
000001
010000
000001
001000
000000
,
000010
000000
100000
001000
100000
000000
000000
000000
,
100001
000000
000000
000000
100001
000000
000000
000100
000000
000000
100010
000000
000000
000000
000000
000000
,
000101
000000
000000
000000
000101
000000
000000
000100
000000
000000
101000
000000
000000
000000
000000
000000
,
000100
001000
001000
000000
001000
000001
000000
000000
,
000100
010001
100000
010010
,
000100
001000
001000
000000
001000
100000
000000
000000
,
100001
001100
100001
001100
,
000001
001000
001000
000000
001000
000010
000000
000000
,
000100
000000
000100
100000
001000
000000
100001
000000
,
100000
001000
001000
000000
001000
010000
000000
000000
,
100001
001100
100001
001100
,
100000
000001
001000
000000
000001
100000
001000
000000
,
000011
000001
001000
000000
110000
100000
001000
000000
,
001000
100000
000001
000000
001000
000001
100000
000000
,
000110
000010
000001
000000
010100
010000
100000
000000
,
000000
100100
000000
001001
,
110000
000011
001100
000000
,
000101
000010
010000
000000
100000
100000
001000
000000
,
100100
010000
000010
000000
000001
000001
001000
000000
,
010000
000001
001000
010000
000010
100000
001000
000000
,
010000
000000
000001
100000
001000
000000
000000
000000
,
100001
000000
000000
000000
100001
000000
000000
000100
000000
000000
100010
000000
000000
000000
000000
000000
,
000101
000000
000000
000000
100100
000000
000000
000100
000000
000000
100001
000000
000000
000000
000000
000000
,
000010
100000
001000
000010
010000
000001
001000
000000
,
000010
000000
100000
000001
001000
000000
000000
000000
,
100001
000000
000000
000000
100001
000000
000000
000100
000000
000000
010001
000000
000000
000000
000000
000000
,
001001
000000
000000
000000
101000
000000
000000
000100
000000
000000
100001
000000
000000
000000
000000
000000
,
000011
000000
000000
110000
000000
000000
001000
000000
,
001010
000000
000000
011000
000000
000000
000100
000000
,
100001
000000
000000
001100
000000
000000
000000
000000
,
000100
001000
000100
001000
000001
001000
100000
100000
,
000001
100000
000001
000000
010000
010000
010000
000000
,
000010
000001
100000
000010
010000
000000
000010
000000
,
000010
000010
000010
000000
010000
000000
010000
000010
,
000010
000010
000010
000000
010000
000000
000010
000000
,
000010
010000
000010
000000
010000
010000
010000
000000
,
000010
000100
000010
000000
010000
000000
000010
000000
,
000010
000010
000010
000000
100000
010000
000001
000000
,
000010
000010
000010
000000
010000
000001
010000
000000
,
000010
000100
010000
000000
100100
000000
001001
000000
,
000010
000100
010000
000100
000001
000100
100000
000000
,
000010
000100
010000
000000
000001
100000
001000
000000
,
100100
001001
101000
000101
,
000010
000010
000010
000000
010000
010000
010000
000000
,
000010
000100
010000
000000
100100
000000
001001
000000
,
010000
010000
010000
000000
000010
000000
000010
000010
,
000100
010000
000100
000001
100100
000000
001001
000000
,
100000
000010
000000
000000
000000
000000
000100
000001
000000
000000
000000
000000
100000
001000
000000
000000
,
000000
000000
000000
010000
010000
000010
000010
000010
,
000010
000010
000010
000000
010000
010000
010000
000000
,
000010
000010
000010
000000
010000
000000
000010
000000
,
000010
000100
010000
000000
010000
010000
010000
000000
,
000010
000010
000010
000000
010000
000000
000010
000000
,
000001
000010
000001
000000
010000
000000
010000
000000
,
000010
000010
000010
000010
010000
000000
000010
000000
,
000010
000010
000010
000000
010000
000100
010000
000000
,
000010
000010
000010
000000
010000
000000
000010
000000
,
100000
000001
000000
000000
000000
000000
000100
000001
000000
000000
000000
000000
001000
000100
000000
000000
,
000000
000000
000000
000000
000000
000000
100000
000001
100000
000001
000000
000000
000000
000000
000000
000000
,
100000
000100
000001
000100
,
100000
000000
000100
000000
000001
000100
100000
000000
,
000001
001000
100000
001000
,
000001
000000
001000
000000
100000
001000
000001
000000
,
100100
000001
000101
100000
,
000001
001001
100000
101000
,
000101
010000
100100
000010
,
000010
000000
100000
000001
010000
000010
000100
001000
,
000101
100000
100100
000001
,
100000
101000
000001
001001
,
100100
000010
000101
010000
,
010000
000000
000001
100000
000010
010000
000100
001000
,
000010
010000
001001
001000
,
101000
000000
001001
000000
001000
000100
001000
000000
,
000001
100000
000001
000000
101000
000000
001000
000000
,
000010
100000
000001
000000
101000
000000
001100
000000
,
010000
000010
101000
001000
,
001001
000000
101000
000000
001000
000100
001000
000000
,
100000
000001
100000
000000
001001
000000
001000
000000
,
010000
000010
100000
000001
001000
000100
001000
000100
,
010000
010001
000010
100010
,
010000
100010
000010
010001
,
000001
100010
100000
010001
,
000001
000000
100000
000000
000100
001000
000100
001000
,
000010
010001
100010
010000
,
010001
000100
100010
001000
,
100010
000100
010001
001000
,
001000
000100
001000
000100
001000
000100
100000
000001
,
000010
010000
001001
001000
,
101000
000000
001001
000000
001000
000100
001000
000000
,
000001
100000
000001
000000
101000
000000
001000
000000
,
000010
100000
000001
000000
101000
000000
001100
000000
,
010000
000010
101000
001000
,
001001
000000
101000
000000
001000
000100
001000
000000
,
100000
000001
100000
000000
000001
100000
001000
000000
,
000000
000000
100000
000001
001000
000100
001000
000000
,
000101
000000
000000
000000
;
