#TITLE:NONSTOP D;
#ARTIST:CLUB TROPICANA -- KUNG-FU FIGHTING ( MIAMI BOOTY MIX ) -- FREAKY;
#BANNER:NONSTOP D.png;
#BACKGROUND:NONSTOP D-bg.png;
#CDTITLE:./CDTITLES/DANCE DANCE REVOLUTION SOLO.PNG;
#MUSIC:NONSTOP D.ogg;
#SAMPLESTART:49.835;
#SAMPLELENGTH:15;
#DISPLAYBPM:116:160;
#BPMS:0=130.03,119.5=140.294,120=130.561,124=116.089,224=160.091;

//---------------dance-single - ----------------
#NOTES:
     dance-single:
     :
     Easy:
     3:
     :
0000
0000
0000
0000
,
0000
0000
0000
0000
,
0000
0000
0000
0000
,
0000
0000
0000
0000
,
0000
0000
0000
0000
,
0010
0010
0000
0000
,
0001
0010
0000
0000
,
1000
0000
1000
0000
,
0001
0000
0001
0000
,
0100
0000
0100
0000
,
0100
0000
0010
0000
,
0010
0000
1000
0000
,
0010
0000
0001
0000
,
0100
0000
0100
0000
,
0001
0010
0001
0010
,
0000
0100
0000
0100
,
0000
1000
0001
1000
,
0001
0001
1000
1000
,
0001
1000
0001
1000
,
0000
0010
0000
0010
,
0000
1000
0001
1000
,
0001
0001
1000
1000
,
0001
1000
0001
1000
,
0100
0000
0010
0000
,
0100
0000
0010
0000
,
0100
0000
0010
0000
,
0100
0000
0010
0000
,
0100
0010
0100
0010
,
0010
0100
0010
0100
,
0100
0010
0100
0010
,
0010
0110
0100
0010
,
0000
0010
0000
1001
,
0000
0000
0001
1000
,
1001
0010
0001
0000
,
0000
0000
1000
0001
,
1001
0010
1000
0000
,
0000
0010
0100
0001
,
1001
0100
0100
0000
,
0000
0010
0100
1000
,
1001
0100
0100
1001
,
0010
1000
0100
0001
,
0001
0100
1000
0010
,
0010
1000
0100
0001
,
0001
0100
1000
0010
,
0010
1000
0100
0001
,
0001
0100
1000
0010
,
0000
0000
0000
0000
,
1001
1001
0100
0010
,
0001
1000
0100
0100
,
1000
0001
0100
0100
,
1000
0010
0100
0100
,
0001
0010
0100
0100
,
1000
0010
0001
0001
,
0001
0010
1000
1000
,
0001
1000
0001
0001
,
1000
0001
1000
1000
,
0100
0010
0100
0001
,
1000
0000
0001
0000
,
0100
0010
0100
1000
,
0001
0000
1000
0100
,
0100
0000
0001
0000
,
1000
0000
0001
0000
,
0010
1000
0001
0100
,
0110
1001
0110
1001
,
0010
1000
0010
0001
,
1000
0100
0001
0100
,
0010
1000
0010
0001
,
1000
1000
1000
0001
,
0010
0001
0010
1000
,
0001
0100
1000
0100
,
0010
0001
0010
1000
,
0001
0001
0001
1000
,
0001
0010
0001
0000
,
1000
0000
0100
0000
,
1000
0010
1000
0000
,
0001
0000
0100
0000
,
0001
0000
0100
0000
,
0010
1000
0010
1000
,
0010
0000
1000
0000
,
0010
0001
0010
0001
,
0001
0010
0010
0000
,
1000
0000
0001
0000
,
1000
0010
0010
0000
,
0001
0000
1000
0000
,
0001
0010
0100
1000
,
0100
0001
0100
0010
,
0100
1000
0100
0001
,
0110
1001
0110
1001
,
0100
0010
1000
0010
,
0000
0001
0000
0010
,
1000
0000
1000
0000
,
0001
0010
1000
0010
,
0000
0010
0100
0001
,
0000
0010
0100
1000
,
0001
0000
0010
0000
,
1000
0010
0001
0010
,
1000
0001
0001
1000
,
0001
0000
0000
0000
;

//---------------dance-single - ----------------
#NOTES:
     dance-single:
     :
     Medium:
     6:
     :
0000
0000
0000
0000
,
0000
0000
0000
0000
,
0000
0000
0000
0000
,
0000
0000
0000
0000
,
0000
0000
0000
0000
,
0011
0100
1000
1010
,
1010
0100
0010
1001
,
0010
0000
0010
0100
,
1000
0000
0001
0100
,
0010
0000
0100
0000
0001
0010
0010
0000
,
0010
0000
0100
0000
1000
0010
0010
0000
,
0100
0000
0100
0010
,
0001
0000
1000
0100
,
0010
0000
0100
0000
1000
0010
0010
0000
,
0010
0000
0100
0000
0001
0010
0001
0000
,
0010
0000
0001
0000
0001
1000
1000
0000
,
0001
0100
0100
0100
,
0010
0000
0100
0000
0001
0100
0100
0000
,
0010
0000
0100
0000
1000
0100
0100
0000
,
0010
0000
1000
0000
1000
0001
0001
0000
,
1000
0100
0100
0100
,
0010
0000
0100
0000
1000
0100
0100
0000
,
0010
0100
0001
0011
,
1000
0011
1000
0110
,
0001
1100
0001
0110
,
1000
0101
0110
1000
,
0001
0011
0110
0001
,
0010
0101
1010
0100
,
0011
0100
1010
0100
,
0010
0101
0010
1100
,
0010
0100
0001
1000
,
0000
0010
0100
0001
,
0010
0100
1000
0000
0011
0110
1100
0000
,
1001
0000
0000
0101
1100
0000
0000
0000
,
0010
0100
1000
0000
1100
0110
0011
0000
,
1001
0000
0000
1100
0101
0000
0000
0000
,
0100
0001
0100
0001
0100
0001
0100
0001
,
1001
0000
0000
0110
1001
0000
0000
0000
,
0100
1000
0100
1000
0100
1000
0100
1000
,
1001
0000
0000
0000
,
0010
1000
0000
0100
0001
0000
0001
0000
,
0001
0100
1000
0000
0010
0000
0010
0000
,
0010
1000
0100
0000
0010
0001
0010
0000
,
0010
0001
0100
0000
1000
0010
1000
0000
,
0010
1000
0100
0000
0001
0000
0001
0000
,
0001
0100
1000
0000
0010
0000
0010
0000
,
0010
0100
0010
0000
1000
0001
1000
0000
,
1001
0000
1001
0000
0100
0100
0100
0000
,
1000
0010
1000
0000
0100
0000
0100
0000
,
0001
0010
0001
0000
0100
0000
0100
0000
,
1000
1000
0010
0000
0100
0000
0100
0000
,
0001
0001
0010
0000
0100
0000
0100
0000
,
1000
1000
0010
0000
0001
0000
0010
0000
,
0001
0001
0010
0000
1000
0000
0010
0000
,
0001
0100
1000
0000
0001
0000
0100
0000
,
1000
0010
0001
0000
1000
0000
0010
0000
,
0000
0110
0001
1100
,
0001
1000
0100
1000
,
0000
0110
1000
0101
,
1000
0001
0100
0001
,
0100
0000
0001
1000
,
0010
0000
0100
0000
0001
0000
0010
0001
,
1000
0000
0000
0001
1000
0000
0000
0000
,
1001
0110
1001
1100
,
0010
0000
1000
0100
0100
0000
0000
0000
,
1000
0001
0100
0100
,
0010
0000
0001
0100
0100
0000
0000
0000
,
1010
0110
0101
1000
,
0010
0000
0001
0100
0100
0000
0000
0000
,
0001
1000
0100
0100
,
0010
0000
0001
0100
0100
0000
0000
0000
,
1010
0110
0101
1000
,
0100
0000
0010
0100
0010
0000
0000
0000
,
1000
0000
1000
0000
0001
1000
0001
0000
,
0100
0000
0010
0100
0010
0000
0000
0000
,
0001
0000
0001
0000
1000
0001
1000
0000
,
0010
0001
0100
0000
,
0010
0000
0100
0000
0001
0010
0001
0000
,
0010
1000
0100
0000
,
0010
0000
0100
0000
1000
0010
1000
0000
,
0001
0000
0010
0001
0010
0000
0000
0000
,
0001
1000
0100
1000
,
0100
0010
0010
0000
,
1000
0001
0100
0001
,
0000
1000
1000
0000
0010
0000
0100
0000
,
0000
0001
0001
0000
0010
0000
1000
0000
,
0000
0001
1000
0000
0000
0001
1000
0000
,
1001
0110
1001
0110
,
0001
0010
1000
0000
,
1000
0010
0001
0000
,
0100
0000
0000
0001
1000
0000
0000
0000
,
0010
0001
0010
1000
,
0000
0000
0001
0010
0001
0000
0100
0000
,
0000
0000
1000
0010
1000
0000
0100
0000
,
0000
0001
1000
0100
,
0001
0100
1000
0100
,
0010
0001
1000
0001
1000
0001
0100
0000
,
1001
0000
0000
0000
;

//---------------dance-single - ----------------
#NOTES:
     dance-single:
     :
     Hard:
     7:
     :
0000
0000
0000
0000
,
0000
0000
0000
0000
,
0000
0000
0000
0000
,
0000
0000
0000
0000
,
0000
0000
0000
0000
,
0001
0010
0001
1000
0001
1000
0001
0100
,
0010
1000
0010
0100
0001
1000
0001
0000
,
0010
0010
0100
0000
0011
0000
1100
0000
,
0100
0100
0010
0000
0101
0000
1100
0000
,
0010
0100
0001
1000
,
0010
0100
0001
1100
,
0100
0100
0010
0000
0101
0000
1010
0000
,
0010
0010
0100
0000
1010
0000
0101
0000
,
0010
0000
1000
0010
1000
0000
0010
0000
,
1000
0100
1100
0010
0011
0100
0001
0001
,
1000
0000
0001
0000
1010
0001
1000
0001
,
1000
0000
0010
1000
0010
0000
1000
0000
,
0101
0000
0010
0100
0001
0000
1000
0000
,
0010
0010
0100
0000
0001
0010
1000
0000
,
0001
0000
1000
0000
0101
1000
0001
1000
,
0001
0000
0010
0001
0010
0000
0001
0000
,
1100
0000
0010
0000
1000
0100
0001
0000
,
0010
0001
0010
0000
0001
0001
0101
0000
,
1000
0000
0101
0010
1000
0000
0110
0000
,
0001
0000
1100
0010
0001
0000
0110
0000
,
1000
0000
0101
0010
0100
0000
1010
0000
,
0001
0000
0011
0010
0100
0000
1100
0000
,
0100
0000
0001
0000
0011
0100
0010
0000
,
0100
0000
1000
0000
0011
0100
0010
0000
,
0100
0000
0001
0000
0010
0001
0100
0000
,
0010
0000
1000
0000
0010
1000
0100
0000
,
0100
0000
0000
0000
,
0001
1000
1100
0110
,
1001
0000
0000
0100
0100
0000
0000
0000
,
0001
1000
1100
0110
,
1001
0000
0000
0010
0010
0000
0000
0000
,
0101
1001
0110
1001
,
1001
0000
0100
1000
0001
0000
0000
0000
,
0011
1100
0110
0001
,
1001
0000
0001
0100
1000
0000
1001
0000
,
0100
0010
1000
0001
0100
0010
1000
0001
,
0100
0010
1000
0001
0100
0010
1000
0001
,
0100
0010
1000
0001
0100
0010
1000
0001
,
0100
0010
1000
0001
0100
0010
1000
0100
,
0001
0100
1100
0000
0001
1000
0001
1000
,
1000
0100
1100
0000
1000
0001
1000
0001
,
1000
0001
0100
0010
1000
0001
0100
0010
,
1001
0000
1001
1000
1000
1000
1000
0001
,
1000
0001
1000
0001
1000
0001
1000
0001
,
0010
0100
0010
0100
0010
0100
0010
0100
,
1000
0001
1000
0001
1000
0001
1000
0001
,
0010
0100
0010
0100
0010
0100
0010
0100
,
1000
0010
0100
0001
1000
1000
0001
1000
,
0010
0010
0100
0010
0100
0100
0010
0100
,
0001
0001
1000
0001
1000
1000
0001
1000
,
0100
0100
0010
0100
0010
0010
0100
0010
,
0100
1000
0001
0010
,
0010
0001
1000
0100
,
0100
0011
1100
0010
,
0010
0101
1010
0100
,
0101
0000
0100
0010
1000
0000
0000
1000
,
0100
0000
0000
0100
0001
0000
0000
1000
,
0001
0000
0000
1000
0001
0000
0000
0000
,
0110
1001
0110
1001
,
0010
0010
0010
0000
1001
0000
0000
0000
,
0010
0010
0010
0000
1001
0000
0000
0000
,
0010
0010
0010
0000
1001
0000
0000
0000
,
1010
0000
1001
0000
0110
0100
0100
0000
,
0010
0010
0010
0000
1001
0000
0000
0000
,
0010
0010
0010
0000
1001
0000
0000
0000
,
0010
0010
0010
0000
1001
0000
0000
0000
,
0011
0000
1001
0000
0110
0100
0100
0000
,
1001
0000
0010
0001
0110
0000
0000
0000
,
0101
0000
1100
0000
0010
0100
1001
0000
,
1001
0000
1000
0010
0100
0000
0000
0000
,
0101
0000
1100
0000
0001
0010
0100
0000
,
0011
1100
0110
0000
,
0001
0000
1000
0000
0100
0010
1001
0000
,
0100
1000
0101
0000
,
0110
0000
1001
0000
0010
0010
1001
0000
,
1001
0000
0100
0100
1001
0000
0000
0000
,
1000
0001
1000
0010
,
0001
1000
0001
0000
,
0110
1001
0110
0101
,
0000
0001
0010
0000
1001
0000
0110
0000
,
0000
1000
0010
0000
1001
0000
0110
0000
,
0000
1000
0010
0000
0000
0001
0010
0000
,
0101
1001
0110
1001
,
0110
1000
0110
0001
,
0100
0101
1001
0100
,
0100
0000
0000
1100
0101
0000
0000
0000
,
1000
0110
0001
1100
,
0000
0000
0010
0001
1100
0000
0100
0000
,
0000
0000
0010
1000
0101
0000
0100
0000
,
0000
0110
0101
1100
,
1010
0011
1000
0001
,
1001
1000
0001
0000
1001
0001
1000
0000
,
0110
0000
0000
0000
;

//---------------dance-solo - ----------------
#NOTES:
     dance-solo:
     :
     Easy:
     4:
     :
000000
000000
000000
000000
,
000000
000000
000000
000000
,
000000
000000
000000
000000
,
000000
000000
000000
000000
,
000000
000000
000000
000000
,
000100
000100
000000
000000
,
000010
000010
000000
000000
,
100000
000000
100000
000000
,
000001
000000
000001
000000
,
001000
000000
001000
000000
,
001000
000000
000100
000000
,
000100
000000
100000
000000
,
000100
000000
000001
000000
,
001000
000000
001000
000000
,
000010
000010
000010
000010
,
000000
001000
000000
001000
,
000000
100000
000001
100000
,
000001
000001
100000
100000
,
000001
100000
000001
100000
,
000000
000100
000000
000100
,
000000
100000
000001
100000
,
000001
000001
100000
100000
,
000001
100000
000001
100000
,
001000
000000
000100
000000
,
001000
000000
000100
000000
,
001000
000000
000100
000000
,
001000
000000
000100
000000
,
001000
000100
001000
000100
,
000100
001000
000100
001000
,
001000
000100
001000
000100
,
000100
001100
001000
000100
,
000000
000100
000000
010010
,
000000
000000
000001
100000
,
010010
000010
000010
000000
,
000000
000000
100000
000001
,
010010
010000
010000
000000
,
000000
000100
001000
000001
,
100001
001000
001000
000000
,
000000
000100
001000
100000
,
100001
001000
001000
100001
,
000100
100000
001000
000001
,
000001
001000
100000
000100
,
000100
100000
001000
000001
,
000001
001000
100000
000100
,
000100
100000
001000
000001
,
000001
001000
100000
000100
,
000000
000000
000000
000000
,
010010
100001
001000
000100
,
000010
100000
001000
001000
,
010000
000001
001000
001000
,
100000
010000
001000
001000
,
000001
000010
001000
001000
,
100000
000100
000001
000001
,
000001
000100
100000
100000
,
000001
100000
000001
000001
,
100000
000001
100000
100000
,
010000
000100
000010
000001
,
100000
000000
000001
000000
,
000010
000100
010000
100000
,
000001
000000
100000
001000
,
001000
000000
000010
000000
,
010000
000000
000010
000000
,
000100
100000
000001
001000
,
001100
100001
001100
100001
,
010000
100000
000010
000001
,
010000
001000
000010
001000
,
010000
100000
000010
000001
,
100000
100000
100000
000001
,
000010
000001
010000
100000
,
000010
001000
010000
001000
,
000010
000001
010000
100000
,
000001
000001
000001
100000
,
000010
000100
000001
000000
,
100000
000000
001000
000000
,
010000
000100
100000
000000
,
000001
000000
001000
000000
,
000010
000000
000010
000000
,
000100
010000
000100
100000
,
010000
000000
010000
000000
,
000100
000010
000100
000001
,
000001
000000
000010
000001
000010
000000
000000
000000
,
100000
000000
000001
000000
,
100000
000000
010000
100000
010000
000000
000000
000000
,
000001
000000
100000
000000
,
000010
000100
010000
100000
,
001000
000001
000010
000100
,
010000
100000
001000
000001
,
001100
100001
001100
100001
,
000010
000100
010000
000100
,
000000
000001
000000
000100
,
100000
000000
000000
000100
100000
000000
000000
000000
,
000010
000100
010000
000100
,
000000
000100
000010
000001
,
000000
000100
010000
100000
,
000001
000000
000100
000000
,
010000
000100
000010
000100
,
100000
000000
000001
100000
000001
001000
100000
000000
,
000010
000000
000000
000000
;

//---------------dance-solo - ----------------
#NOTES:
     dance-solo:
     :
     Medium:
     6:
     :
000000
000000
000000
000000
,
000000
000000
000000
000000
,
000000
000000
000000
000000
,
000000
000000
000000
000000
,
000000
000000
000000
000000
,
000101
000010
010000
100100
,
100100
010000
000010
100001
,
000100
000000
000100
001000
,
100000
000000
000001
001000
,
000100
000000
000010
000000
000001
000100
000100
000000
,
000100
000000
010000
000000
100000
000100
000100
000000
,
001000
000000
001000
000100
,
000001
000000
100000
001000
,
000100
000000
010000
000000
100000
000100
000100
000000
,
000100
000000
000010
000000
000001
000100
000001
000000
,
000100
000000
000001
000000
000001
100000
100000
000000
,
000001
001000
001000
001000
,
000100
000000
000010
000000
000001
001000
001000
000000
,
000100
000000
010000
000000
100000
001000
001000
000000
,
000100
000000
100000
000000
100000
000001
000001
000000
,
100000
001000
001000
001000
,
000100
000000
010000
000000
100000
001000
001000
000000
,
000100
000010
000001
000101
,
100000
000110
100000
000110
,
000001
010100
000001
010100
,
100000
000110
000110
100000
,
000001
010100
010100
000001
,
000100
001001
100100
001000
,
000101
001000
100100
001000
,
000100
101000
000100
001001
,
000100
001000
000001
100000
,
000000
000100
001000
000001
,
000100
000010
000001
000000
000101
000110
000101
000000
,
100001
000000
000000
001001
101000
000000
000000
000000
,
000100
010000
100000
000000
100100
010100
100100
000000
,
100001
000000
000000
101000
001001
000000
000000
000000
,
001000
000010
001000
000001
001000
000010
001000
000001
,
100001
000000
000000
001100
100001
000000
000000
000000
,
001000
010000
001000
100000
001000
010000
001000
100000
,
100001
000000
000000
000000
,
000100
100000
000000
001000
000001
000000
000001
000000
,
000001
001000
100000
000000
000100
000000
000100
000000
,
000100
100000
001000
000000
000001
000010
000001
000000
,
000100
000001
001000
000000
100000
010000
100000
000000
,
000100
100000
001000
000000
000001
000000
000001
000000
,
000001
001000
100000
000000
000100
000000
000100
000000
,
000100
001000
000100
000000
100000
000001
100000
000000
,
010010
000000
100001
000000
001000
001000
001000
000000
,
010000
010000
100000
000000
001000
000000
001000
000000
,
000010
000010
000001
000000
001000
000000
001000
000000
,
100000
100000
010000
000000
001000
000000
001000
000000
,
000001
000001
000010
000000
001000
000000
001000
000000
,
100000
100000
000100
000000
000001
000000
000100
000000
,
000001
000001
000100
000000
100000
000000
000100
000000
,
000001
000100
100000
000000
000001
000000
001000
000000
,
100000
000100
000001
000000
100000
000000
000100
000000
,
000000
000110
000001
010100
,
000010
010000
001000
100000
,
000000
010100
100000
000110
,
010000
000010
001000
000001
,
001000
000000
000010
010000
,
010000
000000
001000
000000
000010
000000
000100
000001
,
100000
000000
000000
000001
100000
000000
000000
000000
,
100001
001010
100001
011000
,
000100
000000
100000
001000
001000
000000
000000
000000
,
010000
000010
001000
001000
,
000100
000000
000001
001000
001000
000000
000000
000000
,
010100
001100
000110
010000
,
000100
000000
000001
001000
001000
000000
000000
000000
,
000010
010000
001000
001000
,
000100
000000
100000
001000
001000
000000
000000
000000
,
000110
001100
010100
000010
,
001000
000000
000100
001000
000100
000000
000000
000000
,
100000
000000
100000
000000
000001
100000
000001
000000
,
001000
000000
000100
001000
000100
000000
000000
000000
,
000001
000000
000001
000000
100000
000001
100000
000000
,
000010
000001
001000
000000
,
000100
000000
000010
000000
000001
000010
000001
000000
,
010000
100000
001000
000000
,
000100
000000
010000
000000
100000
010000
100000
000000
,
000010
000000
000100
000010
000100
000000
000000
000000
,
000010
010000
001000
100000
,
010000
000100
000100
000000
,
010000
000010
001000
000001
,
000000
100000
100000
000000
010000
000000
000010
000000
,
000000
000001
000001
000000
000010
000000
010000
000000
,
000000
000001
100000
000000
000000
000001
100000
000000
,
100001
001010
100001
011000
,
000001
000010
100000
000000
,
100000
010000
000001
000000
,
001000
000000
000000
000010
010000
000000
000000
000000
,
000100
000001
000100
100000
,
000000
000000
000010
000010
000001
000000
001000
000000
,
000000
000000
010000
010000
100000
000000
001000
000000
,
000000
000010
010000
001000
,
000011
001000
110000
001000
,
000100
000010
010000
000001
100000
000010
001000
000000
,
100010
000000
000000
000000
;

//---------------dance-solo - ----------------
#NOTES:
     dance-solo:
     :
     Hard:
     8:
     :
000000
000000
000000
000000
,
000000
000000
000000
000000
,
000000
000000
000000
000000
,
000000
000000
000000
000000
,
000000
000000
000000
000000
,
000010
000100
000010
010000
000010
100000
000010
001000
,
000010
000001
000010
001000
000010
100000
000010
000000
,
000100
000100
001000
000000
000101
000000
100100
000000
,
001000
001000
000100
000000
101000
000000
001001
000000
,
000100
000010
000001
010000
,
000100
010000
100000
001001
,
001000
001000
000100
000000
001010
000000
010100
000000
,
000100
000100
001000
000000
000110
000000
011000
000000
,
000100
000000
010000
010000
100000
000000
000010
000000
,
000011
000010
000110
000100
010100
010000
110000
100000
,
000010
000000
010000
000000
000101
100000
000001
100000
,
000001
000000
000100
000010
000100
000000
000001
000000
,
001001
000000
000010
000010
000001
000000
010000
000000
,
000100
000100
010000
000000
100000
010000
000010
000000
,
010000
000000
000010
000000
100100
000001
100000
000001
,
100000
000000
000100
010000
000100
000000
100000
000000
,
101000
000000
010000
000000
100000
010000
000010
000000
,
000100
000010
000010
000000
000001
000001
001001
000000
,
100000
000000
000110
000100
100000
000000
000110
000000
,
000001
000000
010100
000100
000001
000000
010100
000000
,
100000
000000
000110
000100
001000
000000
000110
000000
,
000001
000000
010100
000100
001000
000000
010100
000000
,
000010
000000
000001
000000
010100
010000
000100
000000
,
010000
000000
100000
000000
000110
000010
000100
000000
,
000010
000000
000001
000000
010000
100000
001000
000000
,
010000
000000
100000
000000
000010
000001
001000
000000
,
001000
000000
000000
000000
,
000011
110000
000110
010100
,
100001
000000
000000
001000
001000
000000
000000
000000
,
000011
110000
001010
011000
,
100001
000000
000000
000100
000100
000000
000000
000000
,
011000
100001
001100
100001
,
010010
000000
001000
000001
100000
000000
000000
000000
,
000101
101000
001100
100000
,
100001
000000
000001
001000
100000
000000
100001
000000
,
001000
000100
100000
000010
001000
000100
100000
000010
,
001000
000100
100000
000010
001000
000100
100000
000010
,
001000
000100
000001
010000
001000
000100
000001
010000
,
001000
000100
000001
010000
001000
000100
000001
010000
,
100000
010000
100100
000000
100000
000010
100000
000001
,
000001
000010
000101
000000
000001
010000
000001
100000
,
000001
100000
001000
000100
000010
010000
001000
000100
,
010010
000000
100001
000001
000001
000001
000001
100000
,
000010
010000
000001
100000
000010
010000
000001
100000
,
000100
001000
000100
001000
000100
001000
000100
001000
,
000001
010000
000010
100000
000001
010000
000010
100000
,
000100
001000
000100
001000
000100
001000
000100
001000
,
000010
000010
010000
000001
100000
100000
000010
100000
,
000100
000100
001000
000100
001000
001000
000100
001000
,
000001
000001
010000
000001
100000
100000
000010
100000
,
001000
001000
000100
001000
000100
000100
001000
000100
,
001000
110000
000011
000100
,
000100
110000
000011
001000
,
001000
010100
001010
000100
,
000100
010100
000110
001000
,
010100
000000
001000
000100
000001
000000
000000
000001
,
001000
000000
000000
001000
100000
000000
000000
000001
,
100000
000000
000000
000001
100000
000000
000000
000000
,
001010
100001
011000
100001
,
000100
000100
000100
000000
010010
000000
000000
000000
,
000100
000100
000100
000000
100001
000000
000000
000000
,
000100
000100
000100
000000
010010
000000
000000
000000
,
010001
000000
100010
000000
001100
001000
001000
000000
,
000100
000100
000100
000000
010010
000000
000000
000000
,
000100
000100
000100
000000
100001
000000
000000
000000
,
000100
000100
000100
000000
010010
000000
000000
000000
,
100010
000000
010001
000000
001100
001000
001000
000000
,
100001
000000
000010
010000
001100
000000
000000
000000
,
011000
000000
001010
000000
000010
010000
100001
000000
,
010010
000000
000001
000100
001000
000000
000000
000000
,
100010
000000
010001
000000
100000
000100
001000
000000
,
100100
000101
001100
000000
,
010000
000000
000010
000000
001000
000100
100001
000000
,
001000
000010
011000
000000
,
001100
000000
100001
000000
000100
000100
010010
000000
,
010010
000000
001000
001000
100001
000000
000000
000000
,
000011
100000
000010
000010
,
110000
000001
010000
000000
,
001100
100001
001010
011000
,
000000
110000
010000
000000
010010
000000
001010
000000
,
000000
000011
000010
000000
010010
000000
011000
000000
,
000000
000001
000010
000000
000000
100000
010000
000000
,
011000
100001
001010
100001
,
000110
000001
010100
100000
,
001000
100010
010001
001000
,
001000
000000
000000
001010
011000
000000
000000
000000
,
000011
011000
110000
001010
,
000000
000000
010000
100000
001001
000000
001000
000000
,
000000
000000
000010
000001
101000
000000
001000
000000
,
000000
001100
011000
001010
,
000110
010100
000001
100000
,
010010
000001
100000
000000
010010
100000
000001
000000
,
001100
000000
000000
000000
;

//---------------dance-threepanel - ----------------
#NOTES:
     dance-threepanel:
     :
     Easy:
     3:
     :
000
000
000
000
,
000
000
000
000
,
000
000
000
000
,
000
000
000
000
,
000
000
000
000
,
010
010
000
000
,
001
010
000
000
,
100
000
010
000
,
001
000
001
000
,
010
000
010
000
,
010
000
010
000
,
010
000
100
000
,
010
000
001
000
,
010
000
010
000
,
001
010
001
010
,
000
010
000
010
,
000
100
001
100
,
001
010
100
010
,
001
100
001
100
,
000
010
000
010
,
000
100
001
100
,
001
010
100
010
,
001
100
001
100
,
010
000
010
000
,
100
000
001
000
,
010
000
010
000
,
100
000
001
000
,
100
010
010
001
,
010
010
100
001
,
010
010
010
001
,
010
010
010
100
,
000
010
000
101
,
000
000
010
100
,
101
010
001
000
,
000
000
100
001
,
101
010
100
000
,
000
010
010
001
,
101
010
010
000
,
000
010
010
100
,
101
010
010
101
,
010
100
010
001
,
001
010
100
010
,
010
100
010
001
,
001
010
100
010
,
010
100
010
001
,
001
010
100
010
,
000
000
000
000
,
101
101
010
010
,
001
100
010
010
,
100
001
010
010
,
100
010
010
010
,
001
010
010
010
,
100
010
001
010
,
001
010
100
010
,
001
100
001
010
,
100
001
100
100
,
010
010
010
001
,
100
000
001
000
,
010
010
010
100
,
001
000
100
010
,
010
000
001
000
,
100
000
001
000
,
010
100
001
010
,
000
101
000
101
,
000
100
010
001
,
100
010
001
010
,
010
100
010
001
,
100
010
100
001
,
010
001
010
100
,
001
010
100
010
,
010
001
010
100
,
001
010
001
100
,
001
010
001
000
,
100
000
010
000
,
100
010
100
000
,
001
000
010
000
,
001
000
010
000
,
010
100
010
100
,
010
000
100
000
,
010
001
010
001
,
010
010
010
000
,
100
000
001
000
,
100
010
010
000
,
001
000
100
000
,
001
010
010
100
,
010
001
010
010
,
010
100
010
001
,
000
101
000
101
,
000
010
100
010
,
000
001
000
010
,
100
000
010
000
,
001
010
100
010
,
000
010
010
001
,
000
010
010
100
,
001
000
010
000
,
100
010
001
010
,
100
001
010
100
,
001
000
000
000
;

//---------------dance-threepanel - ----------------
#NOTES:
     dance-threepanel:
     :
     Medium:
     6:
     :
000
000
000
000
,
000
000
000
000
,
000
000
000
000
,
000
000
000
000
,
000
000
000
000
,
011
010
100
110
,
110
010
010
101
,
010
000
010
010
,
100
000
001
010
,
010
000
010
000
001
010
010
000
,
010
000
010
000
100
010
010
000
,
010
000
010
010
,
001
000
100
010
,
010
000
010
000
100
010
010
000
,
010
000
010
000
001
010
001
000
,
010
000
001
000
010
100
010
000
,
001
010
010
010
,
010
000
010
000
001
010
010
000
,
010
000
010
000
100
010
010
000
,
010
000
100
000
010
001
010
000
,
100
010
010
010
,
010
000
010
000
100
010
010
000
,
010
010
001
011
,
100
011
100
010
,
001
110
001
010
,
100
011
010
100
,
001
011
010
001
,
010
011
110
010
,
011
010
110
010
,
010
011
010
110
,
010
010
001
100
,
000
010
010
001
,
010
010
100
000
011
010
110
000
,
101
000
000
011
110
000
000
000
,
010
010
100
000
110
010
011
000
,
101
000
000
110
011
000
000
000
,
010
001
010
001
010
001
010
001
,
101
000
000
010
101
000
000
000
,
010
100
010
100
010
100
010
100
,
101
000
000
000
,
010
100
000
010
001
000
010
000
,
001
010
100
000
010
000
010
000
,
010
100
010
000
010
001
010
000
,
010
001
010
000
100
010
100
000
,
010
100
010
000
001
000
010
000
,
001
010
100
000
010
000
010
000
,
010
010
010
000
100
001
100
000
,
101
000
101
000
010
010
010
000
,
100
010
100
000
010
000
010
000
,
001
010
001
000
010
000
010
000
,
100
010
010
000
010
000
010
000
,
001
010
010
000
010
000
010
000
,
100
010
010
000
001
000
010
000
,
001
010
010
000
100
000
010
000
,
001
010
100
000
001
000
010
000
,
100
010
001
000
100
000
010
000
,
000
010
001
110
,
001
100
010
100
,
000
010
100
011
,
100
001
010
001
,
010
000
001
100
,
010
000
010
000
001
000
010
001
,
100
000
000
001
100
000
000
000
,
101
010
101
110
,
010
000
100
010
010
000
000
000
,
100
001
010
010
,
010
000
001
010
010
000
000
000
,
110
010
011
100
,
010
000
001
010
010
000
000
000
,
001
100
010
010
,
010
000
001
010
010
000
000
000
,
110
010
011
100
,
010
000
010
010
010
000
000
000
,
100
000
010
000
001
100
001
000
,
010
000
010
010
010
000
000
000
,
001
000
010
000
100
001
100
000
,
010
001
010
000
,
010
000
010
000
001
010
001
000
,
010
100
010
000
,
010
000
010
000
100
010
100
000
,
001
000
010
001
010
000
000
000
,
001
100
010
100
,
010
010
010
000
,
100
001
010
001
,
000
100
010
000
010
000
010
000
,
000
001
010
000
010
000
100
000
,
000
001
100
000
000
001
100
000
,
101
010
101
010
,
001
010
100
000
,
010
010
001
000
,
010
000
000
001
100
000
000
000
,
010
001
010
100
,
000
000
001
010
001
000
010
000
,
000
000
100
010
100
000
010
000
,
000
001
100
010
,
001
010
100
010
,
010
001
100
001
100
001
010
000
,
101
000
000
000
;

//---------------dance-threepanel - ----------------
#NOTES:
     dance-threepanel:
     :
     Hard:
     7:
     :
000
000
000
000
,
000
000
000
000
,
000
000
000
000
,
000
000
000
000
,
000
000
000
000
,
001
010
001
100
001
100
001
010
,
010
100
010
010
001
100
001
000
,
010
010
010
000
011
000
110
000
,
010
010
010
000
011
000
110
000
,
010
010
001
100
,
010
010
001
110
,
010
010
010
000
011
000
110
000
,
010
010
010
000
110
000
011
000
,
010
000
100
010
100
000
010
000
,
100
010
110
010
011
010
001
010
,
100
000
001
000
110
001
100
001
,
100
000
010
100
010
000
100
000
,
011
000
010
010
001
000
100
000
,
010
010
010
000
001
010
100
000
,
001
000
100
000
011
100
001
100
,
001
000
010
001
010
000
001
000
,
110
000
010
000
100
010
001
000
,
010
001
010
000
001
001
011
000
,
100
000
011
010
100
000
010
000
,
001
000
110
010
001
000
010
000
,
100
000
011
010
010
000
110
000
,
001
000
011
010
010
000
110
000
,
010
000
001
000
011
010
010
000
,
010
000
100
000
011
010
010
000
,
010
000
001
000
010
001
010
000
,
010
000
100
000
010
100
010
000
,
010
000
000
000
,
001
100
110
010
,
101
000
000
010
010
000
000
000
,
001
100
110
010
,
101
000
000
010
010
000
000
000
,
011
101
010
101
,
101
000
010
100
001
000
000
000
,
011
110
010
001
,
101
000
001
010
100
000
101
000
,
010
010
100
001
010
010
100
001
,
010
010
100
001
010
010
100
001
,
010
010
100
001
010
010
100
001
,
010
010
100
001
010
010
100
010
,
001
010
110
000
001
100
001
100
,
100
010
110
000
100
001
100
001
,
100
001
010
010
100
001
010
010
,
101
000
101
010
100
010
100
001
,
100
001
100
001
100
001
100
001
,
010
010
010
010
010
010
010
010
,
100
001
100
001
100
001
100
001
,
010
010
010
010
010
010
010
010
,
100
010
010
001
100
010
001
100
,
010
010
010
010
010
010
010
010
,
001
010
100
001
100
010
001
100
,
010
010
010
010
010
010
010
010
,
010
100
001
010
,
010
001
100
010
,
010
011
110
010
,
010
011
110
010
,
011
000
010
010
100
000
000
100
,
010
000
000
010
001
000
000
100
,
001
000
000
100
001
000
000
000
,
010
101
010
101
,
010
010
010
000
101
000
000
000
,
010
010
010
000
101
000
000
000
,
010
010
010
000
101
000
000
000
,
110
000
101
000
010
010
010
000
,
010
010
010
000
101
000
000
000
,
010
010
010
000
101
000
000
000
,
010
010
010
000
101
000
000
000
,
011
000
101
000
010
010
010
000
,
101
000
010
001
010
000
000
000
,
011
000
110
000
010
010
101
000
,
101
000
010
010
010
000
000
000
,
011
000
110
000
001
010
010
000
,
011
110
010
000
,
001
000
100
000
010
010
101
000
,
010
100
011
000
,
010
000
101
000
010
010
101
000
,
101
000
010
010
101
000
000
000
,
010
001
100
010
,
001
100
001
000
,
010
101
010
011
,
000
001
010
000
101
000
010
000
,
000
100
010
000
101
000
010
000
,
000
100
010
000
000
001
010
000
,
011
101
010
101
,
010
100
010
001
,
010
011
101
010
,
010
000
000
110
011
000
000
000
,
100
010
001
110
,
000
000
010
001
110
000
010
000
,
000
000
010
100
011
000
010
000
,
000
010
011
110
,
110
011
100
001
,
101
010
001
000
101
010
100
000
,
010
000
000
000
;
