#TITLE:NONSTOP B;
#ARTIST:THAT'S THE WAY '98 -- GET OFF - TOGETHER & FOREVER;
#BANNER:NONSTOP B.png;
#BACKGROUND:NONSTOP B-bg.png;
#CDTITLE:./CDTITLES/DANCE DANCE REVOLUTION SOLO.PNG;
#MUSIC:NONSTOP B.ogg;
#SAMPLESTART:55.202;
#SAMPLELENGTH:15;
#DISPLAYBPM:126:150;
#BPMS:0=126.062,132=136.742,146=138.715,148=136.712,276=150.116;

//---------------dance-single - ----------------
#NOTES:
     dance-single:
     :
     Easy:
     3:
     :
0000
0000
0000
0000
,
0000
0000
0000
0000
,
0000
0000
0000
0000
,
0000
0000
0000
0000
,
0000
0000
0000
0000
,
0100
0110
1000
0010
,
0001
1000
0010
0100
,
0001
1001
0010
1000
,
0010
0001
0010
1000
,
0100
0110
1000
1000
,
0010
0001
0010
1000
,
0001
1001
0010
1000
,
0010
0001
0010
1000
,
0100
0100
1000
1000
,
0100
0100
0001
0000
,
0000
0100
0000
0100
,
0010
0001
0100
0000
,
0000
0100
0000
0100
,
0000
1000
0001
1000
,
1000
0001
1000
0001
,
0010
0100
1001
1001
,
0100
0110
1000
1000
,
0010
0001
0010
1000
,
0001
1001
0010
1000
,
0010
0001
0010
1000
,
0001
0100
1000
0100
,
0001
0100
1000
0100
,
0001
0000
1000
0000
,
0001
1000
0001
0000
,
1001
0000
0110
0000
,
1001
0000
0110
0000
,
0001
0100
1000
0100
,
0001
0100
1000
1001
,
1000
0100
0010
0001
,
0001
0010
0100
1000
,
0010
0001
1000
0100
,
0100
1000
0001
0000
,
0010
0001
0100
0100
,
0001
0001
1000
1000
,
0010
1000
0100
0100
,
0110
1000
0001
0001
,
0100
0100
1000
0100
,
0000
1000
0001
1000
,
0000
0100
0100
0001
,
0000
0000
0000
0000
,
0100
0100
1000
0100
,
0001
0001
0010
1000
,
0100
0100
0100
1000
,
0000
0000
0000
0000
,
0100
1000
0001
1000
,
0001
0010
0001
0000
,
0100
0100
0100
0001
,
0000
0000
0000
0000
,
0110
0000
1001
0001
,
1000
0100
0100
0100
,
0000
0000
0100
1000
,
0000
0000
0000
0000
,
0010
0001
0100
1000
,
0010
0001
0100
1000
,
1000
0001
1000
0001
,
1000
1000
0001
0001
,
1000
1001
0100
0110
,
0001
1001
0100
1001
,
0010
0001
1000
0100
,
0010
0001
1000
0100
,
0010
0001
0100
1000
,
0010
0001
0100
1000
,
1000
0001
1000
0001
,
1000
1001
0001
1001
,
1000
0001
1000
0010
,
0000
0000
0100
0100
,
0000
0000
0001
0100
,
0000
0001
0010
1001
,
0000
0000
1000
0100
,
0000
1000
0010
1001
,
0000
0000
0100
0001
,
0000
0100
0010
1001
,
0000
0000
0010
0100
,
1001
0110
1001
0100
,
1000
0000
0000
0100
,
0001
0000
0000
0000
,
0010
0010
0100
0100
,
0001
0001
0001
0001
,
0010
0001
0100
0000
,
0100
1000
0010
0000
,
1000
1000
0001
0001
,
0100
0100
0010
0010
,
0010
0001
0100
0000
,
0100
1000
0010
0000
,
0010
0010
0100
0100
,
1000
1000
0001
0001
,
0010
0001
1000
0100
,
0010
0010
0010
1000
,
0000
0000
0010
0001
,
0000
0000
0100
1000
,
0001
0010
1000
0100
,
0010
0010
0010
1000
,
0000
0000
0001
0000
,
0100
0000
1000
0000
,
0001
0001
1000
1000
,
0010
0010
0100
0100
,
0100
0000
0001
0000
,
0100
0100
1000
0001
,
0010
0000
0110
0000
;

//---------------dance-single - ----------------
#NOTES:
     dance-single:
     :
     Medium:
     6:
     :
0000
0000
0000
0000
,
0000
0000
0000
0000
,
0000
0000
0000
0000
,
0000
0000
0000
0000
,
0000
0000
0000
0000
,
0100
0000
0110
0000
1000
0000
0010
0001
,
0001
1000
0010
0100
,
0001
0000
1001
0000
0010
0000
1000
0010
,
0010
0100
0010
0001
,
1000
0001
0100
0000
0010
0000
1000
0000
,
0010
0001
0010
1000
,
0001
1000
0100
0000
0010
0000
1000
0010
,
0010
0100
0001
0010
,
0100
0100
1000
0000
1000
0100
0100
0000
,
0010
0010
0001
0000
0001
0010
0010
0000
,
0001
0100
1000
0000
0010
0001
0010
0000
,
0001
1000
0010
0000
1000
0100
0001
0000
,
1001
0100
0010
0000
0010
1000
0010
0000
,
0100
1000
0100
0000
0101
0010
1000
0000
,
0010
0001
0100
0000
0100
1000
0010
0000
,
0010
1000
0001
0000
1001
0000
0100
0000
,
0100
0000
0110
0000
1000
0000
0010
0001
,
0001
1000
0010
0100
,
0001
0000
1001
0000
0010
0000
1000
0010
,
0010
0100
0010
0001
,
1000
0001
0100
0000
0010
0000
1000
0000
,
0010
0001
0010
1000
,
0001
1000
0100
0000
0010
0000
1000
0010
,
0010
0100
0001
0010
,
0001
0100
1000
0100
,
0001
0100
1000
0100
,
1000
0100
0001
0000
0010
0100
1000
0000
,
0010
0100
0001
0010
0001
0100
0010
0000
,
0000
1000
0001
0100
0010
0100
0001
1000
,
0000
0000
0000
0000
,
0000
0010
0100
0001
1000
0001
0010
0100
,
0000
0000
0000
0000
,
0001
1000
0001
0000
0100
0000
0100
0000
,
0001
0001
0001
0000
1000
0000
1000
0000
,
0010
0001
1000
0000
0100
0000
0100
0000
,
0100
0001
1000
0000
0001
0000
0001
0000
,
0100
0000
0100
0000
1000
0100
0100
0000
,
0000
0000
1000
0000
0001
0001
1000
0000
,
0000
0000
0100
0000
0100
0000
0001
1000
,
0000
0000
0000
0000
,
0100
0000
0100
0000
1000
0100
0100
0000
,
0001
1000
0001
0000
0010
0100
1000
0000
,
0100
0000
0100
0000
0100
0100
1000
0001
,
0000
0000
0101
1010
,
0100
0000
1000
0000
0001
0100
1000
0000
,
0001
0000
0010
0001
1000
0001
0000
0000
,
0100
0000
0100
0000
0100
1000
0001
1000
,
0000
0000
0000
0000
,
0110
0000
1000
0000
0101
0001
0001
0000
,
1000
0000
0101
0000
0100
0010
0100
0000
,
0000
0000
0000
0010
0100
0010
1000
0001
,
0000
0000
0000
0000
,
0010
0100
0001
0000
0100
0000
1000
0000
,
0010
0100
0001
0000
0100
0000
1000
0000
,
1000
0001
1000
0001
,
1000
1000
0001
0001
,
0000
0000
0000
0000
0010
0100
0010
0100
,
0000
0000
0000
0000
0100
0010
0100
0000
,
0000
0000
0000
0000
0001
1000
0001
1000
,
0000
0000
0000
0000
1000
0001
1000
0000
,
0010
0010
1000
1000
0100
0100
0001
0001
,
0100
1000
0001
0010
0100
0100
1000
1000
,
1000
0001
1000
0001
,
1000
0000
1000
0000
0001
0001
0001
0000
,
0010
0010
0000
0000
1000
1000
0000
0000
,
0100
0001
0000
0000
,
0010
1000
0001
0000
1000
0001
0100
0000
,
0000
0000
1001
1001
,
0010
0001
0010
0000
1000
0010
1000
0000
,
0100
0100
0100
0100
0100
0000
1001
0000
,
0000
0000
0000
0000
0100
0100
0100
0000
,
0010
1000
0001
0010
0100
0000
1001
0000
,
0000
0000
0000
0000
0001
0001
0001
0000
,
0100
0010
0100
0001
1000
0000
0000
0000
,
0000
0000
0100
0001
0100
0000
0000
0000
,
0000
0000
0100
1000
0100
0000
0000
0000
,
0100
0100
0100
0100
0001
1000
0100
0000
,
0001
0010
0001
0100
,
0010
0000
0001
0001
0000
0000
0000
0000
,
0010
0000
1000
1000
0000
0000
0000
0000
,
1010
1000
1000
0100
,
0010
0001
0100
1000
,
0010
0000
1000
0100
0000
0000
0000
0000
,
0010
0000
0001
0100
0000
0000
0000
0000
,
0011
0001
0001
0100
,
0010
0001
0100
1000
,
1000
0100
0001
0100
,
0001
1000
0001
0000
0100
0000
0100
0100
,
0000
0000
0100
0001
,
0010
1000
0100
0001
,
0010
0011
0100
1000
,
1000
0001
1000
0000
0100
0000
0100
0100
,
0000
0000
0100
1000
,
0100
0001
0100
1000
,
0010
0000
0001
0000
0100
0010
1000
0000
,
0010
0000
1000
0000
0100
0010
0001
0000
,
0100
0000
1000
0000
0100
0001
0010
0000
,
0100
1000
0100
0001
,
0010
0000
1001
0000
;

//---------------dance-single - ----------------
#NOTES:
     dance-single:
     :
     Hard:
     8:
     :
0000
0000
0000
0000
,
0000
0000
0000
0000
,
0000
0000
0000
0000
,
0000
0000
0000
0000
,
0000
0000
0000
0000
,
1000
0100
0010
1000
,
0001
0000
0000
1000
0100
0000
1000
0000
0001
0000
0100
0000
0100
0000
0000
0000
,
1000
0100
0001
0100
,
0001
0000
0000
1000
0100
0000
1000
0000
0001
0000
0100
0000
0100
0000
0000
0000
,
0001
0100
0001
1000
,
1001
0000
0000
0001
0100
0000
0010
0000
1000
0000
0010
0000
0001
0000
0000
0000
,
1001
1000
0001
0100
,
0010
0000
0000
0100
0001
0000
1000
0000
0010
0000
0100
0000
0001
0000
0000
0000
,
1000
0100
0001
0000
1000
0100
0100
0000
,
1000
0100
0001
0100
1000
0000
0000
0000
,
0001
1000
0010
0000
1000
0001
0010
0000
,
1000
0001
1000
0001
1000
0000
0000
0000
,
0001
0010
0100
1000
0001
0100
0100
0001
,
1000
0100
0010
0100
1000
0000
0001
0001
,
0001
0000
1000
0001
1000
0000
0100
0010
,
0001
0010
1000
0010
0100
0010
0100
0000
,
1000
0000
0000
0001
0100
0000
0010
0000
0010
0000
1000
0000
0001
0000
0010
0000
,
0001
0000
0000
1000
0100
0000
0010
0000
0010
0000
0001
0000
1000
0000
0000
0000
,
1000
0000
0000
0010
0100
0000
0001
0000
0001
0000
1000
0000
0100
0000
0001
0000
,
0001
0000
0000
0100
0010
0000
1000
0000
1000
0000
0001
0000
0100
0000
0000
0000
,
1001
0000
0000
1000
0100
0000
0010
0000
0001
0000
0010
0000
0001
0000
0001
0000
,
1001
0000
0000
0001
0100
0000
0010
0000
1000
0000
0010
0000
0001
0000
0000
0000
,
1001
0000
0000
0001
1000
0000
0010
0000
1000
0000
0001
0000
0100
0000
0010
0000
,
0010
0000
0000
0100
0001
0000
1000
0000
0010
0000
0100
0000
0001
0000
0000
0000
,
1100
0000
0000
0100
0000
0000
0100
0000
0000
0000
1000
0000
0100
0000
0100
0000
,
0001
0000
0000
0100
0000
0000
0100
0000
0000
0000
0000
0000
0000
0000
0000
0000
,
1001
0000
0000
0100
0000
0000
0100
0000
0000
0000
1000
0000
0100
0000
0001
0000
,
0100
0000
0000
0100
0000
0000
0100
0000
0000
0000
0000
0000
0000
0000
0000
0000
,
0000
0010
0000
0001
0000
0010
0000
1000
,
0100
0010
0100
0010
0100
0010
0100
0010
,
0000
0010
0000
1000
0000
0010
0000
0001
,
0100
0010
0100
0010
0100
0000
0000
0000
,
0001
1000
0001
0000
0100
0100
0100
0000
,
1000
0001
1000
0000
0100
0100
0100
0000
,
1000
0001
1000
0001
1000
0001
1000
0001
,
0100
0010
0100
0010
1000
0001
1000
0000
,
0001
1000
0001
0000
0010
0100
1000
0001
,
0100
0010
1000
0001
1000
0001
0010
0000
,
0100
0000
0100
0000
0100
0010
0001
1000
,
0000
0000
0000
0000
0010
0100
0010
0100
,
1000
0001
1000
0000
0010
0100
0100
0010
,
1000
0001
1000
0010
0010
0100
0001
1000
,
0010
0000
0010
0000
1000
0001
0010
0001
,
0000
0000
0000
0000
0010
0001
1000
0001
,
0001
1000
0001
0000
0010
0100
1000
0001
,
0100
0010
1000
0001
1000
0001
0010
0000
,
0010
0000
0010
0000
0100
0010
0001
1000
,
0000
0000
0000
0000
0010
0100
0010
0100
,
0001
1000
0001
0000
0010
0100
0100
0010
,
0001
1000
0001
0010
0010
0100
1000
0001
,
0010
0000
0010
0000
0001
1000
0010
1000
,
0000
0000
0000
0000
0010
0001
1000
0001
,
0010
0000
0001
0000
1000
0000
0100
0010
,
0100
1000
0001
0010
,
1000
0001
1000
0000
0001
1000
0001
0000
,
0010
1000
0010
1000
0010
0001
0010
0000
,
0100
0010
0100
1000
0100
1000
1000
1000
,
0010
0100
0010
1000
0010
1000
1000
0000
,
0100
0010
0100
1000
0100
1000
1000
1000
,
0010
0100
0010
1000
0010
1000
1000
0000
,
0010
1000
0001
0100
,
0100
0001
1000
0010
,
1000
0001
1000
0001
1000
0001
1000
0001
,
1000
0010
1000
0001
1000
0001
1000
0000
,
1000
0010
1000
0000
0001
0010
0001
0000
,
0001
0001
0001
0001
,
0010
0100
1000
0000
0010
0100
0001
0000
,
0010
0100
1000
0010
0100
0000
1001
0000
,
0010
1000
0100
0000
0010
0001
0100
0000
,
0010
0100
0001
0010
0100
0000
1001
0000
,
0010
0100
0001
0000
0100
0001
1000
0000
,
0001
0100
0010
1000
0001
0000
0110
0000
,
0001
1000
0100
0010
0001
1000
1000
0000
,
0010
1000
0010
0001
0010
0000
0000
0000
,
0100
1000
0010
0000
,
0100
0001
0010
0000
,
0100
1000
0010
0100
0001
0010
0001
0100
,
0101
0011
0110
1001
,
0000
0010
1000
0100
,
0000
0001
0000
0001
,
0000
0010
1000
0100
,
0000
0001
0000
0001
,
0000
0010
1000
0100
,
1000
0010
1000
0010
,
0100
0001
0100
0001
,
1000
0100
0100
0100
,
0010
0001
0100
0001
0010
0001
0100
0001
,
0010
0001
0100
0001
0010
0001
0100
0000
,
0010
1000
0100
1000
0010
1000
0100
1000
,
0010
1000
0100
1000
0010
1000
0100
0000
,
0010
0001
0100
0001
0010
0001
0100
0010
,
1000
0100
1000
0001
0010
0001
0100
0000
,
0010
1000
0100
1000
0010
1000
0100
0010
,
0001
0100
0001
1000
0010
1000
0100
0000
,
1000
0000
0100
1000
0000
0100
1000
0000
,
0001
0000
0100
0001
0000
0100
0001
0000
,
1000
0000
0100
1000
0000
0100
1000
0000
,
0001
0000
0100
0001
0000
0000
0000
0000
,
1000
0100
0101
0000
;

//---------------dance-solo - ----------------
#NOTES:
     dance-solo:
     :
     Easy:
     5:
     :
000000
000000
000000
000000
,
000000
000000
000000
000000
,
000000
000000
000000
000000
,
000000
000000
000000
000000
,
000000
000000
000000
000000
,
001000
001100
010000
000010
,
000001
100000
010000
000010
,
000001
100001
010000
100000
,
000010
000001
010000
100000
,
001000
001100
010000
100000
,
000010
000001
010000
100000
,
000001
100001
010000
100000
,
000010
000001
010000
100000
,
001000
001000
100000
100000
,
001000
001000
000001
000000
,
000000
001000
000000
001000
,
000100
000001
001000
000000
,
000000
001000
000000
001000
,
000000
010000
000010
100000
,
100000
000001
100000
000010
,
000100
001000
010010
100001
,
001000
001100
010000
100000
,
000010
000001
010000
100000
,
000001
100001
010000
100000
,
000010
000001
010000
100000
,
000001
001000
100000
001000
,
000001
001000
100000
001000
,
000011
000000
110000
000000
,
000010
100000
000001
000000
,
100010
000000
010001
000000
,
100001
000000
001100
000000
,
000001
001000
100000
001000
,
000001
001000
100000
100010
,
100000
001000
000100
000001
,
000001
000100
001000
100000
,
000100
000001
100000
001000
,
001000
100000
000001
000000
,
000010
000010
000001
000000
001000
000000
001000
000000
,
000001
000001
000001
000000
100000
000000
100000
000000
,
010000
010000
100000
000000
001000
000000
001000
000000
,
001100
100000
000001
000001
,
001000
000000
001000
000000
100000
001000
001000
000000
,
000000
000000
100000
000000
000001
000001
100000
000000
,
000000
000000
001000
000000
001000
000000
000001
100000
,
000000
000000
000000
000000
,
001000
000000
001000
000000
100000
001000
001000
000000
,
000001
000000
000001
000000
000100
001000
100000
000000
,
001000
000000
001000
000000
001000
000000
100000
000001
,
000000
000000
000000
000000
,
001000
000000
100000
000000
000001
001000
100000
000000
,
000001
000000
000010
000010
000001
100000
000000
000000
,
001000
000000
001000
000000
001000
000000
000001
100000
,
000000
000000
000000
000000
,
001100
000000
000000
000000
001001
000001
000001
000000
,
100000
000000
001000
000000
001000
000100
001000
000000
,
000000
000000
000000
000100
001000
000100
100000
000001
,
000000
000000
000000
000000
,
000100
000001
001000
100000
,
000100
000001
001000
100000
,
100000
000001
100000
000001
,
100000
100000
000001
000001
,
100000
101000
001000
001100
,
000100
000101
000001
100001
,
000100
000001
100000
001000
,
000100
000001
100000
001000
,
000100
000001
001000
100000
,
000100
000100
000001
000000
001000
001000
100000
000000
,
100000
000001
100000
000001
,
100000
100001
000001
100001
,
100000
000001
100000
000100
,
000000
000000
001000
001000
,
000000
000000
000001
001000
,
000000
000001
000100
010010
,
000000
000000
100000
001000
,
000000
100000
000100
010010
,
000000
000000
001000
000001
,
000000
000010
000100
100001
,
000000
000000
000100
001000
,
100001
001100
100001
001000
,
100000
000000
000000
001000
,
000001
000000
000000
000000
,
000100
000100
001000
001000
,
000001
000001
000001
000001
,
000100
000001
001000
000000
,
001000
100000
000100
000000
,
100000
100000
000001
000001
,
001000
001000
000100
000100
,
000100
000001
001000
000000
,
001000
100000
000100
000000
,
000100
000100
001000
001000
,
100000
100000
000001
000001
,
000010
000010
010000
010000
,
000100
000000
000100
000000
000100
000000
010000
000010
,
000000
000000
000100
000001
,
000000
000000
001000
100000
,
000010
000010
010000
010000
,
000100
000000
000100
000000
000100
000000
010000
000010
,
000000
000000
000001
000000
,
001000
000000
100000
000000
,
000001
000000
000001
000000
100000
000100
100000
000000
,
000100
000000
000100
000000
001000
000001
001000
000000
,
001000
000000
000001
000000
,
001000
001000
100000
000001
,
000100
000000
001100
000000
;

//---------------dance-solo - ----------------
#NOTES:
     dance-solo:
     :
     Medium:
     6:
     :
000000
000000
000000
000000
,
000000
000000
000000
000000
,
000000
000000
000000
000000
,
000000
000000
000000
000000
,
000000
000000
000000
000000
,
001000
000000
001100
000000
010000
000000
000010
000001
,
000001
100000
010000
000010
,
000001
000000
100001
000000
010000
000000
100000
000100
,
000100
001000
000010
000001
,
100000
000001
001000
000000
010000
000000
100000
000000
,
000010
000001
010000
100000
,
000001
100000
001000
000000
010000
000000
100000
000100
,
000100
001000
000001
000010
,
001000
001000
100000
000000
100000
001000
001000
000000
,
000100
000100
000001
000000
000001
000100
000100
000000
,
000001
001000
100000
000000
010000
000010
000010
000000
,
000010
010000
010000
000000
100000
001000
000001
000000
,
100001
001000
000100
000000
000100
010000
000100
000000
,
010000
100000
001000
000000
001001
000010
010000
000000
,
010000
000010
001000
000000
001000
100000
000100
000000
,
000100
100000
000001
000000
100001
000000
001000
000000
,
001000
000000
001100
000000
010000
000000
000010
000001
,
000001
100000
010000
000010
,
000001
000000
100001
000000
010000
000000
100000
000100
,
000100
001000
000010
000001
,
100000
000001
001000
000000
010000
000000
100000
000000
,
000010
000001
010000
100000
,
000001
100000
001000
000000
010000
000000
100000
000100
,
000100
001000
000001
000010
,
000001
001000
100000
001000
,
000001
001000
100000
001000
,
010000
001000
000010
000000
000010
001000
010000
000000
,
010000
001000
000010
000010
000010
001000
010000
000000
,
000000
100000
000001
001000
000100
001000
000001
100000
,
000000
000000
000000
000000
,
000000
000100
001000
000001
100000
000001
000100
001000
,
000000
000000
000000
000000
,
000010
010000
000010
000000
001000
000000
001000
000000
,
000001
000001
000001
000000
100000
000000
100000
000000
,
010000
000010
010000
000000
001000
000000
001000
000000
,
001000
000001
100000
000000
000001
000000
000001
000000
,
001000
000000
001000
000000
100000
001000
001000
000000
,
000000
000000
100000
000000
000001
000001
100000
000000
,
000000
000000
001000
000000
001000
000000
000001
100000
,
000000
000000
000000
000000
,
001000
000000
001000
000000
100000
001000
001000
000000
,
000001
100000
000001
000000
000100
001000
100000
000000
,
001000
000000
001000
000000
001000
001000
100000
000001
,
000000
000000
001001
100100
,
001000
000000
100000
000000
000001
001000
100000
000000
,
000001
000000
000010
010000
000001
100000
000000
000000
,
001000
000000
001000
000000
001000
100000
000001
100000
,
000000
000000
000000
000000
,
001100
000000
100000
000000
001001
000001
000001
000000
,
100000
000000
001001
000000
001000
000100
001000
000000
,
000000
000000
000000
000100
001000
000100
100000
000001
,
000000
000000
000000
000000
,
000100
000010
000001
000000
001000
000000
100000
000000
,
000100
000010
000001
000000
001000
000000
100000
000000
,
100000
000001
100000
000001
,
100000
100000
000001
000001
,
000000
000000
000000
000000
000100
001000
000100
001000
,
000000
000000
000000
000000
001000
000100
001000
000000
,
000000
000000
000000
000000
000001
100000
000001
100000
,
000000
000000
000000
000000
100000
000001
100000
000000
,
000100
000100
000001
000001
001000
001000
100000
100000
,
000010
000010
010000
010000
001000
001000
100000
100000
,
100000
000001
100000
000001
,
100000
000000
100000
000000
000001
000001
000001
000000
,
000100
000100
000000
000000
100000
100000
000000
000000
,
001000
000010
000000
000000
,
000100
100000
000001
000000
100000
000001
001000
000000
,
000000
000000
100001
010010
,
000010
000010
000010
000000
010000
010000
010000
000000
,
001000
001000
001000
001000
001000
000000
100001
000000
,
000000
000000
000000
000000
001000
001000
001000
000000
,
000100
100000
000001
000100
001000
000000
100001
000000
,
000000
000000
000000
000000
000001
000001
000001
000000
,
001000
000100
001000
000001
100000
000000
000000
000000
,
000000
000000
001000
000001
001000
000000
000000
000000
,
000000
000000
001000
100000
001000
000000
000000
000000
,
001000
001000
001000
001000
000001
100000
001000
000000
,
000010
000010
000010
000010
,
000100
000000
000001
000001
000000
000000
000000
000000
,
000100
000000
100000
100000
000000
000000
000000
000000
,
100100
110000
100000
001000
,
000100
000001
001000
100000
,
000100
000000
010000
010000
000000
000000
000000
000000
,
000100
000000
000010
000010
000000
000000
000000
000000
,
000101
000011
000001
001000
,
000100
000001
001000
100000
,
100000
001000
000001
001000
,
000001
100000
000001
000000
001000
000000
001000
001000
,
000000
000000
001000
000001
,
000100
100000
001000
000001
,
000100
000101
001000
100000
,
100000
000001
100000
000000
001000
000000
001000
001000
,
000000
000000
001000
010000
,
001000
000010
001000
010000
,
000100
000000
000001
000000
001000
000100
100000
000000
,
000100
000000
100000
000000
001000
000100
000001
000000
,
001000
000000
010000
000000
001000
000001
000010
000000
,
001000
010000
001000
000010
,
000100
000000
100001
000000
;

//---------------dance-solo - ----------------
#NOTES:
     dance-solo:
     :
     Hard:
     8:
     :
000000
000000
000000
000000
,
000000
000000
000000
000000
,
000000
000000
000000
000000
,
000000
000000
000000
000000
,
000000
000000
000000
000000
,
100000
001000
000100
100000
,
000001
000000
000000
100000
001000
000000
100000
000000
000001
000000
001000
000000
001000
000000
000000
000000
,
100000
001000
000001
001000
,
000001
000000
000000
100000
001000
000000
100000
000000
000001
000000
001000
000000
001000
000000
000000
000000
,
000001
001000
000001
100000
,
100001
000000
000000
000001
001000
000000
000100
000000
100000
000000
000100
000000
000001
000000
000000
000000
,
010010
100000
000001
001000
,
000100
000000
000000
001000
000001
000000
100000
000000
000100
000000
001000
000000
000001
000000
000000
000000
,
010000
001000
000010
000000
010000
001000
001000
000000
,
100000
001000
000001
001000
100000
000000
000000
000000
,
000001
100000
010000
000000
100000
000001
000010
000000
,
010000
000010
100000
000001
100000
000000
000000
000000
,
000001
000100
001000
100000
000001
001000
001000
000001
,
100000
001000
000100
000010
000001
000000
100000
100000
,
100000
000000
000001
100000
000001
000000
000010
000100
,
010000
000100
000010
000100
001000
000100
001000
000000
,
010000
000000
000000
000001
001000
000000
000100
000000
000100
000000
100000
000000
000001
000000
000010
000000
,
000010
000000
000000
100000
001000
000000
000100
000000
000100
000000
000001
000000
100000
000000
000000
000000
,
100000
000000
000000
000100
001000
000000
000001
000000
000001
000000
100000
000000
001000
000000
000001
000000
,
000001
000000
000000
001000
000100
000000
100000
000000
100000
000000
000001
000000
001000
000000
000000
000000
,
100001
000000
000000
100000
001000
000000
000100
000000
000001
000000
000100
000000
100000
000000
100000
000000
,
100001
000000
000000
000001
001000
000000
000100
000000
100000
000000
000100
000000
000001
000000
000000
000000
,
010010
000000
000000
000001
100000
000000
000100
000000
100000
000000
000001
000000
001000
000000
000100
000000
,
000100
000000
000000
001000
000001
000000
100000
000000
000100
000000
001000
000000
000001
000000
000000
000000
,
100010
000000
000000
001000
000000
000000
001000
000000
000000
000000
100000
000000
001000
000000
001000
000000
,
000001
000000
000000
001000
000000
000000
001000
000000
000000
000000
000000
000000
000000
000000
000000
000000
,
010001
000000
000000
001000
000000
000000
001000
000000
000000
000000
100000
000000
000100
000000
000001
000000
,
001000
000000
000000
001000
000000
000000
001000
000000
000000
000000
000000
000000
000000
000000
000000
000000
,
000000
000100
000000
000011
000000
000100
000000
110000
,
001000
000100
001000
000100
001000
000100
001000
000100
,
000000
000100
000000
110000
000000
000100
000000
000011
,
001000
000100
001000
000100
001000
000000
000000
000000
,
010000
000010
010000
000000
001000
001000
001000
000000
,
000010
010000
000010
000000
001000
001000
001000
000000
,
010000
000010
100000
000001
010000
000010
100000
000001
,
001000
000100
001000
000100
100000
000001
100000
000000
,
000001
100000
000001
000000
000100
001000
100000
000001
,
001000
000100
100000
000010
010000
000001
000100
000000
,
001000
000000
001000
000000
001000
010000
100000
000001
,
000000
000000
000000
000000
000100
001000
000100
001000
,
100000
000001
100000
000000
000100
001000
001000
000100
,
100000
000001
100000
000100
000100
001000
100000
000001
,
000100
000000
000100
000000
010000
000010
000010
010000
,
000000
000000
000000
000000
010000
000010
100000
000001
,
000001
100000
000001
000000
000100
001000
100000
000001
,
001000
000100
100000
000010
010000
000001
000100
000000
,
000100
000000
000100
000000
001000
010000
100000
000001
,
000000
000000
000000
000000
000100
001000
000100
001000
,
100000
000001
100000
000000
000100
001000
001000
000100
,
100000
000001
100000
000100
000100
001000
100000
000001
,
000100
000000
000100
000000
010000
000010
000010
010000
,
000000
000000
000000
000000
010000
000010
100000
000001
,
000100
000000
000010
000000
010000
000000
001000
000100
,
001000
000010
010000
000100
,
010000
000010
010000
000000
000010
010000
000010
000000
,
010000
100000
010000
100000
000010
000001
000010
000000
,
001000
000100
001000
000010
001000
000001
000001
000001
,
000100
001000
000100
010000
000100
100000
100000
000000
,
001000
000100
001000
000010
001000
000001
000001
000001
,
000100
001000
000100
010000
000100
100000
100000
000000
,
000100
000010
010000
001000
,
001000
000010
010000
000100
,
010000
000010
010000
000010
010000
000010
010000
000010
,
100000
010000
100000
000010
010000
000001
100000
000000
,
100000
010000
100000
000000
000001
000010
000001
000000
,
000001
000001
000001
000001
,
000100
001000
100000
000000
000100
001000
000001
000000
,
000010
001000
010000
000100
001000
000000
100001
000000
,
000100
100000
010000
000000
000100
000001
000010
000000
,
000100
001000
100000
000100
001000
000000
100001
000000
,
010000
001000
000010
000000
001000
010000
000010
000000
,
100000
001000
000100
000001
100000
000000
001100
000000
,
000001
100000
001000
000100
000001
100000
100000
000000
,
010000
100000
000100
000001
000010
000000
000000
000000
,
001000
100000
000100
000000
,
001000
000001
000100
000000
,
001000
100000
000100
001000
000001
000010
100000
010000
,
010100
000110
001100
100001
,
000000
000010
100000
001000
,
000000
000001
000000
000001
,
000000
000100
100000
001000
,
000000
000001
000000
000001
,
000000
010000
100000
001000
,
010000
010000
100000
000100
,
000010
000001
001000
100000
,
000001
001000
001000
001000
,
000100
100000
001000
010000
000100
100000
001000
010000
,
000100
100000
001000
010000
000100
100000
001000
000000
,
000100
000001
001000
000010
000100
000001
001000
000010
,
000100
000001
001000
000010
000100
000001
001000
000000
,
000100
100000
001000
010000
000100
100000
001000
000100
,
000010
001000
000001
010000
000100
100000
001000
000000
,
000100
000001
001000
000010
000100
000001
001000
000100
,
010000
001000
100000
000010
000100
000001
001000
000000
,
000001
000000
001000
000001
000000
001000
000001
000000
,
100000
000000
001000
100000
000000
001000
100000
000000
,
000010
000000
001000
000010
000000
001000
000010
000000
,
010000
000000
001000
010000
000000
000000
000000
000000
,
000010
001000
011000
000000
;

//---------------dance-threepanel - ----------------
#NOTES:
     dance-threepanel:
     :
     Easy:
     3:
     :
000
000
000
000
,
000
000
000
000
,
000
000
000
000
,
000
000
000
000
,
000
000
000
000
,
010
010
100
010
,
001
100
010
010
,
001
101
010
100
,
010
001
010
100
,
010
010
100
010
,
010
001
010
100
,
001
101
010
100
,
010
001
010
100
,
010
010
100
100
,
010
010
001
000
,
000
010
000
010
,
010
001
010
000
,
000
010
000
010
,
000
100
001
100
,
010
001
100
001
,
010
010
101
101
,
010
010
100
010
,
010
001
010
100
,
001
101
010
100
,
010
001
010
100
,
001
010
100
010
,
001
010
100
010
,
001
000
100
000
,
001
100
001
000
,
101
000
010
000
,
101
000
010
000
,
001
010
100
010
,
001
010
100
101
,
100
010
010
001
,
010
010
010
100
,
010
001
100
010
,
010
100
001
000
,
010
001
010
010
,
001
010
100
010
,
010
100
010
010
,
010
100
001
001
,
010
010
100
010
,
000
100
001
100
,
000
010
010
001
,
000
000
000
000
,
010
010
100
010
,
001
010
010
100
,
010
010
010
100
,
000
000
000
000
,
010
100
001
100
,
001
010
001
000
,
010
010
010
001
,
000
000
000
000
,
010
000
101
010
,
100
010
010
010
,
000
000
010
100
,
000
000
000
000
,
010
001
010
100
,
010
001
010
100
,
010
001
100
001
,
100
010
001
010
,
100
101
010
010
,
001
101
010
101
,
010
001
100
010
,
010
001
100
010
,
010
001
010
100
,
010
001
010
100
,
010
001
100
001
,
100
101
010
101
,
010
001
100
010
,
000
000
010
010
,
000
000
001
010
,
000
001
010
101
,
000
000
100
010
,
000
100
010
101
,
000
000
010
001
,
000
010
010
101
,
000
000
010
010
,
101
010
101
010
,
100
000
000
010
,
001
000
000
000
,
010
000
010
000
,
001
010
001
010
,
010
001
010
000
,
010
100
010
000
,
100
010
001
001
,
010
000
010
000
,
100
001
010
000
,
010
100
010
000
,
010
000
010
000
,
100
010
001
010
,
010
001
100
001
,
010
010
010
100
,
000
000
010
001
,
000
000
010
100
,
001
010
100
001
,
010
010
010
100
,
000
000
001
000
,
010
000
100
000
,
001
010
100
001
,
010
010
010
010
,
100
000
001
000
,
010
010
100
001
,
010
000
010
000
;

//---------------dance-threepanel - ----------------
#NOTES:
     dance-threepanel:
     :
     Medium:
     6:
     :
000
000
000
000
,
000
000
000
000
,
000
000
000
000
,
000
000
000
000
,
000
000
000
000
,
010
000
010
000
100
000
010
001
,
010
100
010
010
,
001
000
101
000
010
000
100
010
,
010
010
010
001
,
100
001
010
000
010
000
100
000
,
010
001
010
100
,
001
100
010
000
010
000
100
010
,
010
010
001
010
,
010
010
100
000
100
010
010
000
,
010
010
001
000
010
010
010
000
,
001
010
100
000
010
001
010
000
,
001
100
010
000
100
010
001
000
,
101
010
010
000
010
100
010
000
,
010
100
010
000
011
010
100
000
,
010
001
010
000
010
100
010
000
,
010
100
001
000
101
000
010
000
,
010
000
010
000
100
000
010
001
,
010
100
010
010
,
001
000
101
000
010
000
100
010
,
010
010
010
001
,
100
001
010
000
010
000
100
000
,
010
001
010
100
,
001
100
010
000
010
000
100
010
,
010
010
001
010
,
001
010
100
010
,
001
010
100
010
,
100
010
001
000
010
010
100
000
,
010
010
001
010
001
010
010
000
,
000
100
001
010
010
010
001
100
,
000
000
000
000
,
000
010
010
001
100
001
010
010
,
000
000
000
000
,
001
100
001
000
010
000
010
000
,
001
010
001
000
100
000
010
000
,
010
001
100
000
010
000
010
000
,
010
001
100
000
001
000
001
000
,
010
000
010
000
100
010
010
000
,
000
000
100
000
001
010
100
000
,
000
000
010
000
010
000
001
100
,
000
000
000
000
,
010
000
010
000
100
010
010
000
,
001
100
001
000
010
010
100
000
,
010
000
010
000
010
010
100
001
,
000
000
011
110
,
010
000
100
000
001
010
100
000
,
001
000
010
001
100
001
000
000
,
010
000
010
000
010
100
001
100
,
000
000
000
000
,
010
000
100
000
011
001
010
000
,
100
000
011
000
010
010
010
000
,
000
000
000
010
010
010
100
001
,
000
000
000
000
,
010
010
001
000
010
000
100
000
,
010
010
001
000
010
000
100
000
,
010
001
100
001
,
100
010
001
010
,
000
000
000
000
010
010
010
010
,
000
000
000
000
010
010
010
000
,
000
000
000
000
001
100
001
100
,
000
000
000
000
010
001
100
000
,
010
010
100
100
010
010
001
001
,
010
100
001
010
010
010
100
010
,
100
001
100
001
,
100
000
010
000
001
010
001
000
,
010
010
000
000
100
100
000
000
,
010
001
000
000
,
010
100
001
000
100
001
010
000
,
000
000
101
101
,
010
001
010
000
100
010
100
000
,
010
010
010
010
010
000
101
000
,
000
000
000
000
010
010
010
000
,
010
100
001
010
010
000
101
000
,
000
000
000
000
010
001
001
000
,
010
010
010
001
100
000
000
000
,
000
000
010
001
010
000
000
000
,
000
000
010
100
010
000
000
000
,
010
010
010
010
001
100
010
000
,
001
010
001
010
,
010
000
001
010
000
000
000
000
,
010
000
100
010
000
000
000
000
,
110
100
100
010
,
010
001
010
100
,
010
000
100
010
000
000
000
000
,
010
000
001
010
000
000
000
000
,
011
001
001
010
,
010
001
010
100
,
100
010
001
010
,
001
100
001
000
010
000
010
010
,
000
000
010
001
,
010
100
010
001
,
010
011
010
100
,
010
001
100
000
010
000
010
010
,
000
000
010
100
,
010
001
010
100
,
010
000
001
000
010
010
100
000
,
010
000
100
000
010
010
001
000
,
010
000
100
000
010
001
010
000
,
010
100
010
001
,
010
000
101
000
;

//---------------dance-threepanel - ----------------
#NOTES:
     dance-threepanel:
     :
     Hard:
     8:
     :
000
000
000
000
,
000
000
000
000
,
000
000
000
000
,
000
000
000
000
,
000
000
000
000
,
100
010
010
100
,
001
000
000
100
010
000
100
000
001
000
010
000
010
000
000
000
,
100
010
001
010
,
001
000
000
100
010
000
100
000
001
000
010
000
010
000
000
000
,
001
010
001
100
,
101
000
000
001
010
000
010
000
100
000
010
000
001
000
000
000
,
101
010
001
010
,
010
000
000
010
001
000
100
000
010
000
010
000
001
000
000
000
,
100
010
001
000
100
010
010
000
,
100
010
001
010
100
000
000
000
,
001
100
010
000
100
001
010
000
,
100
001
100
001
100
000
000
000
,
001
010
010
100
001
010
010
001
,
100
010
010
010
100
000
001
010
,
001
000
100
001
100
000
010
010
,
001
010
100
010
010
010
010
000
,
100
000
000
001
010
000
010
000
010
000
100
000
001
000
010
000
,
001
000
000
100
010
000
010
000
010
000
001
000
100
000
000
000
,
010
000
000
010
010
000
001
000
010
000
100
000
010
000
001
000
,
001
000
000
010
010
000
100
000
010
000
001
000
010
000
000
000
,
101
000
000
100
010
000
010
000
001
000
010
000
001
000
010
000
,
101
000
000
001
010
000
010
000
100
000
010
000
001
000
000
000
,
101
000
000
010
100
000
010
000
100
000
001
000
010
000
010
000
,
010
000
000
010
001
000
100
000
010
000
010
000
001
000
000
000
,
110
000
000
010
000
000
010
000
000
000
100
000
010
000
010
000
,
001
000
000
010
000
000
010
000
000
000
000
000
000
000
000
000
,
101
000
000
010
000
000
010
000
000
000
100
000
010
000
001
000
,
010
000
000
010
000
000
010
000
000
000
000
000
000
000
000
000
,
000
010
000
001
000
010
000
100
,
010
010
010
010
010
010
010
010
,
000
010
000
100
000
010
000
001
,
010
010
010
010
010
000
000
000
,
001
100
001
000
010
010
010
000
,
100
001
100
000
010
010
010
000
,
100
001
100
001
100
001
100
001
,
010
010
010
010
100
001
100
000
,
001
100
001
000
010
010
100
001
,
010
010
100
001
100
001
010
000
,
010
000
010
000
010
010
001
100
,
000
000
000
000
010
010
010
010
,
100
001
100
000
010
010
010
010
,
100
001
100
010
010
010
001
100
,
010
000
010
000
100
001
010
001
,
000
000
000
000
010
001
100
001
,
010
100
001
000
010
010
100
001
,
010
010
100
001
100
001
010
000
,
010
000
010
000
010
010
001
100
,
000
000
000
000
010
010
010
010
,
001
100
001
000
010
010
010
010
,
001
100
001
010
010
010
100
001
,
010
000
010
000
001
100
010
100
,
000
000
000
000
010
001
100
001
,
010
000
001
000
100
000
010
010
,
010
100
001
010
,
100
001
100
000
001
100
001
000
,
010
100
010
100
010
001
010
000
,
010
010
010
100
010
100
010
100
,
010
010
010
100
010
100
100
000
,
010
010
010
100
010
100
010
100
,
010
010
010
100
010
100
010
000
,
010
100
001
010
,
010
001
100
010
,
100
001
100
001
100
001
100
001
,
100
010
100
001
100
001
100
000
,
010
010
100
000
001
010
001
000
,
010
001
010
001
,
010
010
100
000
010
010
001
000
,
010
010
100
010
010
000
101
000
,
010
100
010
000
010
001
010
000
,
010
010
001
010
010
000
101
000
,
010
010
001
000
010
001
100
000
,
001
010
010
100
001
000
010
000
,
001
100
010
010
001
100
010
000
,
010
100
010
001
010
000
000
000
,
010
100
010
000
,
010
001
010
000
,
010
100
010
010
001
010
001
010
,
011
011
010
101
,
000
010
100
010
,
000
001
000
010
,
000
010
100
010
,
000
001
000
010
,
000
010
100
010
,
100
010
100
010
,
010
001
010
001
,
100
010
010
010
,
010
001
010
001
010
001
010
001
,
010
001
010
001
010
001
010
000
,
010
100
010
100
010
100
010
100
,
010
100
010
100
010
100
010
000
,
010
001
010
001
010
001
010
010
,
100
010
100
001
010
001
010
000
,
010
100
010
100
010
100
010
010
,
001
010
001
100
010
100
010
000
,
100
000
010
100
000
010
100
000
,
001
000
010
001
000
010
001
000
,
100
000
010
100
000
010
100
000
,
001
000
010
001
000
000
000
000
,
100
010
011
000
;
