#TITLE:NONSTOP A;
#ARTIST:GET UP'N MOVE -- SAMBA DE JANEIRO -- DON'T CLOCK ME;
#BANNER:NONSTOP A.png;
#BACKGROUND:NONSTOP A-bg.png;
#CDTITLE:./CDTITLES/DANCE DANCE REVOLUTION SOLO.PNG;
#MUSIC:NONSTOP A.ogg;
#SAMPLESTART:47.269;
#SAMPLELENGTH:15;
#DISPLAYBPM:124:160;
#BPMS:0=131.977,124=129.206,125=131.301,128=160.472,139.5=150.669,140=160.734,160=160.074,300=159.499,304=161.457,305=148.551,306=140.393,307=134.742,308=124.152,372=124.682,388=124.314;

//---------------dance-single - ----------------
#NOTES:
     dance-single:
     :
     Easy:
     3:
     :
0000
0000
0000
0000
,
0000
0000
0000
0000
,
0000
0000
0000
0000
,
0000
0000
0000
0000
,
0000
0000
0000
0000
,
0001
1000
0001
0000
,
0000
0010
0000
1000
,
0001
0010
0100
0000
,
0001
1000
1000
0000
,
0001
1000
1000
0000
,
1000
0100
0001
0100
,
0001
0001
0001
0000
,
1000
0001
0001
0000
,
1000
0001
0001
0000
,
1000
0010
0001
0010
,
0100
0100
0100
0000
,
1000
0010
0001
0000
,
1000
0010
0010
0000
,
0100
0001
0001
0000
,
1000
0010
0010
0000
,
0001
0001
0001
0000
,
1000
1000
0010
0000
,
0100
0001
0010
1000
,
0010
0010
1000
0001
,
1000
0010
1000
0010
,
0001
0010
0100
1001
,
0000
0010
1000
0000
,
0000
0001
0001
1000
,
0000
1000
0010
1000
,
0001
0010
0001
0000
,
1000
0010
1000
0010
,
0001
0001
1000
1001
,
1001
0000
0000
0000
,
0010
0000
0000
0000
,
0010
0000
1000
0000
,
0100
0000
0001
0000
,
0010
0100
0001
1000
,
0001
0010
1000
0010
,
0001
0010
1000
0010
,
1001
0010
0010
0000
,
1000
0001
0010
1000
,
0010
0010
0001
0010
,
0001
1000
0100
0100
,
0100
0010
1000
0010
,
1000
0001
0100
0100
,
0100
0010
1000
0100
,
0001
0010
1000
0100
,
1000
1000
0001
0001
,
1001
0010
0010
0000
,
1000
0001
0010
1000
,
0001
0010
0100
0001
,
0001
1000
0100
0100
,
0100
0010
0100
1000
,
1000
0001
0100
0100
,
0100
0010
1000
0100
,
0001
0010
1000
0100
,
0010
1000
0010
0001
,
1001
0010
0010
0000
,
1000
0001
0010
1000
,
0001
0010
0100
0001
,
0010
1000
0100
0100
,
0100
0001
0100
0010
,
1000
0100
0001
0010
,
0001
1000
0010
0100
,
0001
0010
1000
0010
,
0001
0000
0000
0000
,
0000
0010
0010
0000
,
1000
0001
0100
1000
,
0100
0010
0100
1000
,
0010
0001
0100
0100
,
0100
1000
0010
0100
,
0001
0010
1000
0100
,
0100
0001
0010
0100
,
1000
0010
0001
1000
,
0001
1000
0100
0100
,
1001
0010
0100
0000
,
0001
1000
0001
1000
,
0000
0010
0000
0010
,
0000
0100
0000
1000
,
0000
0010
0100
0001
,
1000
0001
1000
0001
,
0000
0100
0000
0100
,
0000
0010
0000
0001
,
0000
0010
0100
1000
,
0001
1000
0001
1000
,
0000
0010
0000
0010
,
0000
0010
0000
0010
,
1000
1000
1000
0001
,
0100
0100
0010
0010
,
0001
0000
1000
0000
,
0001
0000
1000
0000
,
0001
1000
0001
1000
,
0000
0010
0010
0010
,
0001
0000
1000
0001
,
0000
0000
1000
0100
,
0001
1000
0001
1000
,
0000
0001
0001
0001
,
1000
0000
0001
0000
,
1000
0000
0001
0000
,
0010
0100
0010
0100
,
0000
1000
1000
1000
,
0010
0000
1000
0010
,
0000
0000
0001
0100
,
1000
0001
1000
0001
,
0100
0100
0100
1001
;

//---------------dance-single - ----------------
#NOTES:
     dance-single:
     :
     Medium:
     5:
     :
0000
0000
0000
0000
,
0000
0000
0000
0000
,
0000
0000
0000
0000
,
0000
0000
0000
0000
,
0000
0000
0000
0000
,
1000
0010
0100
0000
,
0001
0001
0000
0000
1000
1000
0000
0000
,
0001
0010
1000
0000
,
0010
1000
0100
0001
,
0100
0010
0010
0000
,
0001
1000
0100
0000
0100
0000
0100
0000
,
1000
0001
0100
0000
1000
0000
1000
0000
,
0010
0000
0001
1000
0100
0000
0000
1000
,
0001
0000
0100
0100
,
0010
0000
0100
0000
0010
0100
0000
0001
,
1000
0000
0001
1000
,
0100
0100
0000
0000
,
1000
0001
0000
0000
,
0100
0100
0000
0000
,
0001
1000
0000
0000
,
0001
1000
0100
0100
,
1000
0001
0100
0100
,
1001
0000
0001
1000
0100
0000
0000
0000
,
0010
0100
0001
0000
1001
0001
0100
0000
,
0000
0010
1000
0100
,
0001
0000
0100
1000
0001
1000
0001
0000
,
0010
0001
0000
0100
,
1000
0000
0010
0000
0010
0000
1000
0001
,
0000
0010
1000
0100
,
0001
0100
0100
0000
,
0000
0010
0001
0100
,
1000
0000
0100
0000
0010
0100
0010
0000
,
1001
0000
0000
0000
0000
0000
0000
0001
,
1000
0000
0000
0000
0000
0000
0000
0010
,
0100
0000
0010
0001
,
0010
1000
0010
1000
,
0100
0001
0010
1000
,
0100
0001
0010
1000
,
0001
1001
0110
0011
,
1001
0000
0010
0000
0100
0000
0000
0001
,
1000
0010
0001
0010
,
1000
0001
0100
0100
,
1000
0000
0001
0010
0001
0000
0100
0000
,
0100
0001
0010
1000
,
0001
0000
1000
0010
1000
0000
0100
0000
,
0100
0010
0001
0100
,
1000
0010
0001
0100
,
1000
0001
1010
0101
,
1001
0000
0010
0000
0100
0000
0000
0001
,
1000
0010
0001
0010
,
1000
0010
0001
1000
,
0100
0000
0010
0100
0001
0000
0001
0000
,
0100
0010
1000
0001
,
0100
0000
0010
0100
1000
0000
1000
0000
,
0100
0010
1000
0100
,
0001
0010
1000
0100
,
0001
1000
0110
0011
,
1001
0000
0010
0000
0100
0000
0000
0001
,
1000
0001
0010
1000
,
0100
0010
0010
1000
,
0001
0000
0010
0001
0100
0000
0100
0000
,
1000
0100
0100
0001
,
1000
0000
0010
1000
0100
0000
0100
0000
,
0001
0100
1000
0001
,
0100
0000
1000
0001
1000
0000
0001
0000
,
1000
0000
0000
0000
,
1001
0000
0010
0000
0100
0000
0000
0001
,
1000
0001
0010
1000
,
0100
0000
0010
0100
1000
0000
1000
0000
,
0001
0000
0010
0100
0001
0000
0001
0000
,
1000
0000
0010
1000
0100
0000
1000
0000
,
0001
0000
0010
0001
0100
0000
0100
0000
,
1000
0100
1000
0001
,
0100
0000
1000
0001
1000
0000
0001
1000
,
0001
1001
0110
0011
,
1001
0000
1001
0010
1000
0001
0000
1000
,
0001
0100
1000
0100
,
0000
0010
0000
0010
,
0100
0010
0100
1010
,
0000
0010
0100
0001
,
1100
0101
1001
0001
,
0000
0100
0000
0100
,
0010
0100
0010
0101
,
0000
0010
0100
1000
,
0101
0000
1010
0000
0100
0100
1000
0100
,
0000
0001
0000
0010
,
0000
0001
0000
0010
,
1000
0010
1000
0010
,
1100
0101
1001
1100
,
0001
0000
1000
0001
,
1000
0100
0100
0001
,
1000
0010
0001
1000
,
0101
1100
1001
0101
,
0010
0000
0000
0000
0001
1000
0100
0000
,
0001
0010
1000
0100
,
0001
1000
0001
0100
,
0000
1010
0101
1001
,
0010
0000
1000
0001
,
1000
0100
0100
0001
,
1000
0010
0001
1000
,
0000
0101
1100
1001
,
0101
0000
0000
0000
0001
1000
0100
0000
,
0001
0010
1000
0100
,
0001
1000
0001
0100
,
0000
0010
0010
0000
1010
0000
0101
0000
,
1001
0000
0000
0000
;

//---------------dance-single - ----------------
#NOTES:
     dance-single:
     :
     Hard:
     8:
     :
0000
0000
0000
0000
,
0000
0000
0000
0000
,
0000
0000
0000
0000
,
0000
0000
0000
0000
,
0000
0000
0000
0000
,
1000
0001
1000
0000
,
0010
1000
0000
0000
0100
0001
0000
0000
,
0010
0010
0010
0000
,
0010
0100
0001
0000
0010
0100
1000
0000
,
0100
0100
0010
0000
0010
0010
0100
0000
,
1000
0001
0100
1000
0100
1000
0100
0000
,
0001
1000
0100
0001
0100
0001
0100
0000
,
1000
0001
0100
0001
1000
0001
1000
0100
,
0100
0000
0100
0100
,
0010
0000
0100
0000
0010
0100
0010
0001
,
1000
0000
0000
0000
0001
0100
1000
0000
,
0010
0100
0001
0100
1000
0100
1000
0100
,
0010
0100
0001
0100
1000
0100
1000
0100
,
0010
0100
0001
0100
1000
0100
1000
0100
,
0010
0100
1000
0100
0010
0100
0010
0001
,
0100
1000
0100
0001
0010
0001
0010
0001
,
1000
0100
0001
0000
0100
0000
0100
0000
,
1001
0000
0001
1000
0100
0010
0100
0000
,
0010
0100
1000
0000
1001
0001
0100
0000
,
0010
0000
0000
0000
1000
0000
0001
0100
0000
0000
0000
0000
0000
0000
0000
0000
,
0010
0000
0000
0000
1000
0000
0001
0100
0000
0000
0000
0000
0000
0000
0000
0000
,
1000
0000
0000
0000
0010
0000
0100
0001
0000
0000
0000
0000
0000
0000
0000
0000
,
1000
0000
0000
0000
0010
0000
0100
0001
0000
0000
0000
0000
1000
0000
0001
0000
,
0000
0000
0010
0000
0000
0010
0000
0000
0010
0000
0000
0010
0000
0000
0010
0000
,
0000
0000
0100
0000
0000
0100
0000
0000
0100
0000
0000
0100
0000
0000
0000
0000
,
0010
0001
0010
1000
,
0001
0000
1001
1001
,
1001
0000
0000
0000
0000
0000
0000
0010
,
0100
0000
0000
0000
0000
0000
0000
1000
,
0100
0000
0011
0001
,
0110
1000
1100
0101
,
0010
1000
0100
0001
,
0010
1000
0100
0001
,
0010
1000
0010
0001
0010
1000
0010
0001
,
1001
0000
1100
0000
0101
0000
0000
0010
,
0100
0000
0010
0100
0001
0000
1100
0000
,
0101
0010
0101
1000
,
0100
0000
0010
0100
1000
0000
0101
0000
,
1100
0010
1100
0001
,
0001
0000
1000
0010
1000
0000
0100
0000
,
0100
0010
0001
0100
,
1000
0010
0001
0100
,
1000
0001
1010
0101
,
1001
0000
0110
0000
0101
0000
0000
0010
,
0100
0000
0010
0100
0001
0000
1100
0000
,
0101
0010
1100
0001
,
0100
0000
0010
0100
0001
0000
1100
0000
,
0101
0010
0101
1000
,
0100
0000
0010
0100
1000
0000
0101
0000
,
1100
0010
1001
0110
,
0100
0000
0010
0100
0001
0000
1100
0000
,
0110
0000
1001
0000
0110
0001
0110
1000
,
0001
0000
1100
0000
0101
0000
0000
0010
,
0100
0000
0010
1000
0100
0000
0011
0000
,
1100
0100
1001
1000
,
0001
0000
0010
0001
0100
0000
1010
0000
,
0101
0100
1001
0001
,
0100
0000
0010
1000
0100
0000
0011
0000
,
1100
0001
1001
0100
,
0100
0000
0001
0100
0101
0000
1000
0100
,
1100
0000
0000
0000
,
1001
0000
0110
0000
1010
0000
0000
0010
,
0100
0000
0010
1000
0100
0000
0101
0000
,
1010
0100
1001
1000
,
0001
0000
0010
0001
0100
0000
1001
0000
,
1100
0010
1001
0001
,
0100
0000
0010
1000
0100
0000
0011
0000
,
1100
0001
1001
0110
,
1001
0000
0010
0100
1001
0000
0010
0100
,
1001
0101
1010
0101
,
1100
0000
0010
0100
0001
0010
0000
1001
,
0110
0001
1000
0100
,
0000
0000
0010
0000
0000
0000
0010
0001
,
1000
0001
0000
1000
0000
0100
0000
1000
0000
0100
1000
0000
0001
0000
0000
0000
,
0010
0010
0100
0100
1000
0001
0100
0000
,
1100
0000
0101
0000
1000
0010
0001
0000
,
1000
1000
0001
0001
0010
0100
0010
0000
,
0001
1000
0110
1001
,
1000
1000
0001
0001
0010
0010
0010
0001
,
0010
1000
0010
0001
0010
0100
1000
0100
,
0000
0101
0000
1010
,
0000
1100
0000
0101
,
0011
1010
1100
0101
,
0011
1010
1100
0101
0011
1010
1100
0000
,
1001
1001
1000
0001
,
0000
1000
0100
0001
0100
0000
1001
0000
,
0010
1000
0001
0010
1000
1000
0001
0001
,
0000
1000
0001
1100
,
0101
0000
0000
0001
0100
0000
1000
0000
,
0000
0010
1000
0100
0010
0001
0100
0000
,
0001
0001
1000
0100
0010
0010
1000
1000
,
0000
0001
1000
0110
,
1001
1001
1000
0001
,
0000
1000
0100
0001
0100
0000
1001
0000
,
0010
1000
0001
0010
1000
1000
0001
0001
,
0000
1000
0001
1100
,
0101
0000
0000
0001
0100
0000
1000
0000
,
0000
0010
1000
0100
0010
0001
0100
0000
,
1001
0010
0010
0010
,
0000
1010
1100
0101
0011
0000
1001
0000
,
1001
0000
0000
0000
;

//---------------dance-solo - ----------------
#NOTES:
     dance-solo:
     :
     Easy:
     4:
     :
000000
000000
000000
000000
,
000000
000000
000000
000000
,
000000
000000
000000
000000
,
000000
000000
000000
000000
,
000000
000000
000000
000000
,
000010
010000
000010
000000
,
000000
000010
000000
010000
,
000010
000010
000010
000000
,
000001
100000
100000
000000
,
000001
100000
100000
000000
,
100000
001000
000001
001000
,
000001
000001
000001
000000
,
100000
000001
000001
000000
,
100000
000001
000001
000000
,
100000
000100
000001
000100
,
001000
001000
001000
000000
,
010000
010000
000001
000000
,
100000
000100
000100
000000
,
000010
000001
000001
000000
,
100000
000100
000100
000000
,
000001
000001
000001
000000
,
100000
100000
000100
000000
,
000010
000001
010000
100000
,
000100
000100
010000
000010
,
010000
010000
010000
010000
,
000010
000010
010000
100001
,
000000
000100
100000
000000
,
000000
000000
000001
000000
000001
000000
010000
000010
,
000000
010000
010000
010000
,
000010
000010
000010
000000
,
010000
010000
010000
010000
,
000001
000001
100000
010010
,
100001
000000
000000
000000
000000
000000
000000
100000
,
010000
000000
000000
000000
000000
000000
000000
000001
,
000010
000000
100000
000000
,
001000
000000
000001
000000
,
000100
001000
000001
100000
,
000010
000100
010000
000100
,
000010
000100
010000
000010
,
100001
000000
000100
000000
000100
000000
000000
000010
,
010000
000001
000100
100000
,
000100
000100
000001
000010
,
000010
100000
001000
001000
,
001000
000100
100000
010000
,
010000
000001
001000
001000
,
001000
000100
100000
001000
,
000001
000010
010000
001000
,
100000
100000
000001
000001
,
010010
000000
000100
000000
000100
000000
000000
000010
,
010000
000001
000100
100000
,
000001
000100
000010
000001
,
000001
100000
001000
001000
,
001000
000100
010000
100000
,
100000
000001
001000
001000
,
001000
000100
100000
001000
,
000001
000010
010000
001000
,
010000
100000
000010
000001
,
010010
000000
000100
000000
000100
000000
000000
000010
,
010000
000001
000100
100000
,
000001
000100
001000
000010
,
000010
010000
001000
001000
,
001000
000001
001000
000100
,
100000
001000
000001
000010
,
000010
100000
000100
001000
,
000001
000100
100000
010000
,
000010
000000
000000
000000
,
000000
000000
000100
000000
000100
000000
000000
000010
,
010000
000010
001000
010000
,
001000
000100
001000
010000
,
010000
000010
001000
001000
,
001000
100000
000100
001000
,
000001
000100
100000
001000
,
001000
000001
000100
001000
,
100000
000100
000001
010000
,
000010
010000
001000
001000
,
010010
000000
000000
000100
001000
000100
000000
100000
,
000001
100000
000001
100000
,
000000
000100
000000
000100
,
000000
001000
000000
010000
,
000000
000100
001000
000001
,
100000
000001
100000
000001
,
000000
001000
000000
001000
,
000000
000100
000000
000010
,
000000
000100
001000
100000
,
000001
100000
000001
100000
,
000000
000100
000000
000100
,
000000
000100
000000
000100
,
100000
100000
100000
000001
,
001000
001000
000100
000100
,
000010
000000
010000
000000
,
000010
000000
010000
000000
,
000001
100000
000001
100000
,
000000
000100
000100
000100
,
000001
000000
010000
000010
,
000000
000000
100000
001000
,
000001
100000
000001
100000
,
000000
000001
000001
000001
,
010000
000000
000010
000000
,
010000
000000
000010
000000
,
000100
001000
000100
001000
,
000000
100000
100000
100000
,
000100
000000
010000
000010
,
000000
000000
000001
001000
,
100000
000001
100000
000001
,
000000
001000
001000
001000
001000
000000
100001
000000
;

//---------------dance-solo - ----------------
#NOTES:
     dance-solo:
     :
     Medium:
     5:
     :
000000
000000
000000
000000
,
000000
000000
000000
000000
,
000000
000000
000000
000000
,
000000
000000
000000
000000
,
000000
000000
000000
000000
,
010000
010000
000010
000000
,
000001
000001
000000
000000
100000
100000
000000
000000
,
000010
000010
010000
000000
,
000100
100000
001000
000001
,
001000
000100
000100
000000
,
000001
100000
001000
000000
001000
000000
001000
000000
,
100000
000001
001000
000000
100000
000000
100000
000000
,
000100
000000
000001
100000
001000
000000
000000
100000
,
000001
000000
001000
001000
,
000100
000000
001000
000000
000100
001000
000000
000001
,
100000
000000
000010
010000
,
001000
001000
000000
000000
,
100000
000001
000000
000000
,
001000
001000
000000
000000
,
000001
100000
000000
000000
,
000001
100000
001000
001000
,
100000
000001
001000
001000
,
010010
000000
000001
100000
001000
000000
000000
000000
,
000100
001000
000001
000000
100001
000001
000010
000000
,
000000
000100
100000
001000
,
000001
000000
001000
100000
000001
100000
000001
000000
,
000100
000001
000000
001000
,
100000
000000
000100
000000
000100
000000
010000
000010
,
000000
000100
100000
001000
,
000001
001000
001000
000000
,
000000
000100
000001
001000
,
100000
000000
001000
000000
000100
001000
000100
000000
,
010010
000000
000000
000000
000000
000000
000000
000001
,
100000
000000
000000
000000
000000
000000
000000
000100
,
001000
000000
000010
000001
,
010000
100000
000100
100000
,
001000
000001
000100
100000
,
001000
000001
000100
100000
,
000001
010010
010100
000110
,
010010
000000
000100
000000
001000
000000
000000
000001
,
100000
000010
000001
010000
,
100000
000001
001000
001000
,
100000
000000
000010
000100
000010
000000
001000
000000
,
001000
000010
010000
100000
,
000001
000000
010000
000100
010000
000000
001000
000000
,
001000
000100
000001
001000
,
100000
000100
000001
001000
,
100000
000001
010100
000110
,
010010
000000
000100
000000
001000
000000
000000
000001
,
100000
000010
000001
010000
,
100000
000100
000010
100000
,
001000
000000
000100
000010
000001
000000
000001
000000
,
001000
000100
010000
000001
,
001000
000000
000100
010000
100000
000000
100000
000000
,
001000
000100
100000
001000
,
000001
000100
100000
001000
,
000001
100000
010100
000110
,
010010
000000
000100
000000
001000
000000
000000
000001
,
100000
000001
000010
100000
,
010000
000100
000100
010000
,
000010
000000
000100
000010
001000
000000
001000
000000
,
100000
001000
001000
000010
,
010000
000000
000100
010000
001000
000000
001000
000000
,
000001
001000
010000
000010
,
001000
000000
010000
000001
100000
000000
000010
000000
,
100000
000000
000000
000000
,
100001
000000
000100
000000
001000
000000
000000
000001
,
100000
000001
000010
100000
,
010000
000000
000100
010000
100000
000000
100000
000000
,
000001
000000
000100
000010
000001
000000
000001
000000
,
100000
000000
000100
010000
001000
000000
010000
000000
,
000010
000000
000100
000010
001000
000000
001000
000000
,
010000
001000
010000
000010
,
001000
000000
010000
000001
100000
000000
000010
100000
,
000001
100001
010100
000110
,
010010
000000
100001
000010
010000
000001
000000
100000
,
000001
001000
100000
001000
,
000000
000100
000000
000100
,
001000
000100
001000
100100
,
000000
000100
001000
000001
,
101000
001001
010010
000001
,
000000
001000
000000
001000
,
000100
001000
000100
001001
,
000000
000100
001000
100000
,
000101
000000
100100
000000
001000
001000
100000
001000
,
000000
000010
000000
000010
,
000000
000010
000000
000010
,
010000
010000
010000
010000
,
101000
001001
100001
101000
,
000010
000000
010000
000001
,
100000
001000
001000
000001
,
010000
010000
000010
010000
,
001001
101000
100001
001001
,
000100
000000
000000
000000
000001
100000
001000
000000
,
000001
000100
100000
001000
,
000001
100000
000001
001000
,
000000
100100
000101
010010
,
000010
000000
010000
000001
,
100000
001000
001000
000001
,
010000
010000
000010
010000
,
000000
001001
101000
100001
,
001001
000000
000000
000000
000001
100000
001000
000000
,
000001
000100
100000
001000
,
000001
100000
000001
001000
,
000000
000100
000100
000000
100100
000000
001001
000000
,
100001
000000
000000
000000
;

//---------------dance-solo - ----------------
#NOTES:
     dance-solo:
     :
     Hard:
     8:
     :
000000
000000
000000
000000
,
000000
000000
000000
000000
,
000000
000000
000000
000000
,
000000
000000
000000
000000
,
000000
000000
000000
000000
,
010000
000010
010000
000000
,
000010
000001
000000
000000
010000
100000
000000
000000
,
000100
000100
000100
000000
,
000100
010000
100000
000000
000100
000010
000001
000000
,
001000
001000
000100
000000
000100
000100
001000
000000
,
000001
100000
001000
000001
001000
000001
001000
000000
,
100000
000001
001000
100000
001000
100000
001000
000000
,
000001
100000
001000
100000
000001
100000
000001
001000
,
001000
000000
001000
001000
,
000100
000000
001000
000000
000100
001000
000100
000001
,
100000
000000
000000
000000
000001
001000
100000
000000
,
000100
001000
000001
001000
100000
001000
100000
001000
,
000100
001000
000001
001000
100000
001000
100000
001000
,
000100
001000
000001
001000
100000
001000
100000
001000
,
000100
001000
100000
001000
000100
001000
000100
000001
,
001000
100000
001000
000001
000100
000001
000100
000001
,
100000
001000
000001
000000
001000
000000
001000
000000
,
010010
000000
000001
100000
001000
000100
001000
000000
,
000100
001000
000001
000000
100001
000001
000010
000000
,
000100
000000
000000
000000
000001
000000
100000
001000
000000
000000
000000
000000
000000
000000
000000
000000
,
000100
000000
000000
000000
000001
000000
100000
001000
000000
000000
000000
000000
000000
000000
000000
000000
,
100000
000000
000000
000000
000100
000000
001000
000001
000000
000000
000000
000000
000000
000000
000000
000000
,
100000
000000
000000
000000
000100
000000
001000
000001
000000
000000
000000
000000
010000
000000
000010
000000
,
000000
000000
000100
000000
000000
000100
000000
000000
000100
000000
000000
000100
000000
000000
000100
000000
,
000000
000000
001000
000000
000000
001000
000000
000000
001000
000000
000000
001000
000000
000000
000000
000000
,
000010
000001
010000
100000
,
000001
000000
010010
100001
,
010010
000000
000000
000000
000000
000000
000000
000010
,
001000
000000
000000
000000
000000
000000
000000
010000
,
001000
000000
000110
000001
,
010100
100000
101000
001001
,
000100
100000
001000
000001
,
000100
100000
001000
000001
,
010000
100000
000010
000001
000100
100000
000100
000001
,
100001
000000
101000
000000
001001
000000
000000
000100
,
001000
000000
000100
010000
100000
000000
001001
000000
,
101000
000010
010001
100000
,
001000
000000
000100
000010
000001
000000
101000
000000
,
001001
010000
100010
000001
,
000001
000000
010000
000100
010000
000000
001000
000000
,
001000
000100
000001
001000
,
100000
000100
000001
001000
,
100000
000001
010100
000110
,
010010
000000
011000
000000
001010
000000
000000
000100
,
001000
000000
000100
010000
100000
000000
001010
000000
,
011000
010000
100010
000001
,
001000
000000
000100
000010
000001
000000
011000
000000
,
001010
000010
010001
100000
,
001000
000000
000100
010000
100000
000000
001010
000000
,
011000
000100
010010
001100
,
001000
000000
000100
000010
000001
000000
011000
000000
,
001010
000000
100001
000000
010100
000010
000110
010000
,
000010
000000
101000
000000
001001
000000
000000
000100
,
001000
000000
010000
100000
001000
000000
000101
000000
,
100100
001000
010010
100000
,
000010
000000
000010
000001
001000
000000
100100
000000
,
000101
001000
010010
000001
,
001000
000000
010000
100000
001000
000000
000101
000000
,
100100
001000
010010
001000
,
001000
000000
010000
001000
101000
000000
000010
001000
,
001001
000000
000000
000000
,
100001
000000
011000
000000
001010
000000
000000
000100
,
001000
000000
010000
100000
001000
000000
000101
000000
,
100100
001000
010010
100000
,
000010
000000
000010
000001
001000
000000
010100
000000
,
000101
001000
010010
000001
,
001000
000000
010000
100000
001000
000000
000110
000000
,
100100
001000
010010
001100
,
100001
000000
010000
001000
100001
000000
000010
001000
,
100001
100100
000101
001010
,
011000
000000
000100
001000
000010
010000
000000
100001
,
001100
000001
100000
001000
,
000000
000000
000100
000000
000000
000000
000100
000001
,
100000
000001
000000
100000
000000
001000
000000
100000
000000
001000
100000
000000
000001
000000
000000
000000
,
000100
000100
001000
001000
100000
000001
001000
000000
,
101000
000000
001001
000000
010000
010000
000010
000000
,
100000
100000
000001
000001
000100
001000
000100
000000
,
110000
000011
001100
100001
,
100000
100000
000001
000001
000100
000100
000100
000010
,
000010
010000
010000
000010
000010
010000
100000
001000
,
000000
000101
000000
100100
,
000000
101000
000000
001001
,
000101
100100
101000
001001
,
000101
100100
101000
001001
000101
100100
101000
000000
,
010010
100001
110000
000011
,
000000
100000
001000
000001
001000
000000
100001
000000
,
010000
010000
000010
000010
100000
100000
000001
000001
,
000000
110000
000011
101000
,
001001
000000
000000
000001
001000
000000
100000
000000
,
000000
010000
100000
001000
000010
000001
001000
000000
,
000001
000001
010000
010000
000100
000100
100000
100000
,
000000
110000
000011
001100
,
010010
100001
110000
000011
,
000000
100000
001000
000001
001000
000000
100001
000000
,
010000
010000
000010
000010
100000
100000
000001
000001
,
000000
110000
000011
101000
,
001001
000000
000000
000001
001000
000000
100000
000000
,
000000
010000
100000
001000
000010
000001
001000
000000
,
100001
000100
000100
000100
,
000000
100100
101000
001001
000101
000000
010010
000000
,
100001
000000
000000
000000
;

//---------------dance-threepanel - ----------------
#NOTES:
     dance-threepanel:
     :
     Easy:
     3:
     :
000
000
000
000
,
000
000
000
000
,
000
000
000
000
,
000
000
000
000
,
000
000
000
000
,
001
100
001
000
,
000
010
000
100
,
001
010
010
000
,
001
100
010
000
,
001
100
010
000
,
100
010
001
010
,
001
010
001
000
,
100
001
010
000
,
100
001
010
000
,
100
010
001
010
,
010
010
010
000
,
100
010
001
000
,
100
010
010
000
,
010
001
010
000
,
100
010
010
000
,
001
010
001
000
,
100
010
010
000
,
010
001
010
100
,
010
010
100
001
,
100
010
100
010
,
001
010
010
101
,
000
010
100
000
,
000
001
010
100
,
000
010
010
100
,
001
010
001
000
,
100
010
100
010
,
001
010
100
101
,
101
000
000
000
,
010
000
000
000
,
010
000
100
000
,
010
000
001
000
,
010
010
001
100
,
001
010
100
010
,
001
010
100
010
,
101
010
010
000
,
100
001
010
100
,
010
010
001
010
,
001
100
010
010
,
010
010
100
010
,
100
001
010
010
,
010
010
100
010
,
001
010
100
010
,
100
010
001
010
,
101
010
010
000
,
100
001
010
100
,
001
010
010
001
,
010
100
010
010
,
010
010
010
100
,
010
001
010
010
,
010
010
100
010
,
001
010
100
010
,
010
100
010
001
,
101
010
010
000
,
100
001
010
100
,
001
010
010
001
,
010
100
010
010
,
010
001
010
010
,
100
010
001
010
,
001
100
010
010
,
001
010
100
010
,
001
000
000
000
,
000
010
010
000
,
100
001
010
100
,
010
010
010
100
,
010
001
010
010
,
010
100
010
010
,
001
010
100
010
,
010
001
010
010
,
100
010
001
100
,
001
100
010
010
,
101
010
010
000
,
001
100
001
100
,
000
010
000
010
,
000
010
000
100
,
000
010
010
001
,
100
001
100
001
,
000
010
000
010
,
000
010
000
001
,
000
010
010
100
,
001
100
001
100
,
000
010
000
010
,
000
010
000
010
,
100
010
100
001
,
010
010
010
010
,
001
000
100
000
,
001
000
100
000
,
001
100
001
100
,
000
010
010
010
,
001
000
100
001
,
000
000
100
010
,
001
100
001
100
,
000
001
010
001
,
100
000
001
000
,
100
000
001
000
,
010
010
010
010
,
000
100
010
100
,
010
000
100
010
,
000
000
001
010
,
100
001
100
001
,
010
010
010
101
;

//---------------dance-threepanel - ----------------
#NOTES:
     dance-threepanel:
     :
     Medium:
     5:
     :
000
000
000
000
,
000
000
000
000
,
000
000
000
000
,
000
000
000
000
,
000
000
000
000
,
100
010
010
000
,
001
010
000
000
100
010
000
000
,
001
010
100
000
,
010
100
010
001
,
010
010
010
000
,
001
100
010
000
010
000
010
000
,
100
001
010
000
100
000
010
000
,
010
000
001
100
010
000
000
100
,
001
000
010
010
,
010
000
010
000
010
010
000
001
,
100
000
001
100
,
010
010
000
000
,
100
001
000
000
,
010
010
000
000
,
001
100
000
000
,
001
100
010
010
,
100
001
010
010
,
101
000
010
100
010
000
000
000
,
010
010
001
000
101
001
010
000
,
000
010
100
010
,
001
000
010
100
001
100
001
000
,
010
001
000
010
,
100
000
010
000
010
000
100
001
,
000
010
100
010
,
001
010
010
000
,
000
010
001
010
,
100
000
010
000
010
010
010
000
,
101
000
000
000
000
000
000
010
,
100
000
000
000
000
000
000
010
,
010
000
010
001
,
010
100
010
100
,
010
001
010
100
,
010
001
010
100
,
001
101
010
011
,
101
000
010
000
010
000
000
001
,
100
010
001
010
,
100
001
010
010
,
100
000
001
010
001
000
010
000
,
010
001
010
100
,
001
000
100
010
100
000
010
000
,
010
010
001
010
,
100
010
001
010
,
100
001
110
011
,
101
000
010
000
010
000
000
001
,
100
010
001
010
,
100
010
001
100
,
010
000
010
010
001
000
001
000
,
010
010
100
001
,
010
000
010
010
100
000
100
000
,
010
010
100
010
,
001
010
100
010
,
001
100
010
011
,
101
000
010
000
010
000
000
001
,
100
001
010
100
,
010
010
010
100
,
001
000
010
001
010
000
010
000
,
100
010
010
001
,
100
000
010
100
010
000
010
000
,
001
010
100
001
,
010
000
100
001
100
000
001
000
,
100
000
000
000
,
101
000
010
000
010
000
000
001
,
100
001
010
100
,
010
000
010
010
100
000
010
000
,
001
000
010
010
001
000
010
000
,
100
000
010
100
010
000
100
000
,
001
000
010
001
010
000
010
000
,
100
010
100
001
,
010
000
100
001
100
000
001
100
,
001
101
010
011
,
101
000
101
010
100
001
000
100
,
001
010
100
010
,
000
010
000
010
,
010
010
010
110
,
000
010
010
001
,
110
011
101
001
,
000
010
000
010
,
010
010
010
011
,
000
010
010
100
,
011
000
110
000
010
010
100
010
,
000
001
000
010
,
000
001
000
010
,
100
010
100
010
,
110
011
101
110
,
001
000
100
001
,
100
010
010
001
,
100
010
001
100
,
011
110
101
011
,
010
000
000
000
001
100
010
000
,
001
010
100
010
,
001
100
001
010
,
000
110
011
101
,
010
000
100
001
,
100
010
010
001
,
100
010
001
100
,
000
011
110
101
,
011
000
000
000
001
100
010
000
,
001
010
100
010
,
001
100
001
010
,
000
010
010
000
110
000
011
000
,
101
000
000
000
;

//---------------dance-threepanel - ----------------
#NOTES:
     dance-threepanel:
     :
     Hard:
     8:
     :
000
000
000
000
,
000
000
000
000
,
000
000
000
000
,
000
000
000
000
,
000
000
000
000
,
100
001
100
000
,
010
100
000
000
010
001
000
000
,
010
010
010
000
,
010
010
001
000
010
010
100
000
,
010
010
010
000
010
010
010
000
,
100
001
010
100
010
100
010
000
,
001
100
010
001
010
001
010
000
,
100
001
010
001
100
001
100
010
,
010
000
010
010
,
010
000
010
000
010
010
010
001
,
100
000
000
000
001
010
100
000
,
010
010
001
010
100
010
100
010
,
010
010
001
010
100
010
100
010
,
010
010
001
010
100
010
100
010
,
010
010
100
010
010
010
010
001
,
010
100
010
001
010
001
010
001
,
100
010
001
000
010
000
010
000
,
101
000
010
100
010
010
010
000
,
010
010
100
000
101
001
010
000
,
010
000
000
000
100
000
001
010
000
000
000
000
000
000
000
000
,
010
000
000
000
100
000
001
010
000
000
000
000
000
000
000
000
,
100
000
000
000
010
000
010
001
000
000
000
000
000
000
000
000
,
100
000
000
000
010
000
010
001
000
000
000
000
100
000
001
000
,
000
000
010
000
000
010
000
000
010
000
000
010
000
000
010
000
,
000
000
010
000
000
010
000
000
010
000
000
010
000
000
000
000
,
010
001
010
100
,
001
000
101
101
,
101
000
000
000
000
000
000
010
,
010
000
000
000
000
000
000
100
,
010
000
011
001
,
010
100
110
011
,
010
100
010
001
,
010
100
010
001
,
010
100
010
001
010
100
010
001
,
101
000
110
000
011
000
000
010
,
010
000
010
010
001
000
110
000
,
011
010
011
100
,
010
000
010
010
100
000
011
000
,
110
010
110
001
,
010
000
100
010
100
000
010
000
,
010
010
001
010
,
100
010
001
010
,
100
001
110
011
,
101
000
010
000
011
000
000
010
,
010
000
010
010
001
000
110
000
,
011
010
110
001
,
010
000
010
010
001
000
110
000
,
011
010
011
100
,
010
000
010
010
100
000
011
000
,
110
010
101
010
,
010
000
010
010
001
000
110
000
,
010
000
101
000
010
001
010
100
,
001
000
110
000
011
000
000
010
,
010
000
010
100
010
000
011
000
,
110
010
101
010
,
001
000
010
001
010
000
110
000
,
011
010
101
001
,
010
000
010
100
010
000
011
000
,
110
001
101
010
,
010
000
001
010
011
000
100
010
,
110
000
000
000
,
101
000
010
000
110
000
000
010
,
010
000
010
100
010
000
011
000
,
110
010
101
010
,
001
000
010
001
010
000
101
000
,
110
010
101
001
,
010
000
010
100
010
000
011
000
,
110
001
101
010
,
101
000
010
010
101
000
010
010
,
101
011
110
011
,
110
000
010
010
001
010
000
101
,
010
001
100
010
,
000
000
010
000
000
000
010
001
,
100
001
000
100
000
010
000
100
000
010
100
000
001
000
000
000
,
010
010
010
010
100
001
010
000
,
110
000
011
000
100
010
001
000
,
100
010
001
010
010
010
010
000
,
001
100
010
101
,
010
100
001
010
010
010
010
001
,
010
100
010
001
010
010
100
010
,
000
011
000
110
,
000
110
000
011
,
011
110
110
011
,
011
110
110
011
011
110
110
000
,
101
101
010
001
,
000
100
010
001
010
000
101
000
,
010
100
001
010
100
010
001
010
,
000
100
001
110
,
011
000
000
001
010
000
100
000
,
000
010
100
010
010
001
010
000
,
001
010
100
010
010
010
100
010
,
000
001
100
010
,
101
101
010
001
,
000
100
010
001
010
000
101
000
,
010
100
001
010
100
010
001
010
,
000
100
001
110
,
011
000
000
001
010
000
100
000
,
000
010
100
010
010
001
010
000
,
101
010
010
010
,
000
110
110
011
011
000
101
000
,
101
000
000
000
;
