#TITLE:Let's Dance;
#ARTIST:DAVID BOWIE;
#BANNER:Let's Dance.png;
#BACKGROUND:Let's Dance-bg.png;
#CDTITLE:./CDTITLES/Dance Mania 80's Two.PNG;
#MUSIC:Let's Dance.ogg;
#SAMPLESTART:26.838;
#SAMPLELENGTH:15;
#DISPLAYBPM:114;
#BPMS:0=112.923,8=113.8,12=113.15,16=113.69,20=112.78,24=113.26,28=115.55,32=113.69,36=113.8,40=113.85,44=114.34,48=113.1,52=113.91,56=112.52,60=114.29,64=113.53,68=113.91,72=114.45,76=114.18,80=113.91,88=113.58,92=114.5,100=114.18,104=114.89,108=115.83,112=114.72,116=116.9,120=114.01,124=114.61,128=115.11,132=115.27,136=114.61,140=114.78,144=116,148=114.56,152=115.77,156=114.72,160=114.67,164=114.18,168=114.39,172=116.56,176=113.58,184=114.39;
#BGCHANGES:4=Let's Dance.avi=1=0=0=0,191=Let's Dance-bg.png=1=0=0=1;

//---------------dance-single - ----------------
#NOTES:
     dance-single:
     :
     Beginner:
     1:
     :
0000
0000
0000
0000
,
0000
0000
0000
0000
,
0000
0000
0000
0000
,
0000
0000
0000
0000
,
0000
0000
0000
0000
,
0001
0000
0000
0000
,
1000
0000
0000
0000
,
0010
0000
0010
0000
,
1000
0000
0000
0000
,
0100
0000
0100
0000
,
0010
0000
0000
0000
,
0001
0000
0001
0000
,
1000
0000
0000
0000
,
0001
0000
0001
0000
,
0100
0000
0100
0000
,
1001
0000
0000
0000
,
0001
0000
1000
0000
,
0001
0001
0000
0000
,
1000
1000
1000
0000
,
1001
0000
0000
0000
,
0001
0001
0000
0000
,
0100
0100
0000
0000
,
0010
0010
0010
0000
,
0110
0000
0000
0000
,
0001
0000
0001
0000
,
1000
1000
1000
0000
,
0001
0001
0001
0000
,
0110
0000
0000
0000
,
0010
0000
0010
0000
,
0010
0010
0000
0000
,
0100
0100
0100
0000
,
0001
0000
1000
0000
,
0001
0000
0100
0000
,
0010
0010
0010
0000
,
0100
0100
0100
0000
,
0001
0000
1000
0000
,
0100
0000
0010
0000
,
0010
0010
0010
0000
,
0100
0100
0100
0000
,
1000
0000
0000
0000
,
0001
0000
0000
0000
,
1001
0000
0000
0000
,
0100
0000
0000
0000
,
0001
0000
0000
0000
,
1000
0000
0000
0000
,
0001
0001
0001
0000
,
1001
0000
0000
0000
;

//---------------dance-single - ----------------
#NOTES:
     dance-single:
     :
     Easy:
     4:
     :
0000
0000
0000
0000
,
0000
0000
0000
0000
,
0000
0000
0000
0000
,
0000
0000
0000
0000
,
0000
0000
0000
1000
,
1001
0001
0100
0000
,
0010
0100
0010
0000
,
1000
0001
0010
0000
,
0100
0010
0100
0000
,
0010
0001
1000
0000
,
0001
0010
0001
0000
,
0100
0001
1000
0000
,
0001
0100
0001
1000
,
1001
0000
0100
0000
,
0001
0010
0100
1000
,
0001
0000
0010
0000
,
0001
0100
0010
1000
,
1001
0000
0100
0000
,
1000
0010
0100
0001
,
1000
0000
0010
0000
,
1000
0100
0010
0001
,
1001
1000
0010
0100
,
0001
0000
1000
0000
,
0001
0010
0100
1000
,
0001
0000
1000
0000
,
0001
0001
1000
1000
,
0100
0000
0010
0000
,
0001
0001
1000
1000
,
0010
0000
0100
0000
,
0002
0003
1000
1000
,
0200
0300
1000
0010
,
0110
0000
0100
0100
,
0110
0000
0010
0010
,
2000
3000
0001
0001
,
0200
0300
0001
0010
,
0110
0000
0100
0100
,
0110
0000
0010
0100
,
1000
1000
1000
0000
,
0001
0001
0001
0000
,
0100
0100
0100
0000
,
0002
0000
0003
0000
,
2000
0000
3000
0000
,
0002
0000
0003
0000
,
2002
0000
3003
0001
,
1001
1000
0001
0000
,
0100
0010
1000
0001
,
1001
0000
0000
0000
;

//---------------dance-single - ----------------
#NOTES:
     dance-single:
     :
     Medium:
     6:
     :
0000
0000
0000
0000
,
0000
0000
0000
0000
,
0000
0000
0000
0000
,
0000
0000
0000
0000
,
0000
0000
0000
1000
,
0001
0000
1000
0000
0001
0100
0001
0000
,
1000
0100
0010
0001
,
0001
0000
1000
0000
0001
1000
0001
0000
,
0001
1000
0100
1000
,
0001
0000
0100
0000
0010
0100
0010
0000
,
0010
1000
0100
0010
,
0001
0000
1000
0000
0001
0100
0001
0000
,
0100
0001
0010
0100
,
0110
0000
0000
0010
,
0001
0000
0100
0000
0001
1000
0100
0000
,
1000
0010
0100
0000
0010
1000
0100
0000
,
2000
3002
0023
0130
,
1100
0000
0000
0100
,
1000
0000
0001
0000
1000
0010
0100
0000
,
0001
0010
1000
0000
0010
0001
0100
0000
,
0002
2003
3020
0130
,
0101
0000
0000
0100
,
0001
0000
1000
0000
0100
0010
0001
0000
,
0010
0100
1000
0000
1000
0001
0010
0000
,
0002
0203
0320
1030
,
1001
0000
0000
1000
,
0001
0000
0100
0000
0001
1000
0010
0000
,
0100
0001
0100
0000
0100
0010
0100
0000
,
0001
0000
1000
0000
0010
0100
1000
0000
,
0002
0103
0020
1030
,
0200
0310
0002
1003
,
0001
0100
1000
0000
1000
0100
0001
0000
,
0001
0010
1000
0000
1000
0010
0001
0000
,
2000
3100
0020
0031
,
0200
0310
2000
3001
,
0001
0010
0100
0000
0010
0100
1000
0000
,
0001
1000
0100
0000
1000
0001
0100
0000
,
0002
0023
0230
2300
,
3001
0000
1000
0000
0001
0001
1000
0000
,
0020
0000
2000
3030
,
0001
0100
0001
0100
0001
0100
0001
0000
,
1000
0100
1000
0100
1000
0100
1000
0000
,
0001
0010
0001
0010
0001
0010
0001
0000
,
1000
0010
1000
0010
1000
0010
1000
0000
,
0001
0000
1000
0000
0100
1000
0100
0000
,
0010
0001
0100
0010
,
0110
0000
0000
0000
;

//---------------dance-single - ----------------
#NOTES:
     dance-single:
     :
     Hard:
     7:
     :
0000
0000
0000
0000
,
0000
0000
0000
0000
,
0000
0000
0000
0000
,
0000
0000
0000
0000
,
0000
0000
0000
0000
,
0001
0000
0100
0001
0000
1000
0000
0100
1000
0000
0001
0000
0010
0000
0000
0000
,
0001
1100
1000
0101
,
0001
0000
0010
0001
0000
1000
0000
0010
1000
0000
0001
0000
0100
0000
0000
0000
,
0001
1010
1000
0011
,
0100
0000
0010
0100
0000
1000
0000
0001
1000
0000
0001
0000
0100
0000
0000
0000
,
0010
0110
1000
1001
,
0100
0000
0010
0100
0000
0001
0000
1000
0001
0000
1000
0000
0100
0000
0000
0000
,
0010
0110
0001
0011
,
1100
1000
0010
0100
0010
1000
0001
0000
,
0010
1001
0100
1001
,
0010
0100
1000
0001
1000
0010
0100
0000
,
0010
0110
0001
0101
,
1010
1000
0100
0010
0100
1000
0001
0000
,
0100
1001
0010
1001
,
0100
0010
1000
0001
1000
0100
0010
0000
,
0100
0110
0001
1001
,
0110
0001
1000
0100
1000
0001
0100
0000
,
0010
1100
0010
0101
,
0010
1000
0001
0010
0001
1000
0100
0000
,
0010
0011
1000
1001
,
0110
0001
1000
0010
1000
0001
0010
0000
,
0100
1010
0100
0011
,
0100
1000
0001
0100
0001
1000
0010
0000
,
0100
0101
1000
1001
,
0021
0000
0000
0000
0130
1000
0001
0000
,
0100
0001
1000
0010
0100
0000
1001
0000
,
1020
0000
0000
0100
0130
0100
0001
0000
,
0021
0000
0000
0100
0130
0100
1000
0000
,
0201
0000
0000
0300
0010
1000
0001
0000
,
0010
0001
1000
0100
0010
0000
1001
0000
,
1200
1000
0000
0010
0310
0010
0000
0001
,
0201
0001
0000
0010
0310
0010
1000
0001
,
1001
0000
0100
0001
0100
0001
0010
0000
,
1001
0000
0100
1000
0100
1000
0010
0000
,
1001
0000
0010
1000
0100
1000
0010
0000
,
1001
1000
1000
0001
1000
1000
0001
0010
,
0100
0010
0010
0100
0010
0010
0100
0010
,
0001
1000
1000
0001
1000
1000
0001
1000
,
0100
0100
0100
0100
0010
0001
1001
0000
,
0001
0000
0100
0001
0000
1000
0000
0100
1000
0000
0001
0000
0010
0000
0000
0000
,
0100
1001
0010
1001
,
0220
0000
0000
0330
;

//---------------dance-single - ----------------
#NOTES:
     dance-single:
     :
     Challenge:
     8:
     :
0000
0000
0000
0000
,
0000
0000
0000
0000
,
0000
0000
0000
0000
,
0000
0000
0000
0000
,
0000
0000
0000
0000
0000
0000
1001
0100
,
0010
0000
1000
0001
0000
1000
0000
0001
1000
0000
0010
0000
0100
0000
0001
0000
,
0100
1000
0100
0010
0001
0010
1000
0001
,
0100
0000
0001
1000
0000
0001
0000
1000
0001
0000
0100
0000
0010
0000
1000
0000
,
0010
0001
0010
0100
1000
0100
0001
1000
,
0010
0000
1000
0001
0000
1000
0000
0001
1000
0000
0100
0000
0010
0000
0001
0000
,
0010
1000
0010
0100
0001
0100
1000
0001
,
0010
0000
0001
1000
0000
0001
0000
1000
0001
0000
0010
0000
0100
0000
1000
0000
,
0100
0001
0100
0010
1000
0010
0011
0000
,
1100
0000
0000
0100
0000
0010
0000
0100
0010
0000
0001
0000
0001
0000
0000
0000
,
0100
0001
0011
0000
0100
1000
1010
0000
,
0001
0000
0000
0100
0000
0010
0000
0100
0010
0000
1000
0000
1000
0000
0000
0000
,
0001
0010
1000
0010
0001
0000
0101
0000
,
1010
0000
0000
0010
0000
0100
0000
0010
0100
0000
0001
0000
0001
0000
0000
0000
,
0010
0001
0101
0000
0010
1000
1100
0000
,
0001
0000
0000
0010
0000
0100
0000
0010
0100
0000
1000
0000
1000
0000
0000
0000
,
0001
0100
1000
0100
0001
0000
1001
0000
,
0110
0000
0001
0100
0000
0010
0000
0100
0001
0000
0100
0000
0010
0000
0000
0000
,
1000
0010
1010
0000
0001
0010
0011
0000
,
0100
0000
1000
0100
0000
0010
0000
0100
1000
0000
0100
0000
0010
0000
0000
0000
,
0001
1000
1001
0000
1000
0001
1001
0000
,
0110
0000
0001
0010
0000
0100
0000
0010
0001
0000
0010
0000
0100
0000
0000
0000
,
1000
0100
1100
0000
0001
0100
0101
0000
,
0010
0000
1000
0010
0000
0100
0000
0010
1000
0000
0010
0000
0100
0000
0000
0000
,
0001
1000
1001
0000
1000
0001
1001
0000
,
0210
0000
1000
0000
0310
0001
0100
1000
,
0100
0001
0010
0100
1000
0100
0010
0000
,
0210
0000
0000
0310
0110
0100
0000
0000
,
2000
0000
0000
3001
1001
1000
0000
0000
,
0120
0000
1000
0000
0130
0001
0010
1000
,
0010
0001
0100
0010
1000
0010
0100
0000
,
1002
1000
0000
0103
0110
0010
0100
0001
,
2001
0001
0000
3100
0110
0010
0100
1000
,
1001
0000
0010
0000
0100
0001
0010
0100
,
1001
0000
0100
0000
0010
1000
0100
0010
,
1001
0000
0010
0000
0001
1000
0010
0100
,
0020
0100
0100
0100
0100
0130
0001
0010
,
0200
0010
0010
0010
0010
0310
0001
1000
,
0020
1000
1030
0010
0002
0010
0013
1000
,
0200
1000
1300
0100
0002
0100
0103
0000
,
1001
0000
0001
0100
0000
0001
0000
1000
0100
0000
1000
0000
0010
0000
0000
0000
,
0100
0000
1001
0000
0010
1000
1001
0000
,
0220
0000
0000
0330
;

//---------------dance-double - ----------------
#NOTES:
     dance-double:
     :
     Easy:
     4:
     :
00000000
00000000
00000000
00000000
,
00000000
00000000
00000000
00000000
,
00000000
00000000
00000000
00000000
,
00000000
00000000
00000000
00000000
,
00000000
00000000
00000000
00000001
,
00001001
00001000
00000010
00000000
,
00000100
00000010
00000100
00000000
,
00001000
00010000
00001000
00000000
,
00100000
01000000
00100000
00000000
,
00010000
01000000
00100000
00000000
,
10000000
01000000
00100000
00000000
,
00010000
00100000
01000000
00000000
,
00010000
00001000
00010000
00001000
,
00011000
00000000
00000100
00000000
,
00000001
00001000
00000010
00000100
,
00000001
00000000
00000100
00000000
,
00001000
00000100
00001000
00010000
,
00011000
00000000
01000000
00000000
,
10000000
01000000
00100000
00010000
,
10000000
00000000
01000000
00000000
,
00010000
01000000
00010000
00001000
,
00011000
00010000
00001000
00000100
,
00000010
00000000
00001000
00000000
,
00000100
00000010
00000001
00001000
,
00000100
00000000
00010000
00000000
,
00001000
00001000
00010000
00010000
,
00001000
00000000
00100000
00000000
,
00010000
00010000
10000000
10000000
,
01000000
00000000
00100000
00000000
,
00020000
00030000
01000000
01000000
,
00200000
00300000
00010000
00001000
,
00011000
00000000
00001000
00010000
,
00011000
00000000
00001000
00001000
,
00000200
00000300
00000001
00000001
,
00000020
00000030
00001000
00010000
,
00011000
00000000
00010000
00001000
,
00011000
00000000
00010000
01000000
,
10000000
10000000
10000000
00000000
,
00100000
00100000
00100000
00000000
,
00010000
00010000
00010000
00000000
,
00002000
00000000
00003000
00000000
,
00000200
00000000
00000300
00000000
,
00000002
00000000
00000003
00000000
,
00002002
00000000
00003003
00001000
,
00001001
00000001
00000100
00000000
,
00000010
00001000
00000100
00010000
,
00011000
00000000
00000000
00000000
;

//---------------dance-double - ----------------
#NOTES:
     dance-double:
     :
     Medium:
     6:
     :
00000000
00000000
00000000
00000000
,
00000000
00000000
00000000
00000000
,
00000000
00000000
00000000
00000000
,
00000000
00000000
00000000
00000000
,
00000000
00000000
00000000
00000001
,
00001000
00000000
00000100
00000000
00010000
00001000
01000000
00000000
,
00010000
01000000
00100000
10000000
,
01000000
00000000
00010000
00000000
00001000
00000100
00000001
00000000
,
00001000
00000001
00000100
00000010
,
00010000
00000000
00001000
00000000
01000000
00010000
10000000
00000000
,
00100000
10000000
01000000
00100000
,
00001000
00000000
00010000
00000000
00000100
00001000
00000100
00000000
,
00000010
00000001
00001000
00000010
,
00000110
00000000
00000000
00000000
,
00000001
00000000
00000100
00000000
00001000
00000000
00010000
00100000
,
01000000
00000000
00010000
10000000
01000000
00000000
00100000
00010000
,
01000000
20000000
32000000
03020000
,
00031000
00011000
00000000
00000100
,
00000010
00000000
00000001
00000000
00001000
00000010
00000100
00000000
,
00000001
00000100
00001000
00000000
00001000
00000100
00000001
00000000
,
00002000
00003020
00000230
00000301
,
00001100
00000000
00000000
00010000
,
00001000
00000000
01000000
00000000
00010000
00100000
01000000
00000000
,
00100000
01000000
10000000
00000000
10000000
01000000
00100000
00000000
,
00002000
00023000
00030200
00001300
,
00000110
00000000
00000000
00000010
,
00001000
00000000
00000001
00000000
00000001
00000010
00000001
00000000
,
00000001
00000100
00001000
00000000
00010000
01000000
10000000
00000000
,
00010000
00000000
01000000
00000000
10000000
00010000
01000000
00000000
,
00200000
10300000
02000000
03100000
,
00002000
00013000
00000200
00001300
,
00000001
00000100
00001000
00000000
00000100
00001000
00010000
00000000
,
00001000
00010000
01000000
00000000
00100000
00010000
01000000
00000000
,
00002000
00013000
00000200
00001300
,
00000002
00000013
00000200
00001300
,
00000010
00010000
00001000
00000000
01000000
00010000
10000000
00000000
,
00100000
10000000
01000000
00000000
10000000
01000000
00010000
00000000
,
00002000
00003020
00000032
00000023
,
00000031
00000000
00001000
00000000
00000010
00000010
00000100
00000000
,
00000002
00000000
00002000
00003003
,
00000001
00001000
00000001
00001000
00000001
00001000
00000001
00000000
,
00001000
00000100
00001000
00000100
00001000
00000100
00001000
00000000
,
00000100
00010000
00000100
00010000
00000100
00010000
00000100
00000000
,
00010000
00001000
00010000
00001000
00010000
00001000
00010000
00000000
,
00001000
00000000
01000000
00000000
00100000
01000000
00100000
00000000
,
10000000
00010000
00100000
01000000
,
10010000
00000000
00000000
00000000
;

//---------------dance-double - ----------------
#NOTES:
     dance-double:
     :
     Hard:
     8:
     :
00000000
00000000
00000000
00000000
,
00000000
00000000
00000000
00000000
,
00000000
00000000
00000000
00000000
,
00000000
00000000
00000000
00000000
,
00000000
00000000
00000000
00000000
,
00100000
11000000
00010000
00110000
,
01000000
00000000
10000000
00100000
00000000
10000000
00100000
00000000
01000000
00000000
00010000
00000000
00100000
00000000
00000000
00000000
,
00001000
00101000
00010000
00010100
,
00001000
00000000
00000010
00000000
00000100
00000001
00000000
00000100
00000001
00000000
00001000
00000000
00000010
00000000
00000100
00000000
,
00000010
00000101
00001000
00001010
,
00000100
00000000
00000001
00000010
00000000
00000001
00000010
00000000
00000100
00000000
00001000
00000000
00000010
00000000
00000000
00000000
,
00010000
00010010
00001000
01001000
,
00010000
00000000
00100000
00000000
01000000
10000000
00000000
01000000
10000000
00000000
00000000
00000000
01100000
00000000
00000000
00000000
,
10010000
00000000
00000000
00010000
00000000
10000000
00000000
00010000
00100000
00000000
01000000
00000000
01000000
00000000
00000000
00000000
,
10000000
02000000
00000000
03010000
00002000
00000000
00013000
00000000
,
00000100
00000000
00000000
00001000
00000000
00000001
00000000
00001000
00000010
00000000
00000100
00000000
00000100
00000000
00000000
00000000
,
00000001
00000010
00000100
00001000
00001100
00000000
00011000
00000000
,
01010000
00000000
00000000
00100000
00000000
10000000
00000000
00100000
01000000
00000000
00010000
00000000
00010000
00000000
00100000
00000000
,
02000000
00000000
13000000
00200000
00000000
00310000
00001000
00010000
,
00000100
00000000
00000000
00000010
00000000
00000001
00000000
00000010
00000100
00000000
00001000
00000000
00001000
00000000
00000000
00000000
,
00000001
00000100
00000010
00001000
00001010
00000000
00011000
00000000
,
00110000
00010000
01000000
00010000
10000000
01000000
01000000
00000000
,
00100000
00110000
01000000
11000000
,
00100000
00001000
00010000
00100000
00010000
00001000
00001000
00000000
,
00010000
00010010
00000010
00001010
,
00001100
00001000
00000010
00001000
00000001
00000010
00000010
00000000
,
00000100
00001100
00000010
00000011
,
00000100
00010000
00001000
00000100
00001000
00010000
00010000
00000000
,
00001000
00101000
00100000
00110000
,
20010000
00000000
00000000
00000000
31000000
10000000
00100000
00000000
,
00010000
00100000
01000000
00001000
00100000
00000000
00101000
00000000
,
00021000
00000000
00000000
01000000
01000000
01030000
00000000
00000000
,
00012000
00000000
00000000
00000100
00000100
00003100
00000000
00000000
,
00001002
00000000
00000000
00000000
00000013
00000001
00000100
00000000
,
00001000
00000100
00000010
00010000
00000100
00000000
00010100
00000000
,
00012000
00010000
00000000
00100000
00100000
00103000
00000000
00001000
,
00021000
00001000
00000000
00000010
00000010
00030010
00010000
00001000
,
00011000
00000000
00001000
00000000
00100000
00010000
01000000
00000000
,
10010000
00000000
00100000
00000000
01000000
00010000
00100000
00000000
,
00011000
00000000
00010000
00000000
00000010
00001000
00000100
00000000
,
00000110
00000100
00000100
00000010
00000100
00000100
00010000
00001000
,
01000000
00100000
00100000
01000000
00100000
00100000
00010000
00001000
,
00000100
00000010
00000010
00000100
00000010
00000010
00001000
00000100
,
00010000
00010000
00010000
00010000
00001000
00100000
01100000
00000000
,
01000000
11000000
00010000
01010000
,
00100000
00000000
01000000
00010000
00000000
01000000
00010000
00000000
00100000
00000000
00001000
00000000
00010000
00000000
00000000
00000000
,
00022000
00000000
00000000
00033000
;

//---------------dance-double - ----------------
#NOTES:
     dance-double:
     :
     Challenge:
     8:
     :
00000000
00000000
00000000
00000000
,
00000000
00000000
00000000
00000000
,
00000000
00000000
00000000
00000000
,
00000000
00000000
00000000
00000000
,
00000000
00000000
00000000
00000000
00000000
00000000
00110000
01000000
,
10000000
00000000
00010000
00100000
00000000
00010000
00000000
00100000
00010000
00000000
01000000
00000000
10000000
00000000
01000000
00000000
,
00010000
00100000
00001000
00100000
00010000
00100000
00001000
01000000
,
00100000
00000000
00010000
00001000
00000000
00010000
00000000
00001000
00010000
00000000
00000100
00000000
00000010
00000000
00000100
00000000
,
00010000
00001000
00010000
00000100
00001000
00000010
00000200
00000000
,
00000301
00000000
00001000
00000010
00000000
00001000
00000000
00000010
00001000
00000000
00000100
00000000
00000001
00000000
00000100
00000000
,
00001000
00000010
00010000
00000010
00001000
00000010
00010000
00000100
,
00000010
00000000
00001000
00010000
00000000
00001000
00000000
00010000
00001000
00000000
01000000
00000000
00100000
00000000
01000000
00000000
,
00001000
00010000
00001000
01000000
00010000
00100000
00110000
00000000
,
11000000
00000000
00000000
10000000
00000000
00010000
00000000
01000000
00010000
00000000
10000000
00000000
00100000
00000000
00000000
00000000
,
00100000
01000000
01010000
00000000
00010000
00100000
00101000
00000000
,
00100000
00000000
00000000
00001000
00000000
00010000
00000000
00000100
00010000
00000000
00001000
00000000
00010000
00000000
00000000
00000000
,
00001000
00000100
00000001
00000100
00001000
00000000
00001100
00000000
,
00000101
00000000
00000000
00000001
00000000
00001000
00000000
00000100
00001000
00000000
00000001
00000000
00000010
00000000
00000000
00000000
,
00000010
00000100
00001100
00000000
00001000
00000010
00010010
00000000
,
00000010
00000000
00000000
00010000
00000000
00001000
00000000
01000000
00001000
00000000
00010000
00000000
00001000
00000000
00000000
00000000
,
00010000
01000000
10000000
01000000
00010000
00000000
01010000
00000000
,
11000000
00000000
01000000
00100000
00000000
00100000
00000000
00010000
10000000
00000000
01000000
00000000
00100000
00000000
00000000
00000000
,
00010000
00100000
00101000
00000000
00010000
00000010
00001010
00000000
,
00000100
00000000
00000100
00000010
00000000
00000010
00000000
00001000
00000001
00000000
00000100
00000000
00000010
00000000
00000000
00000000
,
00001000
00000010
00010010
00000000
00001000
00100000
00110000
00000000
,
11000000
00000000
10000000
00010000
00000000
00010000
00000000
10000000
00100000
00000000
01000000
00000000
00100000
00000000
00000000
00000000
,
01000000
00001000
00011000
00000000
00010000
00000100
00001100
00000000
,
00000010
00000000
00000001
00001000
00000000
00001000
00000000
00000010
00000100
00000000
00000001
00000000
00000100
00000000
00000000
00000000
,
00000010
00010000
00011000
00000000
00001000
01000000
01010000
00000000
,
10020000
00000000
01000000
00000000
00130000
00010000
01000000
00001000
,
00100000
00001000
00010000
00000100
00010000
00000010
00001000
00000000
,
00000201
00000000
00000000
00000310
00001010
00001000
00000000
00000000
,
00000200
00000000
00000000
00000310
00000011
00000001
00000000
00000000
,
00002001
00000000
00000010
00000000
00003100
00001000
00000010
00010000
,
00000100
00010000
00001000
00100000
00001000
01000000
00010000
00000000
,
10200000
10000000
00000000
01300000
01100000
00100000
01000000
00010000
,
00210000
00010000
00000000
01300000
01100000
00100000
01000000
10000000
,
10010000
00000000
01000000
00000000
00010000
00001000
00010000
00001000
,
00011000
00000000
00000100
00000000
00000001
00001000
00000001
00001000
,
00001001
00000000
00000010
00000000
00001000
00010000
00001000
00010000
,
01000000
10000000
01000000
00010000
01000000
10000000
00100000
00010000
,
00001000
00000010
00000001
00000010
00001000
00000010
00000001
00000100
,
00001000
00010000
00100000
00010000
00001000
00000010
00001000
00010000
,
01000000
10000000
01000000
01000000
01000000
01000000
10010000
00000000
,
10100000
00000000
10000000
00010000
00000000
00010000
00000000
10000000
01000000
00000000
00100000
00000000
01000000
00000000
00000000
00000000
,
00100000
00001000
00011000
00000000
00010000
00000010
00001010
00000000
,
00002002
00000000
00000000
00003003
;
